#TITLE:Max Don't Have Sex With Your Ex;
#SUBTITLE:;
#ARTIST:E-Rotic;
#TITLETRANSLIT:;
#SUBTITLETRANSLIT:;
#ARTISTTRANSLIT:;
#CREDIT:;
#BANNER:Max Don't Have Sex With Your Ex.png;
#BACKGROUND:Max Don't Have Sex With Your Ex-bg.png;
#LYRICSPATH:;
#CDTITLE:Mathias.png;
#MUSIC:Max Don't Have Sex With Your Ex.mp3;
#OFFSET:-3.460;
#SAMPLESTART:63.429;
#SAMPLELENGTH:14.142;
#SELECTABLE:YES;
#BPMS:0.000=140.000;
#STOPS:;
#BGCHANGES:;
// cache tags:
#FIRSTBEAT:8.000;
#LASTBEAT:216.000;
#SONGFILENAME:Songs/juju steps/Max Don't Have Sex With Your Ex/Max Don't Have Sex With Your Ex.sm;
#HASMUSIC:1;
#HASBANNER:1;
#MUSICLENGTH:96.058;
// end cache tags

//---------------dance-single - ----------------
#NOTES:
     dance-single:
     :
     Easy:
     3:
     0.268,0.365,0.135,0.312,0.000,137.000,13.000,30.000,0.000,0.000:









0000
0000
0000
0000
,
0000
0000
0000
0000
,
1000
0001
1000
0001
,
1000
0000
2000
0000
,
0001
0000
3001
0001
,
1000
0000
1001
0000
,
0220
0000
0000
0000
,
0030
0000
0300
0002
,
2000
0000
0000
0000
,
0003
0000
3000
0002
,
0200
0000
0000
0003
,
0002
0003
0300
0002
,
2000
0000
0000
0003
,
0002
0003
3000
0002
,
2000
0003
3000
0000
,
1000
0000
0000
0000
0001
0000
0000
0000
2000
0000
0000
3000
0001
0000
0000
0000
,
0100
0010
0010
0000
,
1000
0000
0000
0000
0001
0000
0000
0000
0200
0000
0000
0300
0010
0000
0000
0000
,
0010
0010
0010
0000
,
1000
0000
0000
0000
0100
0000
0000
0000
0020
0000
0000
0030
0001
0000
0000
0000
,
1000
1000
0001
0000
,
0100
0000
0000
0000
0010
0000
0000
0000
0200
0000
0000
0300
0001
0000
0000
0000
,
1000
1000
0001
0000
,
0000
0100
0000
0010
,
0000
1000
0000
1000
,
0000
0001
0000
0100
,
0000
0010
0000
1000
,
0001
0001
0020
0030
,
1000
0100
1000
0010
,
0110
0110
0220
0330
,
1000
0010
0100
0001
,
2000
0001
0002
3003
,
1000
0000
0010
0000
,
1000
0100
0100
0100
,
0010
0001
0001
0001
,
2002
0000
0003
3000
,
1000
0100
1000
0010
,
0100
0000
0100
0010
,
0100
0000
0110
0000
,
1000
0001
2000
3000
,
0001
0001
0010
0010
,
0100
0000
1000
0100
,
1000
0000
1001
0000
,
0110
0000
0100
0010
,
0100
0001
1000
0010
,
0100
1000
0002
0003
,
0200
0300
0020
0030
,
1000
1000
0100
0100
,
0010
0010
1000
0001
,
1001
0000
0100
0010
,
0110
0000
1000
0001
,
1001
0000
0100
0010
,
0220
0000
0000
0000
,
0000
0000
0000
0000
,
0330
0000
0000
0000
;

//---------------dance-single - ----------------
#NOTES:
     dance-single:
     :
     Medium:
     5:
     0.405,0.450,0.208,0.406,0.000,213.000,20.000,39.000,0.000,0.000:









0000
0000
0000
0000
,
0000
0000
0000
0000
,
0100
0000
0010
1000
0010
0000
0001
0100
,
0001
0000
0000
0000
0100
0010
0100
0010
,
0100
0001
1000
0200
,
0310
0002
1003
2000
,
3002
0000
0000
2000
0000
0000
0003
3000
,
0020
0030
0200
0310
,
0120
0000
0000
2000
0000
0000
0030
3000
,
0002
0003
0200
0301
,
0201
0001
0001
0301
,
2100
0100
3100
0110
,
1002
1000
1000
1003
,
0120
1000
0130
0110
,
2000
3002
2000
3003
,
1000
0000
0001
0100
0001
0000
1000
0000
,
0010
0000
0100
0010
0100
0000
0001
0000
,
1000
0000
1000
0100
1000
0000
0010
0000
,
0100
0000
0100
0010
0100
0000
0001
0000
,
0001
0000
1000
0010
1000
0000
1010
0000
,
0010
0000
1000
0010
1000
0000
0100
0000
,
0010
0000
0001
0001
0001
0000
0110
0000
,
0100
0000
1000
1000
1000
0000
0100
0000
,
0010
1000
0000
0001
0000
0100
0000
0010
,
0100
0010
0000
1000
0000
0001
0000
0010
,
0001
1000
0000
0010
0000
0100
0000
0001
,
1000
0001
0000
0100
0000
0010
0000
0100
,
0010
0000
0100
0000
1000
0001
1000
0000
,
0100
0100
0001
0001
,
0010
0000
0010
0000
0100
1000
0100
0000
,
0002
0103
2000
3100
,
1100
0011
1100
0100
,
0010
0000
1000
0000
0100
0010
0100
0000
,
1000
0100
1000
0100
1000
0100
1000
0000
,
0001
0010
0001
0010
0001
0010
0001
0000
,
0220
0000
0030
0300
,
1000
0000
0001
0010
0001
0000
1000
0100
,
1000
0000
0020
0100
,
0130
0000
1010
0000
0101
0000
0100
0010
,
2000
3002
0203
0302
,
1003
0000
1000
0010
1000
0000
0100
0010
,
0100
0000
0002
1000
,
0013
0020
0130
0100
,
2000
3020
2030
3020
,
2030
0000
0000
3001
0000
0000
0000
0000
,
0200
0000
0000
0310
0000
0000
0000
0000
,
0002
0000
0000
1003
0000
0000
0000
0000
,
2000
0000
0000
3010
0000
0000
0000
0000
,
1000
0000
0100
0010
0100
0000
0001
0000
,
0100
0000
0010
0100
0010
0000
1000
0000
,
0001
0000
0100
0010
0100
0000
0010
0000
,
1100
0011
1010
0101
,
2002
0000
0000
0000
,
0000
0000
0000
0000
,
3003
0000
0000
0000
;

//---------------dance-single - ----------------
#NOTES:
     dance-single:
     :
     Hard:
     8:
     0.513,0.506,0.302,0.219,0.156,295.000,29.000,21.000,0.000,0.000:

0000
0000
0000
0000
,
0000
0000
0000
0000
,
1000
0000
0001
0100
0100
0000
1000
0010
,
0010
0000
0000
0100
0010
1000
0001
0100
,
0010
2000
3001
0110
,
2000
3010
0002
0103
,
1000
0000
0000
0001
0000
0000
0100
0000
0000
0010
0000
0000
1000
0000
0001
0000
,
1000
0000
0000
0100
0000
0000
0010
0000
0000
0100
0000
0000
1000
0000
0100
0000
,
1100
0000
0000
1000
0000
0000
0010
0000
0000
0100
0000
0000
0001
0000
0010
0000
,
0001
0000
0000
1000
0000
0000
0010
0000
0100
0000
0010
0000
0100
0000
0010
0000
,
0110
0000
0000
1000
0000
0000
0010
0000
0000
0100
0000
0000
0001
0000
1000
0000
,
1001
0000
0000
0100
0000
0000
0010
0000
0000
0010
0000
0000
0010
0000
0100
0000
,
0110
0000
0000
1000
0000
0000
0001
0000
0000
0100
0000
0000
0001
0000
0100
0000
,
0101
0000
0000
1000
0000
0000
0100
0000
0000
1000
0000
0000
0100
0000
1000
0000
,
2000
0000
0000
0001
0000
0000
3001
0000
0002
0000
0000
1000
0003
0000
0001
0000
,
1000
0000
0010
0000
0100
0000
0010
2000
0000
0000
0000
3000
0000
0000
0010
0000
,
0100
0000
0001
0000
1000
0000
0100
1000
0000
0000
0000
0000
0100
0000
0001
0000
,
1000
0000
0010
0000
0100
0000
0010
0200
0000
0000
0000
0300
0000
0000
0001
0000
,
1000
0000
0001
0000
0100
0000
0010
0100
0000
0000
0000
0000
0010
0000
1000
0000
,
0100
0000
1000
0000
0010
0000
0100
0020
0000
0000
0000
0030
0000
0000
1000
0000
,
0010
0000
0100
0000
0001
0000
1000
0001
0000
0000
0000
0000
0100
0000
0001
0000
,
0001
0000
0010
0000
0010
0000
0100
0020
0000
0000
0000
0030
0000
0000
0001
0000
,
0001
0000
1000
0000
1000
0000
0010
0100
0000
0000
0000
0000
1001
0000
0000
0000
,
1000
0100
0000
0010
0000
1000
0000
1000
,
0001
1000
0000
0010
0000
0100
0000
0010
,
0100
0010
0000
1000
0000
0001
0000
0100
,
0010
0100
0000
1000
0000
0100
0000
1000
,
0001
0100
0010
0100
0001
1000
0100
1000
,
0010
1000
0100
1000
0001
0100
0010
0100
,
0002
0000
2003
0000
3001
0100
0001
1000
,
0100
0010
0100
1000
0001
0100
0010
0000
,
1100
0000
0101
0000
1001
0000
0010
0100
,
0001
0010
0100
1000
0010
0100
0001
0010
,
0100
1000
0001
1000
0001
0100
0010
0100
,
0001
1000
0010
0100
0010
0100
0002
0000
,
1003
0010
1000
0100
2000
0000
3001
0000
,
0110
0000
1000
0001
0100
0000
0001
1000
,
0100
0000
0000
1000
0001
0100
0010
0100
,
0001
0000
1100
0000
0011
0000
0100
0010
,
2000
3100
0021
0031
,
1100
0000
0010
0100
0001
0000
0100
0010
,
1000
0000
0000
1000
0100
1000
0001
0100
,
0010
0011
1100
1010
,
0101
0110
0011
1100
,
2002
0000
0000
0000
0000
0000
0000
0000
0000
0000
0000
3003
0000
0000
1000
0000
,
0100
0000
1000
0000
0001
0000
0100
0010
0000
0000
0000
0000
0100
0000
0001
0000
,
1000
0000
0100
0000
1000
0000
0010
0200
0000
0000
0000
0300
0000
0000
0001
0000
,
1000
0000
0100
0000
0010
0000
0100
0010
0000
0000
0000
0000
1000
0000
0010
0000
,
0100
0000
0001
0000
1000
0000
0100
2000
0000
0000
0000
3000
0000
0000
1000
0000
,
0100
0000
0010
0000
0100
0000
1000
0001
0000
0000
0000
0000
0000
0000
0000
0000
,
1100
0110
0011
0110
,
1000
0100
0010
0100
0010
0100
0110
0000
,
2002
0000
0000
0000
,
0000
0000
0000
0000
,
3003
0000
0000
0000
;

//---------------dance-single - ----------------
#NOTES:
     dance-single:
     :
     Challenge:
     11:
     0.834,0.759,0.406,0.458,0.843,478.000,39.000,44.000,0.000,4.000:







0000
0000
0000
0000
,
0000
0000
0000
0000
,
1001
0000
1000
0100
1100
0000
0001
0010
,
0011
0000
0000
0000
0000
0000
1000
0001
1000
0000
0100
0000
0010
0000
0100
0000
,
0110
0100
0011
2100
,
0100
0010
3100
0110
,
1001
0000
1000
0100
0000
0100
1000
0000
1000
0001
0000
0001
1000
0000
0100
0000
,
1000
0000
1000
0010
0000
0010
0100
0000
0100
0010
0000
0010
1001
0000
0001
0000
,
0110
0000
0010
1000
0000
1000
0010
0000
0001
0100
0000
0100
0001
0000
1000
0000
,
0100
0000
1000
0010
0000
0010
1000
0000
0100
0000
1000
0000
1001
0000
0100
0000
,
0110
0000
1000
0001
0000
0001
0100
0000
0100
0010
0000
0010
1000
0000
0001
0000
,
1001
0000
1000
0010
0000
0010
0100
0000
0100
0001
0000
0001
0110
0000
0001
0000
,
1001
0000
1000
0010
0000
0010
1000
0000
1000
0001
0000
0001
1000
0000
0100
0000
,
0110
0000
1000
0001
0000
0100
0010
0000
1000
0001
0000
0100
0011
0000
0100
0000
,
1100
0000
0000
0010
0000
0000
0100
0000
0010
0000
0000
1000
0000
0100
1000
0010
,
0100
0001
0010
0100
1000
0001
1000
0002
0000
0000
0000
1003
0000
1000
0010
0100
,
0010
1000
0100
1000
0100
1000
0100
1000
0000
0000
0010
0000
0100
0010
0100
0001
,
1000
0100
0010
0100
1000
0010
0100
0020
0000
0000
0000
0130
0000
0100
0001
1000
,
0010
0100
0001
0010
0001
0010
0001
0010
0000
0000
0100
0000
0001
1000
0001
0100
,
0001
0010
0001
0100
0001
1000
0001
0200
0000
0000
0000
0301
0000
1000
0100
0010
,
0001
1000
0100
0010
0001
1000
0100
0010
0000
0000
0100
0000
0010
1000
0001
0100
,
0010
0100
0001
0010
0100
1000
0010
2000
0000
0000
0000
3001
0000
0001
0100
0010
,
1000
0001
0100
0010
1000
0001
0100
0010
0100
0000
0001
0000
1000
0000
0100
0000
,
1100
0100
0110
0010
0011
0010
0110
0100
,
1100
0100
0011
0010
1100
0100
0011
0100
,
1000
0100
2000
0000
0000
0000
0010
0000
0000
0000
0001
0000
0000
0000
3100
0000
,
0010
0100
0020
0000
0000
0000
0100
0000
0000
0000
1000
0000
0000
0000
0130
0001
,
0100
0000
0010
0000
1000
0000
0010
1000
0010
0000
0010
1000
0000
0000
1000
0100
,
1000
0000
1000
0001
0000
0001
1000
0000
0100
0000
1000
0100
0000
1000
0100
0000
,
0220
0000
0330
0000
2002
0000
3003
0000
0110
0000
1000
0100
0000
0000
1000
0000
,
0010
0100
0010
0100
0010
0000
1000
0000
0001
1000
0001
1000
0001
0000
0000
0000
,
2002
0000
3003
0000
2200
0000
3300
0000
0022
0000
0033
0000
0100
0010
0000
0010
,
0000
1000
0000
0001
0000
0100
0010
0000
1000
0000
0001
1000
0000
0000
0100
0000
,
0010
0000
1000
0100
0000
0000
0001
0000
0010
0000
0001
0010
0000
0000
0100
0000
,
1100
0100
0110
0010
0011
0100
1100
0000
,
2000
0100
0100
0100
0010
0000
3010
0000
,
2001
0100
3010
1000
0002
0100
1003
0010
,
0200
0000
0010
0000
0310
0000
1000
0100
2000
0000
0001
0000
0100
0000
0010
0000
,
3002
0100
0023
0100
0032
1000
0100
1000
,
0203
0010
2300
0001
3200
0010
2300
0001
,
3200
0010
0001
0001
0320
1000
0100
0100
,
0230
0000
0010
0000
0301
0000
0001
0010
0002
0000
1000
0000
0100
0000
1000
0000
,
0023
0001
0100
0001
0230
1000
0010
0001
,
0320
0000
0001
0000
2030
0000
0100
0000
3200
0000
0010
0000
0310
1000
0001
0100
,
0010
1000
0010
0100
0010
1000
0001
0200
0000
0000
0000
0310
0000
1000
0100
1000
,
0001
0100
0010
0100
0001
1000
0100
1000
0000
0000
0100
0000
0010
0001
1000
0010
,
0100
0001
0010
0100
1000
0010
0100
0020
0000
0000
0000
1030
0000
0100
0010
0001
,
1000
0001
0100
0010
0100
0010
1000
0100
0000
0000
0010
0000
1000
0100
0010
0100
,
1000
0100
0010
0100
1000
0100
0010
0200
0000
0000
0000
0310
0000
0010
0001
0010
,
0100
0010
0001
0010
0100
0010
0001
0010
0000
0000
1000
0000
0001
0100
0010
0100
,
0001
1000
0100
1000
0010
0100
0010
2000
0000
0000
0000
3001
0000
0001
1000
0100
,
0010
0100
0010
0001
1000
0010
0100
0010
0100
0000
0000
0000
1001
0000
0000
0000
,
0220
1000
0001
1000
,
0001
0000
0000
0000
,
0330
0000
0000
0000
;
