#TITLE:Moi... Lolita;
#SUBTITLE:;
#ARTIST:Alizee;
#TITLETRANSLIT:;
#SUBTITLETRANSLIT:;
#ARTISTTRANSLIT:;
#CREDIT:Darkmage;
#BANNER:moilolita-bn.png;
#BACKGROUND:moilolita-bg.png;
#LYRICSPATH:;
#CDTITLE:!darkmagetitle2.png;
#MUSIC:Moi Lolita.ogg;
#OFFSET:1.702;
#SAMPLESTART:55.120;
#SAMPLELENGTH:18.717;
#SELECTABLE:YES;
#BPMS:0.000=108.000;
#STOPS:;
#BGCHANGES:0.000=moilolita-bg.png=1.000=0=0=1,
4.000=moilolita.avi=1.000=0=0=1,
472.000=moilolita-bg.png=1.000=0=0=1,
99999=-nosongbg-=1.000=0=0=0 // don't automatically add -songbackground-
;
// cache tags:
#FIRSTBEAT:4.000;
#LASTBEAT:472.000;
#SONGFILENAME:Songs/Archmage and Dark0wl Hammer of Thor UltraHyperMegaPack/Moi Lolita/Moi... Lolita.sm;
#HASMUSIC:1;
#HASBANNER:1;
#MUSICLENGTH:105.000;
// end cache tags

//---------------dance-double - Darkmage----------------
#NOTES:
     dance-double:
     Darkmage:
     Easy:
     4:
     0.189,0.232,0.067,0.171,0.000,114.000,7.000,18.000,0.000,0.000:
00000000
00000000
00000000
00000000
,
00000000
00000000
00000000
00000000
,
00010000
00000000
00000000
00000000
,
10000000
00000000
00000000
00000000
,
00010000
00000000
00000000
00000000
,
00001000
00000000
00000000
00000000
,
00000010
00000000
00000000
00000000
,
00001000
00000000
00000001
00000000
,
00002002
00000000
00000000
00003003
,
00000010
00000000
00000100
00000000
,
00000001
00000000
00000010
00000000
,
00001000
00000000
00010000
00000000
,
00011000
00000000
01000000
00000000
,
00100000
00000000
10000000
00000000
,
00010000
00010000
10000000
10000000
,
01000000
00010000
00001000
00000010
,
00001001
00000000
00000100
00000010
,
00001000
00000000
00000001
00000000
,
00001000
00001000
00010000
00000000
,
00100000
00000000
00010000
10000000
,
10010000
00000000
01000000
00100000
,
01000000
00000000
10000000
00000000
,
01000000
00000000
00010000
00001000
,
00000010
00000010
00000100
00000100
,
00001001
00000000
00000000
00000000
,
00000001
00000000
00000100
00000000
,
00010000
00000000
00100000
00000000
,
01000000
10000000
00010000
10000000
,
01100000
00000000
10000000
01000000
,
00010000
00000000
00010000
00001000
,
00010000
00010000
00001000
00001000
,
00000010
00000001
00001000
00000010
,
00000200
00000000
00000000
00000300
,
00000002
00000000
00000000
00000003
,
00000020
00000000
00000000
00000030
,
00002000
00000000
00000000
00003000
,
00020000
00030000
02000000
03000000
,
20000000
30000000
00200000
00300000
,
02000000
03000000
00020000
00030000
,
20000000
30000000
02000000
03000000
,
00010000
00010000
00001000
00001000
,
00020000
00030000
00000100
00000010
,
00000002
00000003
00001000
00000010
,
00000200
00000300
00000001
00001000
,
00001001
00000100
00000010
00000010
,
00000001
00000001
00001000
00001000
,
00000010
00000100
00000001
00000010
,
00001000
00010000
00100000
00100000
,
20000000
00000000
00000000
30000000
;

//---------------dance-double - Darkmage----------------
#NOTES:
     dance-double:
     Darkmage:
     Medium:
     6:
     0.265,0.325,0.095,0.124,0.000,172.000,10.000,13.000,0.000,0.000:
00000000
00000000
00000000
00000000
,
00000000
00000000
00000000
00000000
,
00020000
00000000
00000000
00030000
,
20000000
00000000
00000000
30000000
,
00200000
00000000
00000000
00300000
,
00020000
00000000
00002000
00033000
,
00000020
00000030
00000002
00000003
,
00001000
00000001
00000100
00000010
,
00001001
00000000
00000000
00000000
,
00000010
00000000
00000100
00000001
,
00001000
00000000
00000010
00000000
,
00000100
00000000
00001000
01000000
,
10010000
00000000
00010000
00010000
,
01000000
01000000
00100000
10000000
,
01000000
00010000
00000010
00000100
,
00000001
00001000
00000100
00000000
00000010
00000001
00000100
00000000
,
00001001
00000100
00000010
00001000
,
00000100
00000010
00000001
00000100
,
00001000
00010000
01000000
10000000
,
10000000
00010000
01000000
00100000
,
10010000
00010000
00100000
01000000
,
10000000
00100000
00010000
00000100
,
00000010
00000001
00001000
00000010
,
00000100
00000000
00000001
00000000
00001000
00000001
00001000
00000000
,
00000110
00000001
00000010
00001000
,
00000010
00000001
00000100
00000010
,
00010000
00001000
01000000
00100000
,
10000000
00010000
01000000
00100000
,
10010000
01000000
00010000
01000000
,
10000000
00010000
01000000
00100000
,
10000000
00010000
00001000
00000010
,
00000100
00000001
00001000
00000010
,
00000200
00000000
00010000
00010300
,
00200000
00000000
01000000
01300000
,
10000000
00100000
01000000
00100000
,
10000000
00010000
10000000
00000000
01100000
00000000
10010000
00000000
,
02000000
00000000
03000000
00010000
,
00002000
00000000
00003000
00000010
,
00000002
00000000
00000003
00001000
,
00000010
00000000
00000100
00000001
00001000
00000000
00000010
00000000
,
00000101
00000000
00001000
00000000
00000100
00000000
00000010
00000001
,
00000100
00000000
00001000
00000000
00100000
00000000
01000000
10000000
,
00010000
00000000
01000000
00000000
00100000
00000000
10000000
01000000
,
00010000
00000000
00001000
00000000
00010000
00000000
00001000
00000100
,
00000001
00000000
00000001
00000010
00000100
00000000
00000100
00001000
,
00000001
00000000
00000001
00000010
00001000
00000000
00010000
00000000
,
01000000
10000000
00010000
00000000
00100000
01000000
10000000
00000000
,
00010000
00100000
10000000
00100000
01000000
00000000
10010000
00000000
,
02000000
00000000
00000000
03000000
;

//---------------dance-double - Darkmage----------------
#NOTES:
     dance-double:
     Darkmage:
     Hard:
     8:
     0.380,0.487,0.086,0.190,0.100,250.000,9.000,20.000,0.000,0.000:
00000000
00000000
00000000
00000000
,
00000000
00000000
00000000
00000000
,
00000002
00000000
00000000
00000000
,
00002000
00000000
00000000
00003003
,
00001000
00000000
00000000
00010000
00000000
00000000
00100000
00000000
01000000
00000000
00000000
10000000
00000000
00000000
00010000
00000000
,
01000000
00000000
00000000
00100000
00000000
00000000
10000000
00000000
00010000
00000000
00000000
01000000
00000000
00000000
00100000
00000000
,
10000000
00000000
00000000
01000000
00000000
00000000
00010000
00000000
00001000
00000000
00000000
00001000
00000000
00000000
00010000
00000000
,
00000100
00000000
00000000
00000010
00000000
00000000
00000001
00000000
00000100
00000000
00000000
00000000
00000110
00000000
00000000
00000000
,
00002002
00000000
00000000
00000000
,
00000000
00000000
00003003
00000010
,
00001000
00000100
00001000
00000000
00000001
00000000
00000000
00000000
00000000
00000000
00000000
00000000
00000100
00000000
00000000
00000000
,
00000000
00001000
00000000
01000000
,
00100000
10000000
00100000
00000000
01000000
00000000
00000000
00000000
00010000
10000000
00010000
00000000
00100000
00000000
00000000
00000000
,
01000000
10000000
01000000
00000000
00100000
00000000
00000000
00000000
00010000
01000000
00010000
00000000
00100000
00000000
00000000
00000000
,
01000000
10000000
00100000
01000000
00010000
00001000
00000010
00000100
,
00000001
00000000
00000010
00000000
00000100
00000000
00000000
00000000
00001000
00000001
00001000
00000000
00000010
00000000
00000000
00000000
,
00001001
00000000
00000010
00000100
00000000
00000001
00001000
00000100
,
00000000
00000010
00000001
00000100
00000000
00001000
00000000
00010000
,
00000000
01000000
10000000
00010000
00000000
00010000
00000000
00010000
,
00100000
01000000
10000000
00010000
01000000
00100000
01000000
00000000
,
10010000
00000000
00100000
01000000
00000000
00010000
00100000
10000000
,
00000000
00100000
00010000
01000000
00000000
00100000
10000000
01000000
,
00000000
00010000
00001000
00000100
00000000
00000001
00000000
00001000
,
00000100
00000010
00000002
00000000
00001003
00000000
00001000
00000000
,
00000110
00000000
00001000
00000001
00000000
00000010
00000000
00001000
,
00000000
00010000
00000000
00100000
00000000
10000000
00000000
00010000
,
00100000
01000000
00000000
00100000
00000000
00010000
00000000
10000000
,
00100000
01000000
00010000
00000000
00100000
01000000
10000000
00000000
,
01010000
00000000
10000000
01000000
00100000
00000000
00001000
00010000
,
00000010
00000000
00000100
00000001
00000010
00000100
00001000
00000000
,
00000010
00000000
00000100
00000001
00000010
00000000
00000100
00001000
,
00000001
00000100
00000010
00001000
00000001
00000010
00001000
00000000
,
00011000
00000000
00100000
10000000
01000000
00100000
00010000
00000000
,
10000000
00000000
00100000
01000000
00010000
00100000
01000000
00000000
,
10000000
00010000
01000000
00000000
00100000
10000000
01000000
00000000
,
00100000
00010000
20000000
00000000
00100000
00000000
31000000
00000000
,
10010000
00000000
01000000
00100000
10000000
00000000
01000000
00000000
,
00020000
00000000
00031000
00000200
,
00000302
00000000
00001003
00000200
,
00000320
00000000
00000032
00000103
,
00002200
00000000
00000000
00000000
00003300
00000000
00000000
00000000
00000010
00000001
00000010
00000000
00000200
00000000
00000000
00000000
,
00002000
00000000
00000000
00000000
00003300
00000000
00000000
00000000
00010000
00001000
00010000
00000000
00200000
00000000
00000000
00000000
,
20000000
00000000
00000000
00000000
30300000
00000000
00000000
00000000
00010000
01000000
00010000
00000000
00200000
00000000
00000000
00000000
,
01300000
00000000
10000000
00000000
00010000
10000000
01000000
00000000
,
00100000
00010000
00100000
00000000
00001000
00000000
00001000
00000000
00010000
00001000
00010000
00000000
00000100
00000000
00001000
00000000
,
00000010
00000100
00000010
00000000
00001000
00000000
00001000
00000000
00000100
00000010
00000100
00000000
00001000
00000000
00000001
00000000
,
00000100
00000001
00001000
00000010
00000100
00001000
00010000
01000000
,
10000000
00000000
00100000
00000000
01000000
00000000
00010000
00000000
10000000
00000000
00100000
00000000
01000000
00010000
10000000
00000000
,
02000000
00000000
00000000
03000000
;

//---------------dance-single - Darkmage----------------
#NOTES:
     dance-single:
     Darkmage:
     Challenge:
     13:
     1.000,1.000,1.000,0.267,1.000,1538.000,160.000,28.000,0.000,0.000:
0000
0000
0000
0000
,
2000
0000
3200
0000
,
0302
0000
0000
0000
0103
0010
0001
1000
0010
0100
1000
0100
0010
1000
0001
0010
,
0200
0000
0320
0000
,
0032
0000
0000
0000
1003
0010
0001
0010
0100
0001
0100
1000
0100
0001
1000
0100
,
0010
0000
0000
0010
1000
0000
0000
1000
0001
0000
0001
0000
0000
0000
1000
0000
,
0100
0000
0000
0001
0010
0000
0000
0001
0100
0000
0000
0010
0001
0000
0000
1000
,
0010
0000
0000
0010
0001
0000
0000
0010
0100
0000
0100
0000
0000
0000
0010
0000
,
1000
0000
0000
0100
0001
0000
0000
0100
1000
0000
0000
0010
0001
0000
0000
0000
,
1000
0000
0001
0000
0100
0000
0010
1000
0000
1000
0000
0000
0000
0000
0001
0000
,
0010
0000
0000
0000
0100
0000
0000
0100
1000
0000
1000
0000
0010
0000
0010
0000
,
0100
0000
0001
0000
1000
0000
0100
0001
0000
0001
0000
0000
0000
0000
0100
0000
,
0010
0001
0000
1000
0010
1000
0100
0000
,
0101
0000
1000
0000
0001
0000
0010
0100
0000
0100
0000
0000
0000
0000
1000
0000
,
0010
0000
0000
0000
0010
0000
0000
0010
1000
0000
1000
0000
0001
0000
0001
0000
,
0010
0000
0100
0000
1000
0000
0001
0100
0000
0100
0000
0000
0000
0000
0010
0000
,
1000
0001
0000
0010
0100
0000
1000
0000
,
0011
0000
0100
0000
1010
0000
1000
0001
0100
0000
0100
0000
0010
0000
1000
0000
,
0101
0000
0010
0000
0011
0000
1000
0001
1000
0000
1000
0000
0010
0000
0010
0000
,
1100
0000
0010
0000
0101
0000
0100
0010
1000
0000
1000
0000
0001
0000
0001
0000
,
1010
0000
0100
0000
0011
0000
0010
0100
1000
0000
1000
0000
0010
0000
0010
0000
,
0101
0000
0010
0000
1100
0000
1000
0001
0010
0000
0010
0000
0100
0000
0100
0000
,
0011
0000
0100
0000
1010
0000
0010
1000
0100
0000
0100
0000
1000
0000
1000
0000
,
0011
0000
0100
0000
1010
0000
1000
0001
0100
0000
0100
0000
0010
0000
0010
0000
,
1100
0000
0001
0000
0110
0000
0100
0010
1000
0000
1000
0000
0001
0000
0001
0000
,
1000
0010
0100
0001
0010
0001
0100
0010
1000
0100
0010
0001
0010
0100
1000
0100
,
0012
0000
0013
0000
1100
0000
0010
0001
0000
1000
0010
0000
1000
0000
0100
0010
,
0000
0000
1000
0000
0010
0000
0001
0010
0000
0000
0001
0000
1000
0000
0010
0000
,
0012
0000
0013
0000
1010
0000
0010
1000
0000
0100
0010
0000
1000
1000
0000
0000
,
0001
0000
0100
0000
0010
0000
1000
0001
0000
0000
0010
0000
1000
0000
0001
0010
,
1000
0000
0020
0000
0002
0000
0000
0000
0033
0000
0001
0000
0100
0000
0010
1000
,
0000
0000
0100
0000
0001
0000
0100
1000
0000
0000
0010
0000
0001
0000
0010
0100
,
0000
0000
0002
0000
2000
0000
0000
0000
3003
0000
1000
0000
0001
0000
0100
0010
,
1000
0000
0020
0030
0200
0300
0002
0000
0023
0000
0032
0000
0203
0000
0320
0000
,
1030
0000
0000
0000
0010
0000
0000
0100
0001
0000
0001
0000
0000
0000
1000
0000
,
0100
0000
0000
0000
1000
0000
0000
0010
0100
0000
0100
0000
0001
0000
0001
0000
,
1000
0000
0100
0000
1000
0000
0000
1000
0010
0000
0010
0000
0000
0000
0100
0000
,
0001
1000
0000
0100
1000
1000
0001
0001
,
1000
0100
1000
0010
0100
0010
0100
0001
1000
0001
1000
0001
1000
0001
0010
0100
,
1000
0010
1000
0010
0100
0001
0100
0001
1000
0010
1000
0010
0100
0010
0100
0010
,
1000
0100
0010
0001
0100
0010
1000
0001
0010
0100
0010
0100
0010
0100
1000
0010
,
0100
0001
0010
0100
0010
0100
0001
0100
1000
0010
1000
0010
0100
0010
0100
0010
,
1000
0100
0010
0001
0100
0010
1000
0001
0010
0100
0010
0100
0010
0100
0001
0100
,
1000
0100
1000
0100
0010
0100
0010
0100
1000
0001
1000
0001
0100
0010
0100
0010
,
1000
0010
0100
0001
0010
0100
1000
0010
0100
0001
0100
0001
0100
0001
1000
0100
,
0010
0100
0001
0100
0001
0100
0010
0100
0001
0100
0001
0100
1000
0100
1000
0100
,
0010
0100
1000
0001
0100
0010
1000
0001
0010
0001
0010
0001
0010
0001
0100
0010
,
1000
0010
1000
0010
0100
0001
0100
0010
1000
0010
1000
0010
0100
0001
0100
0001
,
1000
0100
0010
0100
1000
0010
0100
0010
0100
0010
0100
0010
0100
0010
1000
0001
,
0010
0100
1000
0001
1000
0001
0100
0001
1000
0100
1000
0010
0100
0001
0010
0001
,
1000
0100
0001
0100
1000
0100
0001
0100
1000
0010
0001
0010
1000
0010
0001
0010
,
1020
0000
1030
0000
0101
0000
0001
1000
0000
1000
0010
0000
1000
0000
0010
0100
,
0000
0100
0001
0000
1000
0000
0010
0001
0000
0001
0100
0000
0001
0000
1000
0000
,
0020
0000
1030
0000
0101
0000
0001
0010
0000
1000
0100
0000
0001
0001
0000
0000
,
1000
0000
0001
0000
0100
0000
1000
0001
0000
0000
0100
0000
0010
0000
1000
0001
,
1000
0000
0002
0000
0200
0000
0303
0000
0000
0000
0010
0000
0100
0000
1000
0010
,
0000
0000
1000
0000
0100
0000
0010
0001
0000
0000
1000
0000
0001
0000
1000
0100
,
0000
0000
0020
0000
0200
0000
0330
0000
0000
0000
0010
0000
1000
0000
0001
0010
,
0100
1000
0100
0001
0100
1000
0100
0001
0100
0010
0001
0010
0100
1000
0100
0010
,
0011
0000
0101
0000
0101
0000
0010
0010
0000
0010
0000
0010
0010
0010
0010
0010
,
1010
0000
1000
1000
1000
1000
1000
1000
0100
0100
0100
0100
0100
0100
0100
0100
,
1100
0000
1010
0000
1010
0000
0010
0010
0000
0010
0000
0010
0010
0010
0010
0010
,
0110
0000
0100
0000
0100
0000
0100
0100
0100
0100
0100
0100
0001
0001
0001
0001
,
0101
0000
0101
0000
0011
0000
0010
0010
0000
0010
0000
0010
0010
0010
0010
0010
,
1010
0000
1000
0000
1000
1000
1000
1000
0001
0001
0001
0001
0001
0001
0001
0001
,
0101
0000
1010
0000
1010
0000
1000
1000
0000
1000
0000
1000
1000
1000
1000
1000
,
1000
0100
0001
0100
1000
0010
0001
0010
1000
0001
0010
1000
0010
0001
1000
0010
,
1000
0100
1000
0010
1000
0100
1000
0010
1000
0100
1000
0010
1000
0100
1000
0010
,
0100
0001
0010
0001
0100
0001
0010
0001
0100
0001
0010
0001
0100
0001
0010
0001
,
1000
0010
0100
0010
1000
0010
0100
0010
1000
0010
0100
0010
1000
0010
0100
0010
,
0100
0001
1000
0001
0100
0001
1000
0001
0100
0001
1000
0001
0100
0001
1000
0001
,
1000
0100
0010
0100
1000
0100
0010
0100
1000
0100
0010
0100
1000
0100
0010
0100
,
0010
0001
0010
0100
0010
0001
0010
0100
0010
0001
0010
0100
0010
0001
0010
0100
,
1000
0010
0001
0010
1000
0010
0001
0010
1000
0010
0001
0010
1000
0010
0001
0010
,
1000
0100
0001
0100
1000
0100
0001
0100
1000
0100
0001
0100
1000
0100
0001
0100
,
1010
0010
0100
0001
0011
0010
0100
1000
1010
0010
1000
0001
0101
0100
0010
1000
,
1100
0100
1000
0001
0101
0100
0010
1000
1100
0100
0010
0001
0101
0100
0010
1000
,
1001
0001
0010
0001
0101
0100
0010
1000
1010
1000
0100
0010
0110
0100
1000
0001
,
0101
0001
1000
0100
1100
1000
0010
1000
1100
0100
0010
0001
1001
1000
0010
0100
,
0110
0010
1000
0001
0101
0100
0010
1000
1010
0010
0100
0001
0101
0100
0010
1000
,
1100
0100
1000
0001
0101
0100
0010
1000
1010
1000
0100
0010
0110
0100
1000
0001
,
0101
0100
0001
1000
1100
0100
0010
0001
0101
0100
0010
1000
1010
0010
0100
0001
,
1001
1000
0100
1000
1100
0100
1000
0010
0110
0100
0001
0010
0011
0010
0100
1000
,
1001
0100
0010
0001
1000
0010
0100
0001
1000
0100
0001
0100
1000
0010
0001
0010
,
1010
0000
0000
0000
1000
0000
0000
0000
0101
0000
0000
0000
0001
0000
0010
0000
0000
0000
0001
1000
0001
0000
1000
0000
0001
0000
1000
0000
0001
0000
1000
0000
,
1010
0010
1000
0100
1000
0001
0100
0001
1000
0001
0100
0010
0100
0001
1000
0001
,
0101
0000
0001
0000
1010
0000
0010
0010
0100
0100
0001
0001
1000
1000
0010
0010
,
0101
0100
0010
1000
0001
0010
0001
0100
0010
1000
0010
0100
0010
1000
0100
1000
,
1100
0000
0000
0000
0200
0000
0000
0000
0020
0000
0330
0000
0001
0000
0001
0000
0100
0000
0010
0000
1000
0000
0001
0100
0001
0000
1000
0000
0100
0000
1000
0000
,
1010
0010
0100
0001
0010
0001
0100
0010
0100
0001
0010
0100
1000
0100
0010
0100
,
1100
0000
0000
0000
0100
1000
0100
0000
1000
0000
0010
0000
0100
0000
0001
0000
1000
0000
1000
0000
0100
0000
0100
0000
0010
0000
0010
0000
0001
0000
0001
0000
,
1000
0100
0001
0100
1000
0010
0001
0010
1000
0010
0100
0001
1000
0100
0010
0001
,
1100
0000
1100
0000
1010
0000
1010
0110
0000
0110
0000
0110
0000
0110
0000
0110
,
0101
0000
0101
0000
0101
0000
0101
0011
0000
0011
0000
0011
0000
0011
0000
0011
,
1100
0000
1100
0000
1100
0000
1100
0110
0000
0110
0000
0110
0000
0110
0000
0110
,
0011
0000
0011
0000
0011
0000
0011
0101
0000
0101
0000
0101
0000
0101
0101
1001
,
1010
0000
1010
0000
1001
0000
0101
0011
0000
0011
0000
0011
0011
1100
1100
1010
,
0101
0000
0101
0000
0101
0000
0101
0110
0000
0110
0000
0110
0000
0110
0110
1100
,
1010
0000
1010
0000
0101
0000
0101
0011
1100
0011
0000
0011
0110
1100
1010
0101
,
1001
0100
0010
0001
1000
0010
0100
0001
1100
0110
0011
0101
1010
0110
0101
0011
,
1000
0100
1000
0001
0010
0001
1000
0100
1000
0001
0010
0001
1000
0010
1000
0001
0100
0001
1000
0010
1000
0001
0100
0001
,
1000
0100
1000
0001
0100
0001
1000
0100
1000
0001
0100
0001
1000
0010
1000
0001
0010
0001
1000
0010
1000
0001
0010
0001
,
1000
0100
1000
0001
0010
0001
1000
0100
1000
0001
0010
0001
1000
0010
1000
0001
0100
0001
1000
0010
1000
0001
0100
0001
,
1000
0100
1000
0001
0100
0001
1000
0010
1000
0001
0010
0001
1000
0100
1000
0001
0010
0001
1000
0010
1000
0001
0100
0001
,
1000
0100
1000
0001
0100
0001
1000
0010
1000
0001
0010
0001
1000
0010
1000
0001
0010
0001
1000
0100
1000
0001
0100
0001
,
1000
0010
0100
0001
0100
0010
1000
0010
0100
0001
0100
0010
1000
0010
0100
0001
0100
0010
1000
0010
0100
0001
0100
0010
,
1000
0100
0010
0001
0010
0100
1000
0100
0010
0001
0010
0100
1000
0100
0010
0001
0010
0100
1000
0100
0010
0001
0010
0100
,
1000
0010
0100
0001
0010
0001
1000
0010
0100
0001
0010
0001
1000
0100
1000
0001
0010
0100
1000
0010
1000
0001
0010
0100
,
1000
0100
1000
0001
0100
0001
1000
0010
1000
0001
0010
0001
1000
0100
1000
0010
0100
0010
1000
0001
1000
0100
0010
0100
,
1000
0010
0100
0001
1000
0100
0010
0100
1000
0001
0100
0010
1000
0100
1000
0010
0100
0001
1000
0100
0010
0100
0010
0001
,
1000
0010
0100
0001
0010
0001
1000
0100
0010
0100
1000
0001
0100
0010
1000
0001
0010
0001
0100
0010
1000
0010
0100
0001
,
1000
0100
1000
0010
0100
0001
0010
0001
0100
0010
1000
0001
1000
0100
0010
0100
1000
0010
0100
0001
0010
0001
0100
0010
,
1000
0100
1000
0001
0010
0001
0100
0010
0100
0001
1000
0001
0010
0100
0010
0001
1000
0001
0100
0010
0100
0001
1000
0001
,
0100
0010
1000
0001
0010
0100
0010
0001
1000
0010
0100
0001
0100
0010
1000
0001
0010
0100
0010
0001
1000
0010
0100
0001
,
1000
0100
1000
0010
0100
0001
0010
0100
0010
0100
1000
0001
0100
0010
1000
0010
0100
0010
1000
0100
1000
0001
0100
0010
,
1000
0100
1000
0100
0010
0001
0010
0100
0010
0001
1000
0001
0100
0010
0100
0001
1000
0100
1000
0010
0100
0001
0100
0010
,
2000
0000
0000
0000
,
0000
0000
0000
0000
,
3000
0000
0000
0000
;
