#TITLE:Click Clock Wood Spring;
#SUBTITLE:Banjo-Kazooie;
#ARTIST:Rareware;
#TITLETRANSLIT:;
#SUBTITLETRANSLIT:;
#ARTISTTRANSLIT:;
#CREDIT:;
#BANNER:ccwsp.PNG;
#BACKGROUND:ccwsp-bg.png;
#LYRICSPATH:;
#CDTITLE:kyka06.png;
#MUSIC:ClickClockWoodsSpring.mp3;
#OFFSET:-0.920;
#SAMPLESTART:59.647;
#SAMPLELENGTH:12.500;
#SELECTABLE:YES;
#BPMS:0.000=208.920,44.000=212.920,56.000=208.920,96.000=214.920,104.000=208.920,124.000=211.920,132.000=208.920,160.000=214.920,168.000=208.920,204.000=217.920,212.000=208.920,280.000=213.920,288.000=208.920,328.000=214.920,336.000=208.920,368.000=215.920,376.000=208.900;
#STOPS:;
#BGCHANGES:;
// cache tags:
#FIRSTBEAT:0.000;
#LASTBEAT:397.000;
#SONGFILENAME:Songs/new/BK - CCW-spring/ccwsp.sm;
#HASMUSIC:1;
#HASBANNER:1;
#MUSICLENGTH:149.167;
// end cache tags

//---------------dance-single - ----------------
#NOTES:
     dance-single:
     :
     Hard:
     9:
     0.480,0.566,0.000,0.000,0.479,501.000,0.000,0.000,0.000,0.000:
1000
0001
0100
0010
1000
0100
0010
0001
,
0010
0100
1000
0010
0100
0001
1000
0100
,
0001
0000
1000
0010
0000
0001
0100
0000
1000
0001
0000
0010
,
1000
0000
0100
0001
0000
1000
0000
0000
0000
0100
0000
0000
,
0001
0000
0000
1000
0000
0000
0010
0000
0001
0010
0000
1000
,
0000
0000
0001
0000
,
0100
0000
0010
1000
0000
0001
0100
0000
1000
0001
0000
0010
,
1000
0000
0001
0100
0000
1000
0000
0000
0000
0001
0000
0000
,
0010
0000
0000
1000
0000
0000
0001
0000
0100
1000
0000
0001
,
0000
0000
0001
0000
,
0100
0000
0010
1000
0000
0001
1000
0000
0100
0001
0000
1000
,
0010
0000
0001
1000
0000
0100
0000
0000
0000
0001
0000
0000
,
1000
0000
0000
0010
0000
0000
0001
0000
1000
0100
0000
0001
,
0000
0000
0000
0010
0000
1000
0100
0000
0000
0001
0000
0000
,
0100
0000
1000
0010
0000
0001
0100
0000
1000
0001
0000
0010
,
1000
0000
0001
0100
0000
1000
0000
0000
0000
0001
0000
0000
,
0010
0000
0000
1000
0000
0000
0001
0000
0100
1000
0000
0001
,
0000
0000
0010
0000
,
0100
0000
0000
0000
0000
0000
0001
0000
1000
0010
0000
0000
,
0001
1000
0100
0001
,
1000
0000
0000
0010
0000
0000
0001
0000
1000
0100
0000
0000
,
0001
0000
0000
0010
1000
0001
0100
0000
0000
0001
0000
0000
,
0010
0000
0000
0000
0000
0000
0100
0000
0010
0001
0000
0000
,
1000
0000
0000
0001
0000
0000
0010
0000
0000
0000
0000
0100
,
0010
0000
0000
0001
0000
0000
1000
0000
0000
0100
0000
0010
,
0001
1000
0100
1000
,
0010
0000
0001
0100
0000
1000
0010
0000
0001
1000
0000
0100
,
0001
0000
0010
1000
0000
0001
0000
0000
0000
0010
0000
0000
,
1000
0000
0000
0001
0000
0000
0100
0000
1000
0100
0000
0001
,
0000
0000
1000
0000
,
0010
0000
0100
0001
0000
1000
0010
0000
0001
1000
0000
0100
,
0001
0000
1000
0010
0000
0001
0000
0000
0000
1000
0000
0000
,
0100
0000
0000
0001
0000
0000
1000
0000
0010
0001
0000
1000
,
0000
0000
0010
0000
,
0001
0000
0100
0000
0010
0000
0100
0010
,
0000
0100
0001
0000
0100
0000
0010
0000
,
1000
0100
0000
0100
0001
0000
0010
0100
,
0000
0000
0000
0100
0000
0000
0001
0000
0000
0000
0000
0000
0001
0000
0000
0000
1000
0000
0100
0000
0000
0000
0010
0000
,
1000
0000
0010
0001
0000
0100
1000
0000
0010
0100
0000
0001
,
0010
0000
1000
0100
0000
0010
0000
0000
0000
1000
0000
0000
,
0100
0000
0000
0010
0000
0000
0001
0000
0100
0001
0000
0010
,
0000
0000
0100
0000
,
1000
0000
0001
0010
0000
0100
1000
0000
0010
0100
0000
0001
,
0010
0000
0100
1000
0000
0010
0000
0000
0000
0100
0000
0000
,
0001
0000
0000
0010
0000
0000
0100
0000
1000
0010
0000
0100
,
0000
0000
1000
0000
,
1000
0000
0001
0010
0000
0100
0010
0000
1000
0100
0000
0010
,
0001
0000
0100
0010
0000
1000
0000
0000
0000
0100
0000
0000
,
0010
0000
0000
0001
0000
0000
0100
0000
0010
1000
0000
0100
,
0000
0000
0000
1000
0000
0010
1000
0000
0000
0001
0000
0000
,
1000
0000
0010
0001
0000
0100
1000
0000
0010
0100
0000
0001
,
0010
0000
0100
1000
0000
0010
0000
0000
0000
0100
0000
0000
,
0001
0000
0000
0010
0000
0000
0100
0000
1000
0010
0000
0100
,
0000
0000
1000
0000
,
0010
0000
0000
0000
0000
0000
0100
0000
0001
1000
0000
0000
,
0100
0001
0010
0100
,
0001
0000
0000
1000
0000
0000
0100
0000
0001
0010
0000
0000
,
0100
0000
0000
1000
0001
0100
0010
0000
0000
1000
0000
0000
,
0010
0000
0000
0000
0000
0000
0010
0000
1000
0100
0000
0000
,
0001
0000
0000
0100
0000
0000
1000
0000
0000
0000
0000
0010
,
1000
0000
0000
0100
0000
0000
0001
0000
0000
0010
0000
1000
,
0100
0001
0010
0001
,
0010
1000
0010
0100
,
0001
0000
1000
0100
0000
0100
1000
0000
,
0001
0000
0000
0000
1000
0100
1000
0100
1000
0000
0000
0000
0000
0000
0000
0000
,
0000
0000
0000
0000
,
0000
0000
0000
0000
0001
0010
0001
0010
0001
0000
0000
0000
0000
0000
0000
0000
,
0000
0000
0000
0000
,
1000
0010
1000
0001
,
0100
0000
0010
1000
0000
1000
0010
0000
,
0001
0000
0010
0100
0000
1000
0001
0000
0010
1000
0000
0100
,
0010
0000
0001
1000
0000
0010
0000
0000
0000
0001
0000
0000
,
1000
0000
0000
0010
0000
0000
0100
0000
1000
0100
0000
0010
,
0000
0010
1000
0100
,
0001
0000
0100
0010
0000
1000
0001
0000
0010
1000
0000
0100
,
0010
0000
1000
0001
0000
0010
0000
0000
0000
1000
0000
0000
,
0100
0000
0000
0010
0000
0000
1000
0000
0001
0010
0000
1000
,
0000
0000
0000
1000
0000
0001
1000
0000
0000
1000
0000
0000
,
0001
0000
0100
0010
0000
1000
0010
0000
0001
1000
0000
0010
,
0100
0000
1000
0010
0001
0000
0000
0000
0000
1000
0000
0000
,
0010
0000
0000
0100
0000
0000
1000
0000
0010
0001
0000
1000
,
0000
0000
0000
0001
0000
0010
0001
0000
0000
1000
0000
0000
,
0001
0000
0010
0100
0000
1000
0001
0000
0010
1000
0000
0100
,
0010
0000
1000
0001
0000
0010
0000
0000
0000
1000
0000
0000
,
0100
0000
0000
0010
0000
0000
1000
0000
0001
0010
0000
1000
,
0000
0000
0001
0000
,
0001
0000
0000
0000
0000
0000
1000
0000
0010
0100
0000
0000
,
1000
0010
0001
1000
,
0010
0000
0000
0100
0000
0000
1000
0000
0010
0001
0000
0000
,
1000
0000
0000
0100
0010
1000
0001
0000
0000
1000
0000
0000
,
0001
0000
0000
0000
0000
0000
0001
0000
0100
1000
0000
0000
,
0010
0000
0000
1000
0000
0000
0100
0000
0000
0000
0000
0001
,
0100
0000
0000
1000
0000
0000
0010
0000
0000
0001
0000
0100
,
1000
0010
0001
0010
,
0100
1000
0100
1000
0010
0100
0010
0100
,
0001
0010
0001
0100
0010
1000
0010
0100
,
0001
0000
0010
0000
0010
0000
0001
0100
,
0000
0010
1000
0000
0100
0000
0010
0000
,
0001
1000
0000
0010
1000
0000
0010
1000
,
0000
1000
0010
0000
0000
0000
0000
0000
;

//---------------dance-single - ----------------
#NOTES:
     dance-single:
     :
     Medium:
     6:
     0.324,0.366,0.034,0.000,0.023,333.000,5.000,0.000,0.000,0.000:
0010
1000
0010
0001
,
0001
0010
1000
0010
,
0100
0001
1000
0100
,
0010
0100
0010
0000
,
0100
0010
0001
0001
,
0010
0000
0100
0000
,
1000
0010
1000
0100
,
0010
0000
1000
0000
,
0001
0010
0100
0010
,
0100
0000
0100
0000
,
1000
0010
0010
0100
,
0001
0010
0001
0000
,
0010
0001
0100
1000
,
0010
0001
1000
0100
,
1000
0001
1000
0100
,
0010
1000
0100
0000
,
0001
0010
0100
0010
,
0001
0000
0001
0000
,
1000
0000
0100
0001
,
0100
0010
1000
0000
,
0010
0000
0100
1000
,
0100
0001
1000
0100
,
0001
0000
1000
0100
,
0010
0100
0001
0000
,
0001
0100
0010
1000
,
0100
0010
1000
0010
,
0001
1000
0001
0010
,
0100
0010
0001
0000
,
0010
0100
1000
1000
,
0001
0000
0010
0000
,
0001
0100
0001
0010
,
0100
0001
0010
0000
,
1000
0100
0010
0100
,
0001
0000
0001
0000
,
0100
0000
1000
0000
0001
0000
1000
0010
,
0000
0010
0100
0000
1000
0000
0001
0000
,
1010
0000
0000
0110
0000
0000
1001
0000
,
0000
0011
0000
0000
0100
0000
1000
0000
,
0010
0100
0010
1000
,
0001
1000
0010
0000
,
1000
0001
0100
0100
,
0001
0000
1000
0000
,
0010
0001
0010
1000
,
0001
0010
1000
0000
,
0100
0001
1000
0001
,
0100
0000
0010
0000
,
0010
0001
0001
1000
,
0100
0001
1000
0000
,
0001
0100
1000
0010
,
0100
0010
0010
0100
,
0010
0100
0010
1000
,
0001
0010
1000
0000
,
0100
0001
1000
0001
,
0100
0000
0010
0000
,
0001
0000
1000
0010
,
1000
0100
0001
0000
,
0100
0010
1000
0001
,
1000
0010
0001
0010
,
0001
0000
0001
1000
,
0100
1000
0010
0000
,
0010
1000
0100
0001
,
1000
0100
0001
0100
,
0001
0010
0001
1000
,
0100
0000
0010
0000
0000
0010
0000
0000
,
0100
0000
0010
1000
0010
0000
0000
0000
,
0000
0000
0000
0000
,
0000
0000
0100
0001
0100
0000
0000
0000
,
0000
0000
0000
0000
,
0010
0001
0010
0100
,
1000
0000
0000
0001
0000
0000
0001
0000
,
0100
1000
0100
0010
,
0001
0000
0000
0000
0000
0001
0000
0000
0000
0100
0000
0000
,
0010
0000
0000
0001
0000
0000
1000
0000
0000
1000
0000
0001
,
0000
0000
0010
0000
,
0100
0001
0100
0010
,
0001
0000
0000
0010
,
1000
0000
0000
0001
0000
0000
0010
0000
0000
0001
0000
0100
,
0000
0000
0010
0000
,
0100
0001
0001
0010
,
1000
0000
0000
0100
0000
0001
0000
0000
0000
0010
0000
0000
,
0001
0000
0000
1000
0000
0000
0010
0000
0000
0100
0000
0001
,
0000
0100
0100
0010
,
0100
1000
0100
0010
,
0001
0000
0000
0100
0000
0001
0000
0000
0000
0010
0000
0000
,
1000
0000
0000
0001
0000
0000
0010
0000
0000
0001
0000
1000
,
0000
0000
0100
0000
,
0100
0000
0010
1000
,
0010
0001
0100
0000
,
0001
0000
0010
0100
,
0010
1000
0100
0010
,
0100
0000
0100
0010
,
0001
0010
1000
0000
,
1000
0010
0001
0100
,
0010
0001
0100
0001
,
1000
0100
0001
0100
,
1000
0010
0001
0010
,
0100
0000
0001
0000
0001
0000
0000
0100
,
0000
0010
1000
0001
,
0000
0001
0000
0000
0010
0000
0000
1000
,
0000
0101
0000
0000
;

//---------------dance-single - ----------------
#NOTES:
     dance-single:
     :
     Challenge:
     11:
     0.541,0.865,0.322,0.000,0.587,517.000,48.000,0.000,0.000,0.000:
1000
0100
1000
0100
1000
0100
0010
0001
0010
0001
0010
0001
,
0100
0010
1000
0100
0010
0001
0010
0100
0010
0001
0010
0100
,
1000
0000
0010
0001
0000
0100
1000
0000
0010
0100
0000
0001
,
0010
0000
1000
0100
0000
0010
0000
0000
0000
1000
0000
0000
,
0100
0000
0000
0010
0000
0000
0001
0000
0100
0001
0000
0010
,
0000
0000
0100
0000
,
1000
0000
0001
0010
0000
0100
1000
0000
0010
0100
0000
0001
,
0010
0000
0100
1000
0000
0010
0000
0000
0000
0100
0000
0000
,
0001
0000
0000
0010
0000
0000
0100
0000
1000
0010
0000
0100
,
0000
0000
1100
0000
,
1000
0000
0001
0010
0000
0100
0010
0000
1000
0100
0000
0010
,
0001
0000
0100
0010
0000
1000
0000
0000
0000
0100
0000
0000
,
0010
0000
0000
0001
0000
0000
0100
0000
0010
1000
0000
0100
,
0000
0000
0000
1001
0000
0010
1000
0000
0000
0101
0000
0000
,
1000
0000
0010
0001
0000
0100
1000
0000
0010
0100
0000
0001
,
0010
0000
0100
1000
0000
0010
0000
0000
0000
0100
0000
0000
,
0001
0000
0000
0010
0000
0000
0100
0000
1000
0010
0000
0100
,
0000
0000
1001
0000
,
1000
0000
0000
0000
0000
0000
0100
0000
0010
0001
0000
0000
,
0100
0010
1000
0100
,
0010
0000
0000
0001
0000
0000
0100
0000
0010
1000
0000
0000
,
0100
0000
0000
0001
0010
0100
1000
0000
0000
0101
0000
0000
,
1001
0000
0000
0000
0000
0000
1000
0000
0001
0100
0000
0000
,
0010
0000
0000
0100
0000
0000
0001
0000
0000
0000
0000
1000
,
0001
0000
0000
0100
0000
0000
0010
0000
0000
1000
0000
0001
,
0100
0010
1000
0010
,
0001
0000
0100
1000
0000
0010
0001
0000
0100
0010
0000
1000
,
0100
0000
0001
0010
0000
0100
0000
0000
0000
0001
0000
0000
,
0010
0000
0000
0100
0000
0000
1000
0000
0010
1000
0000
0100
,
0000
0000
0010
0000
,
0001
0000
1000
0100
0000
0010
0001
0000
0100
0010
0000
1000
,
0100
0000
0010
0001
0000
0100
0000
0000
0000
0010
0000
0000
,
1000
0000
0000
0100
0000
0000
0010
0000
0001
0100
0000
0010
,
0000
0000
0011
0000
,
1001
0000
1100
0000
0110
0000
0100
1010
,
0000
0100
0011
0000
1100
0000
0110
0000
,
1000
1100
0000
0001
0101
0000
0010
1100
,
0000
0000
0000
0100
0000
0000
0011
0000
0000
0000
0000
0000
0100
0000
0000
0000
0010
0000
1000
0000
0000
0000
0001
0000
,
0010
0000
0001
0100
0000
1000
0010
0000
0001
1000
0000
0100
,
0001
0000
0010
1000
0000
0001
0000
0000
0000
0010
0000
0000
,
1000
0000
0000
0001
0000
0000
0100
0000
1000
0100
0000
0001
,
0000
0000
1000
0000
,
0010
0000
0100
0001
0000
1000
0010
0000
0001
1000
0000
0100
,
0001
0000
1000
0010
0000
0001
0000
0000
0000
1000
0000
0000
,
0100
0000
0000
0001
0000
0000
1000
0000
0010
0001
0000
1000
,
0000
0000
1010
0000
,
0010
0000
0100
0001
0000
1000
0001
0000
0010
1000
0000
0001
,
0100
0000
1000
0001
0000
0010
0000
0000
0000
1000
0000
0000
,
0001
0000
0000
0100
0000
0000
1000
0000
0001
0010
0000
1000
,
0000
0000
0000
0110
0000
0001
0010
0000
0000
1100
0000
0000
,
0010
0000
0001
0100
0000
1000
0010
0000
0001
1000
0000
0100
,
0001
0000
1000
0010
0000
0001
0000
0000
0000
1000
0000
0000
,
0100
0000
0000
0001
0000
0000
1000
0000
0010
0001
0000
1000
,
0000
0000
0110
0000
,
0001
0000
0000
0000
0000
0000
1000
0000
0100
0010
0000
0000
,
1000
0100
0001
1000
,
0100
0000
0000
0010
0000
0000
1000
0000
0100
0001
0000
0000
,
1000
0000
0000
0010
0100
1000
0001
0000
0000
1010
0000
0000
,
0011
0000
0000
0000
0000
0000
0001
0000
0010
1000
0000
0000
,
0100
0000
0000
1000
0000
0000
0010
0000
0000
0000
0000
0001
,
0010
0000
0000
1000
0000
0000
0100
0000
0000
0001
0000
0010
,
1000
0100
0001
0100
,
0010
1000
0010
0100
,
0001
0000
1000
0100
0000
0100
1000
0000
,
0001
0000
0000
0000
1000
0100
1000
0100
0010
0000
0000
0000
0000
0000
0000
0000
,
0000
0000
0000
0000
,
0000
0000
0000
0000
0001
0010
0100
1000
0010
0000
0000
0000
0000
0000
0000
0000
,
0000
0000
0000
0000
,
1000
0010
1000
0001
,
0100
0000
0010
1000
0000
1000
0010
0000
,
0100
0000
0001
1000
0000
0010
0100
0000
0001
0010
0000
1000
,
0001
0000
0100
0010
0000
0001
0000
0000
0000
0100
0000
0000
,
0010
0000
0000
0001
0000
0000
1000
0000
0010
1000
0000
0001
,
0000
0001
0010
1000
,
0100
0000
1000
0001
0000
0010
0100
0000
0001
0010
0000
1000
,
0001
0000
0010
0100
0000
0001
0000
0000
0000
0010
0000
0000
,
1000
0000
0000
0001
0000
0000
0010
0000
0100
0001
0000
0010
,
0000
0000
0000
0110
0000
0100
0010
0000
0000
1010
0000
0000
,
0100
0000
1000
0001
0000
0010
0001
0000
0100
0010
0000
0001
,
1000
0000
0010
0001
0000
0100
0000
0000
0000
0010
0000
0000
,
0001
0000
0000
1000
0000
0000
0010
0000
0001
0100
0000
0010
,
0000
0000
0000
1100
0000
0001
0100
0000
0000
1010
0000
0000
,
0100
0000
0001
1000
0000
0010
0100
0000
0001
0010
0000
1000
,
0001
0000
0010
0100
0000
0001
0000
0000
0000
0010
0000
0000
,
1000
0000
0000
0001
0000
0000
0010
0000
0100
0001
0000
0010
,
0000
0000
1100
0000
,
0100
0000
0000
0000
0000
0000
0010
0000
0001
1000
0000
0000
,
0010
0001
0100
0010
,
0001
0000
0000
1000
0000
0000
0010
0000
0001
0100
0000
0000
,
0010
0000
0000
1000
0001
0010
0100
0000
0000
1010
0000
0000
,
1100
0000
0000
0000
0000
0000
0100
0000
1000
0010
0000
0000
,
0001
0000
0000
0010
0000
0000
1000
0000
0000
0000
0000
0100
,
1000
0000
0000
0010
0000
0000
0001
0000
0000
0100
0000
1000
,
0010
0001
0100
0001
,
1000
0100
1000
0100
1000
0100
0010
0001
0010
0001
0010
0001
,
0100
0010
1000
0100
0010
0001
0010
0100
0010
0001
0010
0100
,
1001
0000
1010
0000
0110
0000
0101
1100
,
0000
0110
0011
0000
1100
0000
0110
0000
,
1001
0110
0000
0110
1001
0000
0110
1001
,
0000
1001
0110
0000
0000
0000
0000
0000
;

//---------------dance-single - ----------------
#NOTES:
     dance-single:
     :
     Easy:
     3:
     0.210,0.266,0.047,0.054,0.000,204.000,7.000,8.000,0.000,0.000:
1000
0001
0010
0000
,
1000
0100
0010
0000
,
1000
0000
0100
0000
,
0010
0000
0001
0000
,
0100
0000
0010
0000
,
1000
0000
0100
0000
,
0010
0000
0001
0000
,
1000
0000
0010
0000
,
0100
0000
0001
0000
,
0010
0000
0200
0300
,
1000
0000
0010
0000
,
0100
0000
0001
0000
,
0010
0000
0001
0000
,
1000
0001
0010
0100
,
1000
0000
0010
0000
,
0100
0000
0001
0000
,
1000
0000
0010
0000
,
1001
0000
0110
0000
,
1000
0000
0100
0010
,
0001
0000
0100
0000
,
0010
0000
1000
0100
,
0010
0000
0001
0000
,
0100
0000
0010
1000
,
0100
0000
0010
0000
,
0001
0000
1000
0000
,
0010
1000
0100
1000
,
0010
0000
0010
0000
,
0001
0100
0010
1000
,
0100
0000
0010
0000
,
0001
0000
0100
0000
,
0020
0000
0000
0000
,
0030
1000
0100
1000
,
0010
0000
0100
0000
,
0001
0000
0010
0000
,
0100
1000
0010
0100
,
0000
0010
0100
0000
,
1000
0000
0001
0000
,
0100
0000
0010
1000
,
0100
0000
0010
0000
,
0000
0001
0100
0010
,
1000
0000
0100
0000
,
0010
0000
0001
0000
,
1001
0000
0000
0000
,
0000
1000
0010
0100
,
0001
0000
0010
0000
,
0100
0000
1000
0000
,
0110
0000
0000
0000
,
0000
1000
0100
1000
,
0001
0000
0100
0000
,
0010
0000
1000
0000
,
0011
0000
0000
0000
,
0000
1000
0010
0100
,
0001
0000
0010
0000
,
0100
0000
1000
0000
,
1000
0000
0100
0010
,
0001
0000
0100
0000
,
0010
0000
0000
1000
,
0100
0000
0010
0000
,
0001
0000
0000
1000
,
0010
0100
0001
0000
,
0010
0000
0100
0000
,
1000
0000
0001
0000
,
0220
0000
0000
0000
,
0000
0000
0000
0000
,
0330
2000
3010
0000
,
0000
0000
0000
0000
,
0000
0200
0301
0000
,
0000
0000
0000
0000
,
0000
0000
0000
0000
,
0000
0000
0000
0000
,
1000
0000
0100
0000
,
0010
0000
0001
0000
,
0010
0000
0100
0000
,
1000
0000
0000
0000
,
0001
0000
0010
0000
,
0001
0000
0100
0000
,
0010
0000
1000
0000
,
0010
0000
0000
0000
,
1000
0000
0001
0000
,
0100
0000
0010
0000
,
1000
0000
0100
0000
,
0010
0000
0000
0000
,
0001
0000
1000
0000
,
0001
0000
0100
0000
,
0010
0000
1000
0000
,
0010
0000
0000
0000
,
1000
0000
0100
0000
,
1000
0010
1000
0000
,
0001
0000
0100
0000
,
0010
1000
0010
0000
,
0100
0000
0001
0000
,
0010
0001
0010
0000
,
0001
1000
0010
0000
,
1000
0100
1000
0000
,
2002
0000
0000
0000
,
0000
0000
0000
3003
,
1000
0000
0010
0000
,
0100
0000
0001
0000
,
1000
0000
0001
0000
,
1000
0001
0000
0000
;
