#TITLE:bbblow;
#SUBTITLE:;
#ARTIST:onoken;
#TITLETRANSLIT:;
#SUBTITLETRANSLIT:;
#ARTISTTRANSLIT:;
#CREDIT:;
#BANNER:BBBLOW.png;
#BACKGROUND:BBBLOW-bg.png;
#LYRICSPATH:;
#CDTITLE:reny.png;
#MUSIC:bbblow.mp3;
#OFFSET:-1.548;
#SAMPLESTART:32.250;
#SAMPLELENGTH:16.000;
#SELECTABLE:YES;
#BPMS:0.000=160.000,79.875=40.000,83.875=160.000,312.000=80.000;
#STOPS:;
#BGCHANGES:;
// cache tags:
#FIRSTBEAT:16.000;
#LASTBEAT:315.750;
#SONGFILENAME:Songs/Community Keyboard Megapack - Volume 1/(Ren) bbblow/bbblow.sm;
#HASMUSIC:1;
#HASBANNER:1;
#MUSICLENGTH:128.371;
// end cache tags

//---------------dance-single - ----------------
#NOTES:
     dance-single:
     :
     Hard:
     9:
     0.604,0.769,0.101,0.148,0.378,511.000,13.000,19.000,0.000,0.000:  // measure 1
0000
0000
0000
0000
,  // measure 2
0000
0000
0000
0000
,  // measure 3
0000
0000
0000
0000
,  // measure 4
0000
0000
0000
0000
,  // measure 5
0001
0100
0010
0000
1000
0100
0010
0000
,  // measure 6
0001
1000
0010
0100
0001
0010
0100
0000
,  // measure 7
1000
0001
0100
0000
0010
1000
0100
0000
,  // measure 8
1000
0001
0010
0100
1000
0010
0100
0000
,  // measure 9
0001
0000
0000
0100
0000
0000
0010
0000
1000
0000
0000
0100
0000
0000
0010
0000
,  // measure 10
0001
0000
0000
0100
0000
0000
0010
0000
0100
0000
0000
0001
0000
0000
1000
0000
,  // measure 11
0100
0000
0000
0010
0000
0000
0001
0000
1000
0000
0000
0010
0000
0000
0100
0000
,  // measure 12
0001
0000
0000
1000
0000
0000
0100
0000
0010
0000
0000
0001
0000
0000
0000
1000
,  // measure 13
0010
0100
0001
0010
0100
1000
0100
0010
,  // measure 14
0001
1000
0010
0100
0001
1000
0100
0010
,  // measure 15
0000
0100
1000
0010
0100
0001
0100
0010
,  // measure 16
1000
0001
0010
0100
1000
0001
0100
0010
,  // measure 17
0000
0001
0100
0001
1000
0100
1000
0001
,  // measure 18
0010
0001
1000
0010
1000
0001
0010
0100
,  // measure 19
0000
1000
0010
1000
0001
0010
0001
1000
,  // measure 20
0100
1000
0001
0100
0001
1000
1000
0002
,  // measure 21
0000
0000
0000
0000
0000
0000
0000
0000
0000
0000
0000
0000
0000
0000
0000
0000
0000
0000
0000
0000
0000
0000
0000
0000
0000
1003
0000
0100
0000
0010
0000
0002
0000
0000
0000
2003
0000
0000
0000
3002
0000
0000
0000
2003
0000
0000
0000
3002
0000
0000
0000
2003
0000
0000
0000
3002
0000
0000
0000
2003
0000
0000
0000
0000
,  // measure 22
3001
0000
0000
0001
0000
0000
0001
0000
0000
0000
1000
0000
0000
1000
0000
0000
,  // measure 23
0100
0000
0000
0010
0000
0000
0001
0000
1000
0000
0000
0010
0000
0000
1000
0000
,  // measure 24
0001
0000
0000
1000
0000
0000
1000
0000
1000
0000
0001
1000
0000
1000
0001
0000
,  // measure 25
0010
0000
0000
0100
0000
0000
1000
0000
0010
0000
0000
0100
0000
0000
0001
0000
,  // measure 26
1000
0000
0000
1010
0000
0000
1000
0000
0000
0100
0000
0000
0010
0000
0001
0000
,  // measure 27
0001
0000
0000
0011
0000
0000
0001
0000
0000
0100
0000
0000
0010
0000
0100
0000
,  // measure 28
0001
0000
0000
1001
0000
0000
1000
0000
0000
0001
0000
0000
0001
0000
1000
0000
,  // measure 29
0001
1000
0001
1000
0010
0100
0010
0100
,  // measure 30
1001
0001
0100
0010
1000
0020
0000
0130
,  // measure 31
0100
0000
0000
0001
0000
0000
1000
0000
0001
0000
0010
0000
0100
0000
1000
0000
,  // measure 32
0010
0000
0000
0010
0000
0000
0010
0000
0000
0000
0100
0000
0001
0000
0010
0000
,  // measure 33
0100
0000
0000
1000
0000
0000
0010
0000
0100
0001
0100
0000
0001
0100
0001
0000
,  // measure 34
1001
0000
0000
1000
0000
0000
1000
0000
0000
0100
0000
0000
0010
0000
0001
0000
,  // measure 35
0010
0000
0000
0010
0000
0000
0010
0000
0000
0001
0000
0000
0100
0000
0010
0000
,  // measure 36
0100
0000
0000
0100
0000
0000
0100
0000
0000
0001
0000
0000
1000
0000
1000
0000
,  // measure 37
0001
1000
0001
0000
1000
0001
1000
0000
0010
0100
0010
0000
0100
0010
0100
0000
,  // measure 38
0001
0000
0000
0000
1000
0000
0000
0000
0001
0000
0000
0000
0010
0000
0000
0100
,  // measure 39
1000
0000
0000
0000
1000
0000
0000
0010
0100
0000
0001
0000
0001
0000
0000
0010
,  // measure 40
0100
0000
0000
0000
1000
0000
0000
0000
0001
0000
0000
0000
0100
0000
0000
0010
,  // measure 41
1000
0000
0000
0000
1000
0000
0000
0100
0010
0000
0001
0000
0001
0000
0001
0000
,  // measure 42
0001
0100
0010
1000
0010
0100
0001
0000
,  // measure 43
1000
0100
0010
0001
1000
0010
0100
0000
,  // measure 44
0010
0100
0010
1000
0001
0010
0100
0000
,  // measure 45
1000
0001
0100
0010
1000
0001
0010
0000
,  // measure 46
0100
0000
0000
1000
0000
0000
0001
0000
0100
0000
0000
0001
0000
0000
1000
0000
,  // measure 47
0010
0000
0000
1000
0000
0000
0001
0000
0010
0000
0000
0001
0000
0000
0100
0000
,  // measure 48
0010
0000
0000
0100
0000
0000
0001
0000
1000
0000
0000
0100
0000
0000
0010
0000
,  // measure 49
0100
0000
0000
1000
0000
0000
0001
0000
1000
0000
0000
1001
0000
0000
0000
0001
,  // measure 50
1000
0010
0100
0001
0100
0010
1010
0000
,  // measure 51
1000
0001
0010
0100
1000
0001
0101
0000
,  // measure 52
0100
0010
0100
0001
1000
0100
0110
0000
,  // measure 53
0001
1000
0010
0100
0001
0010
0011
0010
,  // measure 54
0002
0000
1000
0000
0010
0000
1000
1000
,  // measure 55
0000
2003
0001
0000
0010
0000
0001
3001
,  // measure 56
0000
0100
0010
1000
0001
0010
0001
0010
,  // measure 57
0002
2003
3020
0230
,  // measure 58
0301
0010
0001
1000
0100
0000
0010
0001
,  // measure 59
0000
0100
0010
0000
1000
0000
0100
0010
,  // measure 60
0001
0000
0000
0010
0000
0000
0100
0000
0010
0000
0000
0100
0000
0000
1000
0000
,  // measure 61
0100
0010
0001
1000
0100
0010
0001
1000
,  // measure 62
0001
0010
0100
1000
0001
0010
0100
1000
,  // measure 63
1001
0001
0100
0010
1000
0020
0000
0130
,  // measure 64
0100
0000
0000
0001
0000
0000
1000
0000
0001
0000
0010
0000
0100
0000
1000
0000
,  // measure 65
0010
0000
0000
0010
0000
0000
0010
0000
0000
0000
0100
0000
0001
0000
0010
0000
,  // measure 66
0100
0000
0000
1000
0000
0000
0010
0000
0100
0001
0100
0000
0001
0100
0001
0000
,  // measure 67
1001
0000
0000
1000
0000
0000
1000
0000
0000
0100
0000
0000
0010
0000
0001
0000
,  // measure 68
0010
0000
0000
0010
0000
0000
0010
0000
0000
0001
0000
0000
0100
0000
0010
0000
,  // measure 69
0100
0000
0000
0100
0000
0000
0100
0000
0000
0001
0000
0000
1000
0000
1000
0000
,  // measure 70
0001
1000
0001
0000
1000
0001
1000
0000
0010
0100
0010
0000
0100
0010
0100
0000
,  // measure 71
0001
0001
0010
0100
1000
0020
0000
1030
,  // measure 72
0001
0000
0000
0010
0000
0000
0100
0000
1000
0000
0010
0000
0100
0000
0001
0000
,  // measure 73
0010
0000
0000
0010
0000
0000
0010
0000
0000
0000
0100
0000
1000
0000
0010
0000
,  // measure 74
0100
0000
0000
0001
0000
0000
0010
0000
0100
1000
0100
0000
1000
0100
1000
0000
,  // measure 75
1001
0000
0000
0001
0000
0000
0001
0000
0000
0100
0000
0000
0010
0000
1000
0000
,  // measure 76
0010
0000
0000
0010
0000
0000
0010
0000
0000
1000
0000
0000
0100
0000
0010
0000
,  // measure 77
0100
0000
0000
0100
0000
0000
0100
0000
0000
1000
0000
0000
0001
0000
0001
0000
,  // measure 78
1000
0001
1000
0000
0001
1000
0001
0000
0010
0100
0010
0000
0100
0010
0100
0000
,  // measure 79
0000
0000
0000
0020
0000
0000
0000
0000
0000
0000
0000
0000
0000
0000
0000
0030
;

//---------------dance-single - ----------------
#NOTES:
     dance-single:
     :
     Challenge:
     10:
     0.919,1.000,0.849,0.109,0.857,703.000,109.000,14.000,0.000,0.000:  // measure 1
0000
0000
0000
0000
,  // measure 2
0000
0000
0000
0000
,  // measure 3
0000
0000
0000
0000
,  // measure 4
0000
0000
0000
0000
,  // measure 5
0001
0100
0010
1000
0100
0010
0001
0100
,  // measure 6
0010
1000
0100
0010
0100
1000
0010
0100
,  // measure 7
0001
0010
0100
0010
0001
0100
0010
1000
,  // measure 8
0001
0010
0100
1000
0010
0100
0001
0010
,  // measure 9
0100
1000
0100
0000
1000
0000
0001
0100
0000
0001
0100
0000
0010
0000
1000
0000
,  // measure 10
0001
0010
0100
0000
1000
0000
0100
0010
0000
0100
0010
0000
0001
0000
1000
0000
,  // measure 11
0010
0100
0001
0000
1000
0000
0001
1000
0000
0001
1000
0000
1001
0000
0110
0000
,  // measure 12
0001
0100
0001
0000
0100
0010
0100
0000
0010
1000
0010
0000
1000
0100
0010
0001
,  // measure 13
1000
0011
0101
1010
1100
1001
0110
1001
,  // measure 14
0001
0010
0100
1000
0010
0100
0001
0010
,  // measure 15
1010
1100
0011
0101
1001
0110
1001
1000
,  // measure 16
0010
0100
0001
0010
0100
1000
0010
0110
,  // measure 17
1001
0000
0010
0000
0100
0000
0010
0000
0001
0010
0100
1000
0010
0100
0001
0010
,  // measure 18
0100
1000
0001
0100
0010
1000
0100
0010
0001
0010
0001
1000
0010
1000
0010
0100
,  // measure 19
1001
0000
0011
0000
1100
0000
0101
0000
1010
0000
0010
1000
0001
0100
0010
1000
,  // measure 20
0001
0100
0010
1000
0001
0010
0100
1000
0001
0100
0010
1000
0001
1000
0002
0000
,  // measure 21
0000
0000
0000
0000
0000
0000
0000
0000
0000
0000
0000
0000
0000
0000
0000
0000
0000
0000
0000
0000
0000
0000
0000
0000
0000
1003
0000
0100
0000
0010
0000
0001
1000
0001
1000
0001
1000
0001
1000
0001
1000
0001
1000
0001
1000
0001
1000
0001
1000
0001
1000
0001
1000
0001
1000
0001
1000
0001
1000
0001
1000
0001
1000
0001
,  // measure 22
0000
0000
0000
0001
0000
0000
0001
0000
0000
0000
1000
0000
0010
0100
0001
0000
,  // measure 23
1000
0000
0000
0010
0000
0000
0100
0000
0010
0000
0000
1000
0000
0000
1000
0000
,  // measure 24
0001
0000
0000
0001
0000
0000
0010
0000
0010
0000
0001
0100
0000
1000
0100
0000
,  // measure 25
0001
0000
0000
0010
0000
0000
0100
0000
1000
0000
0000
0010
0000
0000
0100
0000
,  // measure 26
0001
0000
0000
1001
0000
0000
1001
0000
0000
0001
1000
0000
0010
0000
1000
0000
,  // measure 27
1000
0000
0000
1001
0000
0000
1001
0000
0000
0010
0100
0000
1100
0000
0011
0000
,  // measure 28
0101
0000
0000
0101
0000
0000
0101
0000
0000
0010
0100
0000
0101
0000
1010
0000
,  // measure 29
1100
0000
0100
0000
1100
0000
0100
0000
0010
0001
0010
0001
1000
0100
1000
0100
,  // measure 30
1001
0000
1100
0000
0011
0000
0110
0000
0001
1000
0001
0010
0100
0000
1000
0000
,  // measure 31
0011
0000
1001
0000
1010
0000
1001
0000
1000
0010
0100
0001
0010
0100
1000
0001
,  // measure 32
0010
0000
0000
0110
0000
0000
0210
0000
0000
0000
1300
0000
0010
0000
0100
0000
,  // measure 33
0100
0000
0000
0001
0000
0000
1000
0000
0010
0100
0001
0010
0001
0010
0100
1000
,  // measure 34
0011
0000
0000
0011
0000
0000
0011
0000
0000
0010
0100
0000
1000
0000
0001
0000
,  // measure 35
1010
0000
0000
1010
0000
0000
1010
0000
0000
0100
0010
0000
0001
0000
1000
0000
,  // measure 36
1100
0000
0000
1001
0000
0000
0011
0000
0000
0001
1000
0000
0010
0000
0100
0000
,  // measure 37
0001
1000
0001
1000
0001
1000
0001
1000
0010
0100
0010
0100
0010
0100
0010
0100
,  // measure 38
0010
0000
0000
0000
1000
0000
0000
0000
0001
0000
0000
0000
0010
0000
0000
0100
,  // measure 39
1000
0000
0000
0000
1000
0000
0000
0010
0100
0000
0001
0000
0002
0000
0000
0013
,  // measure 40
0100
0000
0000
0000
1000
0000
0000
0000
0001
0000
0000
0000
0100
0000
0000
0010
,  // measure 41
1000
0000
0000
0000
1000
0000
0000
0100
0010
0000
0001
0000
0001
0000
0001
1000
,  // measure 42
0001
1000
0100
0010
0001
1000
0110
0100
,  // measure 43
0001
1000
0100
0010
0100
1000
1001
0000
,  // measure 44
0001
0000
0000
0100
0000
0000
0010
0000
1000
0000
0000
0100
0000
0000
0010
0000
,  // measure 45
0001
0000
0000
0100
0000
0000
0010
0000
0100
0000
0000
0001
0000
0000
1000
0000
,  // measure 46
0100
0000
1000
0001
1000
0000
0010
0000
0100
0000
0001
0000
0101
0000
0000
0000
,  // measure 47
1001
0000
0001
1000
0001
0000
0010
0000
0100
0000
0010
0000
0011
0000
1000
0000
,  // measure 48
0001
0000
0010
0100
0010
0000
0100
0000
1000
0000
0010
0000
0110
0000
0000
0000
,  // measure 49
1000
0000
0010
0100
0010
0000
0100
0000
0001
0000
0010
0000
0110
0000
0100
0000
,  // measure 50
1000
0001
0010
1000
0010
0100
1000
0001
,  // measure 51
1000
0100
0001
0100
0010
0001
1000
0010
,  // measure 52
0001
0010
0100
0001
1000
0100
0010
0001
,  // measure 53
1000
0010
1000
0010
1000
0010
1000
0010
0100
0001
0100
0001
0100
0001
0100
0001
,  // measure 54
1000
0000
0100
0000
0010
0000
0001
0000
0011
0000
0000
0010
0001
0000
0200
0000
,  // measure 55
0000
0000
0301
0000
0010
0000
0100
0000
0110
0000
0000
0100
1000
0000
0020
0000
,  // measure 56
0000
0000
0130
0001
0010
0000
0100
1000
0010
1000
0010
1000
0010
0000
1000
0000
,  // measure 57
0001
0100
0001
1000
0001
0100
0001
0010
0001
1000
0001
0010
0001
0000
2000
0000
,  // measure 58
0000
0000
3001
0000
0010
0000
0100
0000
0101
0000
0000
1000
0100
0000
1002
0000
,  // measure 59
0000
0000
1003
0000
0010
0000
0100
0000
1010
0000
0000
0001
0100
0000
1001
0000
,  // measure 60
0002
0000
0000
0023
0000
0000
0230
0000
0320
0000
0000
0230
0000
0000
1300
0000
,  // measure 61
1000
0100
1000
0100
0010
0100
0010
0100
0010
0001
0010
0001
1000
0010
1000
0010
,  // measure 62
1000
0001
0010
0100
1000
0010
0100
0001
0010
0100
1000
0100
1000
0001
0100
0001
,  // measure 63
0100
0000
1100
0000
0011
0000
0110
0000
0001
1000
0001
0010
0100
0000
1000
0000
,  // measure 64
0011
0000
1001
0000
1010
0000
1001
0000
1000
0010
0100
0001
0010
0100
1000
0001
,  // measure 65
0010
0000
0000
0110
0000
0000
0210
0000
0000
0000
1300
0000
0010
0000
0100
0000
,  // measure 66
0100
0000
0000
0001
0000
0000
1000
0000
0001
0100
1000
0100
0001
0010
1000
0010
,  // measure 67
0011
0000
0000
0011
0000
0000
0011
0000
0000
0010
0100
0000
1000
0000
0001
0000
,  // measure 68
1010
0000
0000
1010
0000
0000
1010
0000
0000
0100
0010
0000
0001
0000
1000
0000
,  // measure 69
1100
0000
0000
1001
0000
0000
0011
0000
0000
0001
1000
0000
0010
0000
0100
0000
,  // measure 70
0001
1000
0001
1000
0001
1000
0001
1000
0010
0100
0010
0100
0010
0100
0010
0100
,  // measure 71
0010
0000
1010
0000
0110
0000
0101
0000
0001
0010
0100
1000
0001
0000
1001
0000
,  // measure 72
0110
0000
1100
0000
0101
0000
1100
0000
0001
0010
0001
1000
0100
1000
0001
0010
,  // measure 73
0001
0000
0000
0110
0000
0000
1001
0000
0000
0000
1000
0000
0100
0000
0010
0000
,  // measure 74
0011
0000
0000
0110
0000
0000
1100
0000
0001
1000
0010
0100
0010
1000
0100
0010
,  // measure 75
0001
0000
0000
0101
0000
0000
0101
0000
0000
0001
1000
0000
0010
0000
0100
0000
,  // measure 76
1100
0000
0000
1100
0000
0000
1100
0000
0000
0100
0010
0000
0001
0000
1000
0000
,  // measure 77
1001
0000
0000
1001
0000
0000
1001
0000
0000
0001
1000
0000
0110
0000
1001
0000
,  // measure 78
0001
1000
0001
1000
0001
1000
0001
1000
0010
0100
0010
0100
0010
0100
0010
0100
,  // measure 79
0000
0000
0000
0020
0000
0000
0000
0000
0000
0000
0000
0000
0000
0000
0000
0030
;
