#TITLE:Sexyback;
#SUBTITLE:;
#ARTIST:Justin Timberlake;
#TITLETRANSLIT:;
#SUBTITLETRANSLIT:;
#ARTISTTRANSLIT:;
#CREDIT:;
#BANNER:sexyback.PNG;
#BACKGROUND:sexyback-bg.PNG;
#LYRICSPATH:;
#CDTITLE:;
#MUSIC:Justin Timberlake - SexyBack.mp3;
#OFFSET:-0.105;
#SAMPLESTART:100.000;
#SAMPLELENGTH:12.000;
#SELECTABLE:YES;
#BPMS:0.000=117.001,438.000=936.008,502.000=468.004;
#STOPS:63.000=0.513
,157.000=1.026
,188.000=0.513
,299.500=0.513
,393.000=1.538
,405.000=1.538
;
#BGCHANGES:;
// cache tags:
#FIRSTBEAT:17.000;
#LASTBEAT:502.000;
#SONGFILENAME:Songs/dragon force/SexyBack/Justin Timberlake - SexyBack.sm;
#HASMUSIC:1;
#HASBANNER:1;
#MUSICLENGTH:243.181;
// end cache tags

//---------------dance-single - SexyChart----------------
#NOTES:
     dance-single:
     SexyChart:
     Edit:
     11:
     0.785,0.800,0.259,0.432,0.868,1168.000,63.000,105.000,76.000,8.000:
0000
0000
0000
0000
,
0000
0000
0000
0000
,
0000
0000
0000
0000
,
0000
0000
0000
0000
,
0000
0000
0000
0000
0000
0000
0000
0000
1000
0001
1000
0000
0001
0000
0000
0000
0100
0000
0000
0000
1000
0000
0000
0000
0100
0000
0000
0000
0010
0100
0010
0000
,
0000
0000
0000
0000
1000
0000
0000
0000
0001
1000
0001
0000
1000
0000
0000
0000
0010
0000
0000
0000
0001
0000
0000
0000
0010
0000
0000
0000
0100
0010
0100
0000
,
0000
0000
0000
0000
0001
0000
0000
0000
1000
0100
1000
0000
0000
0000
0001
0010
0001
0000
0000
0000
1000
0010
1000
0000
0000
0000
0000
0000
0001
0100
0001
0000
,
0000
0000
0000
0000
0010
0000
0000
0000
0001
1000
0001
0000
1000
0000
0000
0000
0100
0000
0000
0000
0001
0000
0000
0000
0100
0000
0000
0000
0010
0100
0010
0000
,
0100
0000
0000
0000
1000
0000
0000
0000
0001
0100
0001
0000
0100
0000
0000
0000
1000
0000
0000
0000
0001
0000
0000
0000
0010
0000
0000
0000
1000
0100
1000
0000
,
0100
0000
0000
0000
0010
0000
0000
0000
0001
1000
0001
0000
0100
0000
0000
0000
1000
0000
0000
0000
0100
0000
0000
0000
0001
0000
0000
0000
0010
0100
0010
0000
,
0100
0000
0000
0000
1000
0000
0000
0000
0010
1000
0010
0000
0000
0000
0100
0001
0100
0000
0000
0000
0001
0010
0001
0000
0000
0000
0000
0000
1000
0100
1000
0000
,
0001
0000
0000
0000
0100
0000
0000
0000
0001
0010
0001
0000
1000
0000
0000
0000
0010
0000
0000
0000
0100
0000
0000
0000
0001
0000
0000
0000
1000
0100
1000
0000
,
0100
0000
0000
0000
1000
0000
0000
0000
0010
0100
0010
0000
1000
0000
0000
0000
0001
0000
0000
0000
0100
0000
0000
0000
1000
0000
0000
0000
0100
0001
0100
0000
,
0001
0000
0000
0000
0010
0000
0000
0000
0001
1000
0001
0000
1000
0000
0000
0000
0100
0000
0000
0000
0001
0000
0000
0000
0100
0000
0000
0000
0010
0001
0010
0000
,
0100
0000
0000
0000
1000
0000
0000
0000
0010
0100
0010
0000
0000
0000
1000
0001
1000
0000
0000
0000
0100
0010
0100
0000
0000
0000
0000
0000
0010
0001
0010
0000
,
0001
0000
0000
0000
1000
0000
0000
0000
0010
1000
0010
0000
0000
0000
0000
0000
1000
0000
0100
0000
0001
0000
0100
0000
2000
0000
0000
0000
0000
0000
0000
0000
,
0010
3000
1000
0001
0100
0000
0010
1000
0100
0000
0001
0100
1000
0000
0010
0100
,
0001
0000
0010
1000
0010
0000
0100
1000
0010
0000
0100
0001
1000
0001
0010
0100
,
1000
0000
0100
0010
0100
0000
0010
0001
0100
0000
1000
0100
0001
0000
0010
1000
,
0001
0000
0100
0010
0001
0000
1000
0010
0001
0000
0010
1000
0100
0010
0001
0100
,
0010
0000
1000
0100
1000
0000
0001
0010
1000
0000
0010
0001
0100
0000
1000
0100
,
0010
0000
0010
1000
0001
0000
0100
0001
0010
0000
0100
1000
0010
0100
0001
0010
,
0001
0000
0010
0001
0100
0000
0001
0100
1000
0000
0100
0010
1000
0000
0100
0001
,
0100
0000
0000
0000
1000
0010
0001
0010
1000
0000
0010
0000
0101
0000
0000
0000
,
1000
0000
0001
0000
0000
0000
0200
0000
0000
0000
1000
0000
0010
0000
0000
0000
0001
0000
0000
0000
0001
0300
0200
0000
1000
0000
0000
0000
1000
0300
0100
0000
,
0001
0000
0000
0000
1000
0000
0100
0000
0200
0000
0000
0000
0010
0300
0200
0000
1000
0000
0000
0000
1000
0300
0200
0000
0010
0000
0000
0000
0010
0300
0100
0000
,
1000
0000
0010
0000
0000
0000
0200
0000
0000
0000
0010
0000
0001
0000
0000
0000
0010
0000
0000
0000
0010
0300
0200
0000
0001
0000
0000
0000
0001
0300
0100
0000
,
0010
0000
0000
0000
1000
0000
0000
0000
0200
0000
0000
0000
0001
0300
0200
0000
0010
0000
0000
0000
0010
0300
0200
0000
1000
0000
0000
0000
1000
0300
0100
0000
,
0020
0000
0000
0000
0001
0030
0020
0000
0000
0000
0000
0000
1000
0030
0020
0000
0001
0000
0000
0000
0001
0030
0020
0000
1000
0000
0000
0000
1000
0030
0010
0000
,
0001
0000
1000
0000
0020
0000
0000
0000
0001
0000
0000
0000
0001
0030
0020
0000
0100
0000
0000
0000
0100
0030
0020
0000
0001
0000
0000
0000
0001
0030
0010
0000
,
1000
0000
0000
0000
0100
0000
0020
0000
0000
0000
0000
0000
1000
0030
0020
0000
0100
0000
0000
0000
0100
0030
0020
0000
0001
0000
0000
0000
0001
0030
0010
0000
,
0100
0000
1000
0000
0000
0000
0020
0000
0000
0000
0000
0000
0031
0000
0020
0000
1000
0000
0000
0000
1000
0030
0020
0000
0001
0000
0000
0000
0001
0030
0010
0000
,
0100
0001
1000
0100
1100
0000
1000
0010
0100
0000
0010
1000
0001
0000
0001
0010
,
0100
1000
0100
0010
0110
0000
0100
1000
0010
0000
0100
0001
0010
0000
0100
1000
,
0010
0100
0001
0010
0011
0000
0010
0100
1000
0000
0001
0100
1000
0000
0100
0010
,
1000
0100
1000
0010
1010
0000
0010
1000
0001
0000
M22M
0000
0000
0000
M00M
0330
,
0010
1000
0100
0010
0110
0000
0100
1000
0010
0000
0010
1000
0001
0000
0001
0010
,
0100
1000
0001
0100
0101
0000
0100
0010
1000
0000
1000
0100
0001
0000
0100
1000
,
0010
0100
0001
1000
1001
0000
1000
0100
0010
0000
0010
0100
1000
0000
0100
1000
,
0010
0000
0000
0000
0000
0000
0000
0000
0000
0000
0000
0000
0100
0000
0000
0000
0000
0000
0000
0000
0000
0000
0000
0000
0001
0000
0000
0000
0000
0000
0000
0000
0000
0000
0000
0000
0010
0000
0000
0000
0000
0000
0000
0000
0000
0000
0000
0000
0022
0000
0000
0033
0000
0000
0000
0000
0000
0000
0000
0000
0000
0000
0000
0000
00MM
0000
0000
0000
0000
0000
0000
0000
0000
0000
0000
0000
0000
0000
0000
0000
0000
0000
0000
0000
0000
0000
0000
0000
0000
0000
0000
0000
0000
0000
0000
0000
0010
0000
0000
0000
0000
0000
0001
0000
0000
0000
0000
0000
0010
0000
0000
0000
0000
0000
0000
0000
0000
0000
0000
0000
0100
0000
0000
0000
0000
0000
0000
0000
0000
0000
0000
0000
1000
0000
0000
0000
0000
0000
0000
0000
0000
0000
0000
0000
0010
0000
0000
0000
0000
0000
0000
0000
0000
0000
0000
0000
0000
0000
0000
0000
0000
0000
0000
0000
0000
0000
0000
0000
0100
0000
0000
0000
0000
0000
0000
0000
0000
0000
0000
0000
0001
0000
0000
0000
0000
0000
0000
0000
0000
0000
0000
0000
,
1000
0000
0000
0000
0100
0010
0200
0000
0010
0000
0000
0000
1000
0000
0300
0000
0001
1000
0001
0000
1000
0000
0100
0000
0010
0000
0000
0000
1000
0000
0010
0000
,
0001
0000
0000
0000
1000
0010
2000
0000
0001
0000
0000
0000
0100
0000
3000
0000
0010
0100
0010
0000
0000
0000
0100
1000
0100
0000
0000
0000
1000
0001
1000
0000
,
0000
0000
0000
0000
0001
0010
0002
0000
1000
0000
0000
0000
0100
0000
0003
0000
0010
0100
0010
0000
0100
0000
0001
0000
0010
0000
0000
0000
1000
0000
0010
0000
,
0001
0000
0000
0000
0100
0001
0200
0000
0001
0000
0000
0000
0010
0000
0300
0000
1000
0100
1000
0000
0100
0000
1000
0000
0010
0000
0000
0000
0010
0000
0100
0000
,
0001
0000
0000
0000
0010
0100
0020
0000
0001
0000
0000
0000
0100
0000
0030
0000
0010
0001
0010
0000
0001
0000
1000
0000
0010
0000
0000
0000
0001
0000
0010
0000
,
0100
0000
0000
0000
0001
0010
0002
0000
1000
0000
0000
0000
0100
0000
0003
0000
0010
1000
0010
0000
0000
0000
1000
0001
1000
0000
0000
0000
0001
0100
0001
0000
,
0000
0000
0000
0000
0000
0000
0000
0000
0000
0000
0000
0000
0000
0000
0000
0000
0000
0000
0000
0000
0000
0000
0000
0000
0100
0000
0000
0000
0000
0000
0010
0000
0000
0000
0000
0000
0100
0000
0000
0000
0000
0000
0000
0000
0000
0000
0000
0000
M00M
0000
0000
0000
0000
0000
0000
0000
0000
0000
0000
0000
0M00
0000
0000
0000
0000
0000
0000
0000
0000
0000
0000
0000
00M0
0000
0000
0000
0000
0000
0000
0000
M00M
0000
0000
0000
0000
0000
0000
0000
0000
0000
0000
0000
0000
0000
0000
0000
0001
0000
0000
0000
0000
0000
1000
0000
0000
0000
0000
0000
0001
0000
0000
0000
0000
0000
0000
0000
0000
0000
0000
0000
0000
0000
0000
0000
0000
0000
0000
0000
0000
0000
0000
0000
0000
0000
0000
0000
0000
0000
0000
0000
0000
0000
0000
0000
0001
0000
0000
0000
0000
0000
0000
0000
0000
0000
0000
0000
0010
0000
0000
0000
0000
0000
0000
0000
0000
0000
0000
0000
1000
0000
0000
0000
0000
0000
0000
0000
0000
0000
0000
0000
0020
0000
0000
0000
0000
0000
0000
0000
0000
0000
0000
0000
,
0002
0000
0000
0033
0000
0000
0000
0000
0000
0000
0000
0000
0000
0000
0000
0000
0000
0000
0000
0000
0000
0000
0000
0000
0000
0000
0000
0000
0000
0000
0000
0000
MMMM
0000
0000
0000
0000
0000
0000
0000
0000
0000
0000
0000
0000
0000
0000
0000
1MM1
0000
0000
0000
0000
0000
0000
0000
0000
0000
0000
0000
0000
0000
0000
0000
0000
0000
0000
0000
0000
0000
0000
0000
1000
0000
0000
0000
0000
0000
0000
0000
0000
0000
0000
0000
0000
0000
0000
0000
0000
0000
0000
0000
0000
0000
0000
0000
0010
0000
0000
0000
0000
0000
0000
0000
0000
0000
0000
0000
0000
0000
0000
0000
0000
0000
0000
0000
0000
0000
0000
0000
0100
0000
0000
0000
0000
0000
0000
0000
0000
0000
0000
0000
0000
0000
0000
0000
0000
0000
0000
0000
0000
0000
0000
0000
0001
0000
0000
0000
0000
0000
0000
0000
0000
0000
0000
0000
0000
0000
0000
0000
0000
0000
0000
0000
0000
0000
0000
0000
MM11
0000
0000
0000
0000
0000
0000
0000
0000
0000
0000
0000
0000
0000
0000
0000
0000
0000
0000
0000
0000
0000
0000
0000
,
0010
0100
11MM
1000
0001
0100
1000
11MM
,
0100
0000
0010
0000
1M1M
0000
0010
M1M1
0000
0010
11MM
0000
0100
0000
M11M
0000
,
0010
0001
1MM1
1000
0010
0001
0010
M11M
,
0100
0001
MM11
0010
1000
0010
0100
11MM
,
1000
0001
M1M1
0100
1000
0001
0010
M11M
,
0100
0000
0001
0000
MM11
0000
0010
11MM
0000
0010
M1M1
0000
0001
0000
1MM1
0000
,
M00M
0000
0010
0000
1MM1
0000
0000
0000
1000
0100
0001
0100
1000
0000
0100
0000
,
0011
0000
0000
0000
0000
0000
0000
0000
0001
0000
1000
0000
0000
0000
0020
0000
0000
0000
0001
0000
0100
0000
0000
0000
1000
0000
0000
0000
1000
0030
0020
0000
,
0001
0000
0000
0000
0001
0030
0010
0000
1000
0000
0000
0000
0001
0000
0010
0000
0020
0000
0000
0000
0100
0030
0020
0000
0001
0000
0000
0000
0001
0030
0020
0000
,
0100
0000
0000
0000
0100
0030
0010
0000
0001
0000
0100
0000
0000
0000
0020
0000
0000
0000
0100
0000
1000
0000
0000
0000
0100
0000
0000
0000
0100
0030
0020
0000
,
1000
0000
0000
0000
1000
0030
0010
0000
0100
0000
0000
0000
0001
0000
0000
0000
0020
0000
0000
0000
1000
0030
0020
0000
0100
0000
0000
0000
0100
0030
0020
0000
,
0001
0000
0000
0000
0001
0030
0010
0000
0200
0000
0000
0000
1000
0300
0200
0000
0000
0000
0000
0000
0001
0300
0200
0000
1000
0000
0000
0000
1000
0300
0200
0000
,
0001
0000
0000
0000
0001
0300
0100
0000
1000
0000
0001
0000
0200
0000
0000
0000
1000
0000
0000
0000
1000
0300
0200
0000
0010
0000
0000
0000
0010
0300
0200
0000
,
1000
0000
0000
0000
1000
0300
0100
0000
0001
0000
0000
0000
0010
0000
0200
0000
0000
0000
0000
0000
0001
0300
0200
0000
0010
0000
0000
0000
0010
0300
0200
0000
,
1000
0000
0000
0000
1000
0300
0100
0000
0010
0000
0001
0000
0000
0000
0200
0000
0000
0000
0000
0000
1300
0000
0200
0000
0001
0000
0000
0000
0001
0300
0200
0000
,
1000
0000
0000
0000
1000
0300
0100
0000
0010
0000
1000
0000
0001
0000
0010
0000
0011
0000
0000
0000
0001
0000
0100
0000
0010
0000
0000
0000
0100
0000
0001
0000
,
1000
0000
1000
0100
0010
0001
0010
0100
0110
0000
0010
0001
0100
0000
0010
1000
,
0100
0000
0010
0001
0100
0010
1000
0100
1100
0000
0100
0010
0001
0000
1000
0010
,
0001
0000
0010
0100
0001
0010
0001
0100
0101
0000
0100
0001
1000
0000
M22M
0000
,
0000
0000
M00M
0330
0100
0001
0010
0100
0110
0000
0010
0001
0100
0000
0100
0001
,
1000
0000
1000
0100
0010
0001
1000
0010
1010
0000
0010
0100
0001
0000
0001
0010
,
1000
0000
0010
0001
0100
0010
1000
0001
1001
0000
0001
0010
0100
0000
0100
0010
,
0001
0000
0010
0001
0100
0010
1000
0100
2100
0000
0000
0000
0002
0000
0000
0000
,
0010
3000
0200
0000
1000
0003
0020
0000
,
0001
0300
2000
0000
0001
0030
0200
0000
,
0010
3000
0020
0000
1000
0300
0002
0000
,
0100
0000
0000
0000
0000
0000
0000
0000
0030
0000
0000
0000
0000
0000
0000
0000
1003
0000
0000
0000
0000
0000
0000
0000
1001
0000
0000
0000
0000
0000
0000
0000
0000
0000
0000
0000
0000
0000
0000
0000
0220
0000
0000
0000
0000
0000
0000
0000
0000
0000
0000
0000
0000
0000
0000
0000
1001
0330
0000
0000
0000
0000
0000
0000
,
0001
0100
0001
0000
0100
0000
0000
0000
1000
0000
0000
0000
0001
0000
0000
0000
0010
0000
0000
0000
1000
0100
1000
0000
0100
0000
0000
0000
0010
0000
0000
0000
,
0001
1000
0001
0000
0100
0000
0000
0000
1000
0000
0000
0000
0100
0000
0000
0000
0001
0000
0000
0000
0010
0100
0010
0000
0100
0000
0000
0000
1000
0000
0000
0000
,
0010
1000
0010
0000
0000
0000
0100
0001
0100
0000
0000
0000
0001
0010
0001
0000
0000
0000
0000
0000
1000
0100
1000
0000
0001
0000
0000
0000
0100
0000
0000
0000
,
0001
0010
0001
0000
1000
0000
0000
0000
0010
0000
0000
0000
0100
0000
0000
0000
0001
0000
0000
0000
1000
0100
1000
0000
0100
0000
0000
0000
1000
0000
0000
0000
,
0010
0100
0010
0000
1000
0000
0000
0000
0001
0000
0000
0000
0100
0000
0000
0000
1000
0000
0000
0000
0100
0001
0100
0000
0001
0000
0000
0000
0010
0000
0000
0000
,
0001
1000
0001
0000
1000
0000
0000
0000
0100
0000
0000
0000
0001
0000
0000
0000
0100
0000
0000
0000
0010
0001
0010
0000
0100
0000
0000
0000
1000
0000
0000
0000
,
0010
0100
0010
0000
0000
0000
1000
0001
1000
0000
0000
0000
0100
0010
0100
0000
0000
0000
0000
0000
0010
0001
0010
0000
0001
0000
0000
0000
1000
0000
0000
0000
,
0010
1000
0010
0000
0000
0000
0000
0000
1000
0000
0100
0000
0001
0000
0100
0000
1000
0000
0000
0000
0010
0000
0000
0000
0101
0000
0000
0000
0000
0000
0000
0000
,
1000
0000
0001
0000
0000
0000
0200
0000
0000
0000
1000
0000
0010
0000
0000
0000
0001
0000
0000
0000
0001
0300
0200
0000
1000
0000
0000
0000
1000
0300
0100
0000
,
0001
0000
0000
0000
1000
0000
0100
0000
0200
0000
0000
0000
0010
0300
0200
0000
1000
0000
0000
0000
1000
0300
0200
0000
0010
0000
0000
0000
0010
0300
0100
0000
,
1000
0000
0010
0000
0000
0000
0200
0000
0000
0000
0010
0000
0001
0000
0000
0000
0010
0000
0000
0000
0010
0300
0200
0000
0001
0000
0000
0000
0001
0300
0100
0000
,
0010
0000
0000
0000
1000
0000
0000
0000
0200
0000
0000
0000
0001
0300
0200
0000
0010
0000
0000
0000
0010
0300
0200
0000
1000
0000
0000
0000
1000
0300
0100
0000
,
0020
0000
0000
0000
0001
0030
0020
0000
0000
0000
0000
0000
1000
0030
0020
0000
0001
0000
0000
0000
0001
0030
0020
0000
1000
0000
0000
0000
1000
0030
0010
0000
,
0001
0000
1000
0000
0020
0000
0000
0000
0001
0000
0000
0000
0001
0030
0020
0000
0100
0000
0000
0000
0100
0030
0020
0000
0001
0000
0000
0000
0001
0030
0010
0000
,
1000
0000
0000
0000
0100
0000
0020
0000
0000
0000
0000
0000
1000
0030
0020
0000
0100
0000
0000
0000
0100
0030
0020
0000
0001
0000
0000
0000
0001
0030
0010
0000
,
0100
0000
1000
0000
0000
0000
0020
0000
0000
0000
0000
0000
0031
0000
0020
0000
1000
0000
0000
0000
1000
0030
0020
0000
0001
0000
0000
0000
0001
0030
0010
0000
,
0100
0001
1000
0100
1100
0000
1000
0010
0100
0000
0010
1000
0001
0000
0001
0010
,
0100
1000
0100
0010
0110
0000
0100
1000
0010
0000
0100
0001
0010
0000
0100
1000
,
0010
0100
0001
0010
0011
0000
0010
0100
1000
0000
0001
0100
1000
0000
0100
0010
,
1000
0100
1000
0010
1010
0000
0010
1000
0001
0000
M22M
0000
0000
0000
M00M
0330
,
0010
1000
0100
0010
0110
0000
0100
1000
0010
0000
0010
1000
0001
0000
0001
0010
,
0100
1000
0001
0100
0101
0000
0100
0010
1000
0000
1000
0100
0001
0000
0100
1000
,
0010
0100
0001
1000
1001
0000
1000
0100
0010
0000
0010
0100
1000
0000
0100
1000
,
0010
0000
0000
0000
0100
0000
0000
0000
0001
0000
0000
0000
0010
0000
0000
0000
0022
0033
0000
0000
0000
0000
0000
00MM
0000
0000
0000
0000
0000
0000
0000
0000
0001
0000
0000
0000
0000
0000
0000
0000
0100
0000
0000
0000
0000
0000
0000
0000
0010
0000
0000
0000
0000
0000
0000
0000
1000
0000
0001
0000
1000
0000
0000
0000
,
0000
0000
0000
0000
0000
0000
0000
0000
M00M
0000
0000
0000
0000
0000
0000
0000
0000
0000
0000
0000
0000
0000
0000
0000
0002
0000
0000
0000
0000
0000
0000
0000
0000
0000
0000
0000
0000
0000
0000
0000
0000
0000
0000
0000
0000
0000
0000
0000
0010
0000
0000
0000
0000
0000
0000
0000
0000
0000
0000
0000
0000
0000
0000
0000
0000
0000
0000
0000
0000
0000
0000
0000
0000
0000
0000
0000
0000
0000
0000
0000
0000
0000
0000
0000
0000
0000
0000
0000
0000
0000
0000
0000
0000
0000
0000
0000
0010
0000
0000
0000
0000
0000
0000
0000
0000
0000
0000
0000
0003
0000
0000
0000
0000
0000
0000
0000
0000
0000
0000
0000
0001
0000
0000
0000
0000
0000
0000
0000
0000
0000
0000
0000
0000
0000
0000
0000
0000
0000
0000
0000
0000
0000
0000
0000
1000
0000
0000
0000
0000
0000
0000
0000
0000
0000
0000
0000
0000
0000
0000
0000
0000
0000
0000
0000
0000
0000
0000
0000
0010
0000
0000
0000
0000
0000
0100
0000
0000
0000
0000
0000
0010
0000
0000
0000
0000
0000
0000
0000
0000
0000
0000
0000
,
0000
0000
0000
0000
0000
0000
0000
0000
1000
0010
1000
0000
0000
0000
0001
0100
0001
0000
0000
0000
1000
0100
1000
0000
0000
0000
0000
0000
0001
0010
0001
0000
,
0000
0000
0010
0000
2200
0000
3300
0000
MM11
0000
0001
0010
1000
0000
0010
0000
,
0001
0000
0100
0000
0010
0000
1000
0000
0101
0000
0100
0010
1000
0000
0100
0000
,
0010
0000
0100
0000
1000
0000
0001
0000
0110
0000
0010
1000
0100
0000
0010
0000
,
0100
0000
1000
0000
0001
0000
0100
0000
1010
0000
0010
1000
0001
0000
0010
0000
,
0100
0000
0000
0000
2MM2
0000
0000
0000
0000
0000
0000
0000
0MM0
0000
0000
3003
M11M
0000
0000
0000
0100
0000
0001
0000
0010
0000
0000
0000
1000
0000
0000
0000
,
0001
0000
0100
0000
1000
0000
0010
0000
0101
0000
0100
1000
0100
0000
0010
0000
,
1000
0000
0100
0000
0010
0000
0001
0000
1100
0000
1000
0100
0001
0000
0100
0000
,
0010
0000
0001
0000
0100
0000
0010
0000
1001
0000
0001
0100
1000
0000
0100
0000
,
0010
0100
0001
0010
2200
0000
0000
0000
,
0000
0000
0000
0000
,
0000
0000
0000
0000
,
0000
0000
0000
0000
,
0000
0000
0000
0000
,
0000
0000
0000
0000
,
0000
0000
0000
0000
,
0000
0000
0000
0000
,
0000
0000
0000
0000
,
0000
0000
0000
0000
,
0000
0000
0000
0000
,
0000
0000
0000
0000
,
0000
0000
0000
0000
,
0000
0000
0000
0000
,
0000
0000
0000
0000
,
0000
0000
0000
0000
,
0000
0000
3300
0000
;

//---------------dance-single - Copied from Copied f----------------
#NOTES:
     dance-single:
     Copied from Copied f:
     Challenge:
     9:
     0.648,0.826,0.313,0.477,0.389,911.000,76.000,116.000,58.000,1.000:
0000
0000
0000
0000
,
0000
0000
0000
0000
,
0000
0000
0000
0000
,
0000
0000
0000
0000
,
0000
0000
0000
0000
1001
0000
0001
1000
0100
0000
0010
0001
1000
0000
0110
0000
,
0000
0000
0000
0000
1001
0000
1000
0001
0100
0000
0010
1000
0001
0000
0110
0000
,
0000
0000
0000
0000
1010
0000
0000
0011
0000
0000
1010
0000
0000
0000
0101
0000
,
0000
0000
0100
0000
1001
0000
1000
0001
0010
0000
0100
1000
0001
0000
0110
0000
,
0010
1000
0100
0001
0100
0000
0010
1001
,
M00M
0000
1000
0100
1100
0000
0100
0010
0100
0000
0010
0001
0010
0000
1001
0000
,
0001
0100
1000
0100
0010
0000
0100
1001
,
M00M
0000
0001
0100
0101
0000
0100
0010
0100
0000
0010
1000
0010
0000
1001
0000
,
1000
0100
0001
0100
1000
0000
0010
1001
,
M00M
0000
0010
0100
0110
0000
0010
1000
0001
0000
0010
0100
1000
0000
1001
0000
,
0001
0010
1000
0010
0001
0000
0100
1001
,
M00M
0000
0000
0000
0000
0000
0000
0000
0000
0000
0000
0000
0000
0000
0000
0000
0110
0000
0000
0000
0000
0000
0000
0000
0MM0
0000
0000
0000
0000
0000
0000
0000
0010
0000
0000
0000
0100
0000
0000
0000
0010
0000
0000
0000
0200
0000
0000
0000
0002
0303
0000
0000
0000
0000
0000
0000
0000
0000
0000
0000
0000
0000
0000
0000
,
0020
0000
0000
0000
0002
0000
0000
0030
0200
0000
0000
0003
2000
0000
0000
0300
0200
0000
0000
3000
0020
0000
0000
0300
2000
0000
0000
0030
0200
0000
0000
3000
,
0002
0000
0000
0300
2000
0000
0000
0003
0002
0000
0000
3000
0200
0000
0000
0003
0020
0000
0000
0300
0002
0000
0000
0030
2000
0000
0000
0003
0020
0000
0000
3000
,
0002
0000
0000
0030
0020
0000
0000
0003
0200
0000
0000
0030
0020
0000
0000
0300
2000
0000
0000
0030
0200
0000
0000
3000
0002
0000
0000
0300
2000
0000
0000
0003
,
0020
0000
0000
3000
0002
0000
0000
0030
2000
0000
0000
0003
0020
0000
0000
3000
0002
0000
0000
0030
0020
0000
0000
0003
2000
0000
0000
0030
0020
0000
0000
3000
,
0200
0000
0000
0030
0002
0000
0000
0300
0200
0000
0000
0003
2000
0000
0000
0300
0200
0000
0000
3000
0020
0000
0000
0300
2000
0000
0000
0030
0200
0000
0000
3000
,
0020
0000
0000
0300
0002
0000
0000
0030
0200
0000
0000
0003
2000
0000
0000
0300
0200
0000
0000
3000
0002
0000
0000
0300
0020
0000
0000
0003
2000
0000
0000
0030
,
0002
0000
0000
3000
0200
0000
0000
0003
2000
0000
0000
0300
0020
0000
0000
3000
0002
0000
0000
0030
2000
0000
0000
0003
0200
0000
0000
3000
0002
0000
0000
0300
,
0020
0000
0000
0003
0000
0000
0000
0030
0100
0000
1000
0000
0010
0000
0200
0000
0002
0000
0000
0000
0000
0000
0000
0303
1010
0000
0000
0000
0000
0000
0000
0000
,
1000
0100
0000
1000
0000
0001
0200
0000
1000
0000
0010
0000
0001
0000
0010
0300
,
0100
0000
0001
0010
0100
0000
0020
0000
1000
0000
0100
0000
0001
0000
0100
0030
,
0010
0001
0000
1000
0000
1000
0020
0000
0001
0000
0100
0000
1000
0000
0100
0030
,
0010
0000
0010
0000
0010
0000
0200
0000
1000
0000
0010
0000
0001
0000
0310
0100
,
0001
0000
1000
0100
0000
0000
0020
0000
1000
0000
0100
0000
0001
0000
0100
0030
,
0010
0001
0100
0000
0001
0000
0200
0000
1000
0000
0010
0000
0001
0000
0310
0100
,
0001
0000
0010
0001
0000
0000
0020
0000
1000
0000
0100
0000
0001
0000
0100
0030
,
0010
0001
0000
0100
0000
0000
0020
0000
0001
0000
0100
0000
1000
0000
0100
0030
,
0010
1000
0001
0100
0010
0000
1000
0100
1000
0000
0001
0100
0001
0000
0010
0000
,
0100
1000
0001
0010
0100
0000
0010
0001
0010
0000
0100
1000
0100
0000
1000
0000
,
0001
1000
0010
0100
0001
0000
1000
0010
1000
0000
0001
0100
0001
0000
0010
0000
,
0100
0010
0001
1000
0100
0000
1000
0001
1000
0000
M22M
0000
0000
0000
0000
0330
,
0010
0001
1000
0010
0100
0000
0010
1000
0001
0000
1000
0100
0010
0000
0100
0000
,
1000
0001
0010
0100
0010
0000
0001
0100
0010
0000
1000
0001
0100
0000
0010
0000
,
1000
0100
0010
0100
1000
0000
0010
1000
0001
0000
0010
0001
0100
0000
0010
0000
,
1000
0000
0000
0000
0100
0000
0000
0000
1000
0000
0000
0000
0200
0000
0000
0000
0020
0330
0000
0000
0000
0000
0000
0000
0000
0000
0000
0000
0000
0000
0000
0000
2001
0000
0000
0000
0000
0000
0000
0000
0010
0000
0000
0000
0000
0000
0000
0000
0001
0000
0000
0000
0000
0000
0000
0000
3000
0000
0000
0000
0000
0000
0000
0000
,
0100
0000
1001
0000
M00M
0000
0000
0000
1001
0000
0001
0100
0010
0000
1000
0000
,
0100
0000
0010
0001
1000
0000
0010
0000
0100
0000
1000
0100
0001
0000
0000
0000
,
0010
0000
1001
0000
M00M
0000
0000
0000
0110
0000
0100
0001
1000
0000
0100
0000
,
0010
0000
0010
0001
0100
0000
0010
0000
1000
0000
0100
1000
0001
0000
0000
0000
,
0100
0000
1001
0000
M00M
0000
0000
0000
0MM0
0100
0010
0000
0001
0000
0010
1000
,
0010
0000
0001
0100
0010
0000
0010
1000
0001
0000
0010
0000
0100
0000
0000
0000
,
0010
0000
1001
0000
M00M
0000
0000
0000
0110
0000
0000
0000
0010
1000
0001
0200
,
0020
0330
0000
0000
0000
0000
0000
0000
0000
0000
0000
0000
1001
0000
0000
0000
0000
0000
0100
0000
0000
0000
0000
0000
0010
0000
0000
0000
0000
0000
1000
0000
0000
0000
0000
0000
0100
0000
0000
0000
0000
0000
0011
0000
0000
0000
0000
0000
,
00MM
0001
0110
1000
0001
0100
0010
1001
,
M00M
0000
0001
0000
1001
0000
0010
0101
0000
0000
1001
0000
0100
0000
1001
0000
,
M00M
0010
1001
0010
0100
1000
0001
0110
,
0MM0
0100
0011
1000
0100
0010
0001
1100
,
MM00
1000
0110
0001
0100
0010
1000
0101
,
0M0M
0000
0001
0000
0110
0000
0001
1100
0000
0000
0110
0000
0001
0000
0110
0000
,
0MM0
0000
0000
0000
0010
0000
0000
0000
1001
0000
0000
0000
0000
0000
0000
0000
1000
0000
0001
0000
0100
0000
0020
0000
2000
0000
0000
0000
0000
0000
0000
3030
,
0101
0000
0000
0000
0001
0010
0000
0001
0000
1000
0020
0000
0001
0000
0100
0000
,
1000
0000
0100
0030
0010
0000
1000
0100
0010
0000
0200
0000
0001
0000
0010
0000
,
1000
0000
0010
0300
0100
1000
0000
0001
0000
0001
0200
0000
1000
0000
0010
0000
,
0001
0000
0010
0300
0100
0000
0100
0000
0100
0000
0020
0000
0001
0000
0100
0000
,
1000
0000
0130
0010
1000
0000
0001
0010
0000
0000
0200
0000
0001
0000
0010
0000
,
1000
0000
0010
0300
0100
1000
0010
0000
1000
0000
0020
0000
0001
0000
0100
0000
,
1000
0000
0130
0010
1000
0000
0100
1000
0000
0000
0200
0000
0001
0000
0010
0000
,
1000
0000
0010
0300
0100
1000
0000
0010
0000
0000
0200
0000
1000
0000
0010
0000
,
0001
0000
0010
0300
0100
0001
1000
0010
0100
0000
0001
0010
0001
0000
1000
0010
,
1000
0000
0100
0000
0010
0001
1000
0100
0010
0000
0100
1000
0100
0000
0010
0001
,
0010
0000
0001
0000
1000
0001
0100
0010
1000
0000
0001
0100
0001
0000
1000
0010
,
1000
0000
0100
0000
0010
0100
1000
0001
0010
0000
0001
1000
0001
0000
M22M
0000
,
0000
0000
0000
0330
0100
1000
0001
0100
0010
0000
0100
0001
1000
0000
0001
0010
,
0100
0000
0010
0000
0001
1000
0100
0010
0100
0000
1000
0010
0100
0000
0001
1000
,
0010
0000
0100
0000
0001
0010
0100
0010
0001
0000
0100
0001
1000
0000
0100
1000
,
0010
0000
0100
0000
0001
0010
0001
0010
0100
0000
0000
0000
1100
0000
0000
0000
,
0101
0000
0001
0100
0010
1000
0200
0000
,
0001
0000
0010
0300
0100
0000
0010
0000
0001
0000
0100
0000
2000
0000
0000
0000
,
0100
0000
0100
3000
1000
0000
0001
0000
0010
0000
1000
0000
0200
0000
0000
0000
,
1000
0000
0010
0300
0100
0000
1000
0000
0010
0000
2002
0000
0000
0000
0010
3003
,
1002
0010
1000
0003
0100
1001
M00M
0000
,
0110
0000
0010
1000
0001
0000
0010
0100
1000
0000
0001
0100
0010
0000
0010
1000
,
0100
0000
0000
0100
1000
0000
1001
0000
0010
0000
1001
0000
M00M
0000
0000
0000
,
0110
0000
0100
0001
0100
0000
0010
1000
0010
0000
1000
0100
1000
0000
0100
0010
,
0100
0010
0001
0000
0100
1001
M00M
0000
,
0MM0
0100
0010
0000
1000
0000
0001
0010
0100
0000
1000
0010
0100
0000
0001
0010
,
0100
0000
0000
0000
1000
0000
0000
0000
2000
0000
0000
0000
0010
0000
0000
3000
0100
0000
0000
0000
1001
0000
0000
0000
M00M
0000
0000
0000
0000
0000
0000
0000
,
0101
0000
0000
0000
0000
0000
0000
0000
0001
0000
1000
0000
0010
0000
0200
0000
0002
0000
0000
0000
0000
0000
0000
0303
1010
0000
0000
0000
0000
0000
0000
0000
,
1000
0100
0000
1000
0000
0001
0200
0000
1000
0000
0010
0000
0001
0000
0010
0300
,
0100
0000
0001
0010
0100
0000
0020
0000
1000
0000
0100
0000
0001
0000
0100
0030
,
0010
0001
0000
1000
0000
1000
0020
0000
0001
0000
0100
0000
1000
0000
0100
0030
,
0010
0000
0010
0000
0010
0000
0200
0000
1000
0000
0010
0000
0001
0000
0310
0100
,
0001
0000
1000
0100
0000
0000
0020
0000
1000
0000
0100
0000
0001
0000
0100
0030
,
0010
0001
0100
0000
0001
0000
0200
0000
1000
0000
0010
0000
0001
0000
0310
0100
,
0001
0000
0010
0001
0000
0000
0020
0000
1000
0000
0100
0000
0001
0000
0100
0030
,
0010
0001
0000
0100
0000
0000
0020
0000
0001
0000
0100
0000
1000
0000
0100
0030
,
0010
1000
0001
0100
0010
0000
1000
0100
1000
0000
0001
0100
0001
0000
0010
0000
,
0100
1000
0001
0010
0100
0000
0010
0001
0010
0000
0100
1000
0100
0000
1000
0000
,
0001
1000
0010
0100
0001
0000
1000
0010
1000
0000
0001
0100
0001
0000
0010
0000
,
0100
0010
0001
1000
0100
0000
1000
0001
1000
0000
M22M
0000
0000
0000
0000
0330
,
0010
0001
1000
0010
0100
0000
0010
1000
0001
0000
1000
0100
0010
0000
0100
0000
,
1000
0001
0010
0100
0010
0000
0001
0100
0010
0000
1000
0001
0100
0000
0010
0000
,
1000
0100
0010
0100
1000
0000
0010
1000
0001
0000
0010
0001
0100
0000
0010
0000
,
1000
0000
0000
0000
0100
0000
0000
0000
1000
0000
0000
0000
0200
0000
0000
0000
0020
0330
0000
0000
0000
0000
0000
0000
0000
0000
0000
0000
0000
0000
0000
0000
0010
0000
0000
0000
0000
0000
0000
0000
0001
0000
0000
0000
0000
0000
0000
0000
1000
0000
0000
0000
0000
0000
0000
0000
0110
0000
0000
0000
0000
0000
0000
0000
,
0MM0
0000
0000
0000
0200
0000
0000
0000
0001
0000
0000
0000
0000
0000
0000
0300
0100
0000
0000
0000
0000
0000
0000
0000
0010
0000
0000
0000
1001
0000
0000
0000
,
M00M
0000
0000
0000
0110
0000
0000
0101
0000
0000
1001
0000
0100
0000
1001
0000
,
M00M
0000
0000
0000
0220
0000
0330
0000
0010
0000
0000
0010
1000
0000
0100
0000
,
0001
0000
0100
0000
1000
0000
0010
0000
0100
0000
0100
0001
1000
0000
0100
0000
,
0001
0000
0100
0000
0010
0000
0001
0000
1000
0000
0000
1000
0010
0000
0100
0000
,
1000
0000
0100
0000
0001
0000
0010
0000
0001
0000
0001
1000
0010
0000
0100
0000
,
0001
0000
0000
0000
2020
0000
0000
0000
0000
0000
0000
0000
0000
0000
0000
3030
0010
0000
0000
0000
0000
0000
0010
0000
1000
0000
0000
0000
0100
0000
0000
0000
,
0001
0000
1000
0000
0010
0000
0001
0000
0100
0000
0100
0010
1000
0000
0001
0000
,
0010
0000
1000
0000
0010
0000
0001
0000
0100
0000
0000
0100
0010
0000
1000
0000
,
0001
0000
0010
0000
1000
0000
0001
0000
0100
0000
0100
1000
0010
0000
0100
0000
,
0001
1001
M00M
0000
0220
0000
0000
0000
,
0000
0000
0000
0000
,
0000
0000
0000
0000
,
0000
0000
0000
0000
,
0000
0000
0000
0000
,
0000
0000
0000
0000
,
0000
0000
0000
0000
,
0000
0000
0000
0000
,
0000
0000
0000
0000
,
0000
0000
0000
0000
,
0000
0000
0000
0000
,
0000
0000
0000
0000
,
0000
0000
0000
0000
,
0000
0000
0000
0000
,
0000
0000
0000
0000
,
0000
0000
0000
0000
,
0000
0000
0330
0000
;

//---------------dance-single - Hard----------------
#NOTES:
     dance-single:
     Hard:
     Hard:
     8:
     0.459,0.464,0.185,0.053,0.218,723.000,45.000,13.000,0.000,0.000:
0000
0000
0000
0000
,
0000
0000
0000
0000
,
0000
0000
0000
0000
,
0000
0000
0000
0000
,
0000
0000
1001
0000
0010
0000
0010
1001
,
0000
0000
0110
0000
0001
0000
0001
0110
,
0000
0000
0000
0000
1001
0000
0000
1001
0000
0000
0110
0000
0000
0000
1001
0000
,
0000
0000
0110
0000
1000
0000
1000
0110
,
0000
0000
0010
0001
1000
0000
0010
0101
,
0000
0000
0010
1000
0001
0000
0010
1100
,
0000
0000
0000
0000
0010
0000
0000
0001
0000
0000
1000
0000
0000
0000
0110
0000
,
0000
0000
0010
1000
0001
0000
0010
1100
,
0000
0000
0100
1000
0001
0000
0100
1010
,
0000
0000
0100
0001
1000
0000
0100
0011
,
0000
0000
0000
0000
0100
0000
0000
1000
0000
0000
0001
0000
0000
0000
0110
0000
,
0000
0000
0000
0000
1001
0000
0000
0000
1000
0001
1000
0001
1000
0000
0000
0000
,
1000
0100
0020
0000
0100
0000
0000
0031
,
0001
1000
0010
0100
0001
0010
0001
1000
,
0001
0010
0200
0000
0010
0000
0000
1300
,
1000
0001
0100
0010
1000
0100
0010
0001
,
1000
0010
0200
0000
0010
0000
0000
0301
,
0001
1000
0100
0010
0100
1000
0010
1000
,
0001
0100
0020
0000
0100
0000
0000
1000
,
1030
0000
0000
0000
0010
1000
0010
1000
0010
0000
0000
0000
0000
0000
0000
0000
,
1000
0001
0000
1000
0000
0000
0001
0000
0010
0000
0100
0000
0010
0000
0001
0000
,
1000
0000
0010
0100
0001
0000
1000
0000
0001
0000
0010
0000
0100
0000
1000
0000
,
0100
0010
0000
0100
0000
0000
1000
0000
0001
0000
0100
0000
0010
0000
0100
0000
,
0001
0010
0001
1000
0100
0010
0001
1000
,
0010
0000
1000
0010
0000
0000
0100
0000
0001
0000
0010
0000
0001
0000
1000
0000
,
0100
1000
0100
0000
0010
0000
0001
0000
1000
0000
0010
0000
0100
0000
0001
0000
,
0010
0000
0100
0010
0000
0000
0001
0000
1000
0000
0010
0000
0100
0000
0010
0000
,
1000
0001
0000
1000
0000
0000
0001
0000
0010
0000
0100
0000
1000
0000
0010
0000
,
1000
0001
1000
0001
1000
0000
0000
0000
1000
0000
0001
0000
1000
0000
0000
0000
,
0001
0010
0001
0010
0001
0000
0000
0000
0001
0000
0010
0000
0001
0000
0000
0000
,
0010
0100
0010
0100
0010
0000
0000
0000
0010
0000
0100
0000
0010
0000
0000
0000
,
0100
1000
0100
1000
0100
0000
0000
0000
0100
0000
2000
0000
0000
0000
0000
0000
,
3001
1000
0001
1000
0001
0000
0000
0000
0001
0000
1000
0000
0001
0000
0000
0000
,
1000
0100
1000
0100
1000
0000
0000
0000
1000
0000
0100
0000
1000
0000
0000
0000
,
0100
0010
0100
0010
0100
0000
0000
0000
0100
0000
0010
0000
0100
0000
0000
0000
,
0010
0001
0010
0001
0010
0000
0000
0000
0001
0000
1000
0000
0010
0000
0100
0000
,
0001
0101
0000
0000
0100
0010
1000
0100
,
0010
0000
0110
0000
0000
0000
0000
0000
0100
0000
1000
0001
0000
1000
0001
0000
,
0010
0011
0000
0000
0010
0100
1000
0001
,
1000
1001
0000
0000
1000
0001
0010
0100
,
1000
1100
0000
0000
0100
0010
0100
1000
,
0010
0000
1010
0000
0000
0000
0000
0000
1000
0000
0010
0100
0000
0010
0100
0000
,
0001
0000
0101
0000
0000
0000
0000
0000
0100
0000
0000
0000
0010
0100
0010
0100
,
0010
0000
1000
0100
0020
0000
0100
0000
,
0000
0031
0001
1000
0010
0100
0001
0010
,
0001
1000
0001
0010
0200
0000
0010
0000
,
0000
1300
1000
0001
0100
0010
1000
0100
,
0010
0001
1000
0010
0200
0000
0010
0000
,
0000
0301
0001
1000
0100
0010
0100
1000
,
0010
1000
0001
0100
0020
0000
0100
0000
,
0000
0000
1000
0000
1030
0000
0000
0000
0010
1000
0010
1000
0010
0000
0000
0000
,
1000
0000
0000
0000
0001
1000
0000
0001
0000
0000
1000
0000
0100
0000
0010
0000
,
0100
0000
1000
0000
0001
0000
0100
0010
1000
0000
0001
0000
1000
0000
0100
0000
,
0010
0000
0001
0000
0010
0100
0000
0010
0000
0000
0001
0000
1000
0000
0010
0000
,
0100
0010
1000
0100
1000
0001
0010
0100
,
1000
0000
0001
0000
0100
0000
0001
0100
0000
0000
0010
0000
1000
0000
0100
0000
,
1000
0000
0001
0000
0010
0001
0010
0000
0100
0000
1000
0000
0001
0000
0100
0000
,
0010
0000
1000
0000
0100
0000
0010
0100
0000
0000
1000
0000
0001
0000
0100
0000
,
0010
0000
0100
0000
0001
1000
0000
0001
0000
0000
1000
0000
0100
0000
0010
0000
,
0001
0000
0100
0000
0001
1000
0001
1000
0001
0000
0000
0000
0001
0000
1000
0000
,
0001
0000
0000
0000
1000
0100
1000
0100
1000
0000
0000
0000
1000
0000
0100
0000
,
1000
0000
0000
0000
0100
0010
0100
0010
0100
0000
0000
0000
0100
0000
0010
0000
,
0100
0000
0000
0000
0010
0001
0010
0001
0010
0000
0000
0000
0010
0000
0002
0000
,
0000
0000
0000
0000
1003
0001
1000
0001
1000
0000
0000
0000
1000
0000
0001
0000
,
1000
0000
0000
0000
0001
0010
0001
0010
0001
0000
0000
0000
0001
0000
0010
0000
,
0001
0000
0000
0000
0010
0100
0010
0100
0010
0000
0000
0000
0010
0000
0100
0000
,
0010
0000
0000
0000
0100
1000
0100
1000
0100
0000
0000
0000
1000
0000
0000
0000
,
0001
0000
0100
0010
1000
0100
0010
0000
,
0001
0000
0100
0010
1000
0001
0010
0000
,
0100
0000
0010
0001
0100
0010
1000
0000
,
0001
0000
1000
1001
0000
0110
0000
1001
,
0100
1000
0001
0000
0100
1010
0000
0000
,
0100
0001
1000
0000
0100
0011
0000
0000
,
0100
0000
0000
1000
0000
0000
0001
0000
0000
0000
0110
0000
0000
0000
0000
0000
,
0100
0001
1000
0000
0100
0011
0000
0000
,
0010
0001
1000
0000
0010
0101
0000
0000
,
0010
1000
0001
0000
0010
1100
0000
0000
,
0010
0000
0000
0001
0000
0000
1000
0000
0000
0000
0110
0000
0000
0000
0000
0000
,
1001
0000
0000
0000
0001
1000
0001
1000
0001
0000
0000
0000
0000
0000
0000
0000
,
1000
0001
0000
1000
0000
0000
0001
0000
0010
0000
0100
0000
0010
0000
0001
0000
,
1000
0000
0010
0100
0001
0000
1000
0000
0001
0000
0010
0000
0100
0000
1000
0000
,
0100
0010
0000
0100
0000
0000
1000
0000
0001
0000
0100
0000
0010
0000
0100
0000
,
0001
0010
0001
1000
0100
0010
0001
1000
,
0010
0000
1000
0010
0000
0000
0100
0000
0001
0000
0010
0000
0001
0000
1000
0000
,
0100
1000
0100
0000
0010
0000
0001
0000
1000
0000
0010
0000
0100
0000
0001
0000
,
0010
0000
0100
0010
0000
0000
0001
0000
1000
0000
0010
0000
0100
0000
0010
0000
,
1000
0001
0000
1000
0000
0000
0001
0000
0010
0000
0100
0000
1000
0000
0010
0000
,
1000
0001
1000
0001
1000
0000
0000
0000
1000
0000
0001
0000
1000
0000
0000
0000
,
0001
0010
0001
0010
0001
0000
0000
0000
0001
0000
0010
0000
0001
0000
0000
0000
,
0010
0100
0010
0100
0010
0000
0000
0000
0010
0000
0100
0000
0010
0000
0000
0000
,
0100
1000
0100
1000
0100
0000
0000
0000
0100
0000
2000
0000
0000
0000
0000
0000
,
3001
1000
0001
1000
0001
0000
0000
0000
0001
0000
1000
0000
0001
0000
0000
0000
,
1000
0100
1000
0100
1000
0000
0000
0000
1000
0000
0100
0000
1000
0000
0000
0000
,
0100
0010
0100
0010
0100
0000
0000
0000
0100
0000
0010
0000
0100
0000
0000
0000
,
0010
0001
0010
0001
0010
0000
0000
0000
0011
0000
0000
0000
0001
0000
1001
0000
,
0000
1000
0010
0000
0110
0000
0100
0101
,
0000
0000
0000
0000
0011
0000
0000
0110
0000
0000
1100
0000
0000
0000
1001
0000
,
0000
0000
0000
0000
1001
0000
0000
0000
1000
0000
0000
0100
1000
0000
0100
0000
,
0010
0000
0001
0000
1000
0000
0100
0000
0010
0000
0000
0001
0010
0000
0001
0000
,
1000
0000
0100
0000
0010
0000
0001
0000
1000
0000
0000
0010
0100
0000
0001
0000
,
0010
0000
0100
0000
1000
0000
0001
0000
0010
0000
0000
0100
0010
0000
0001
0000
,
1000
0000
0020
0000
0000
0000
0000
0000
0130
0000
0000
0001
0100
0000
0010
0000
,
1000
0000
0100
0000
0010
0000
0100
0000
1000
0000
0000
0001
1000
0000
0001
0000
,
0100
0000
0001
0000
0010
0000
0100
0000
0010
0000
0000
0100
0010
0000
0001
0000
,
1000
0000
0010
0000
0100
0000
0001
0000
0100
0000
0000
0010
0100
0000
0010
0000
,
1000
0100
0010
0001
0200
0000
0000
0000
,
0000
0000
0000
0000
,
0000
0000
0000
0000
,
0000
0000
0000
0000
,
0000
0000
0000
0000
,
0000
0000
0000
0000
,
0000
0000
0000
0000
,
0000
0000
0000
0000
,
0000
0000
0000
0000
,
0000
0000
0000
0000
,
0000
0000
0000
0000
,
0000
0000
0000
0000
,
0000
0000
0000
0000
,
0000
0000
0000
0000
,
0000
0000
0000
0000
,
0000
0000
0000
0000
,
0000
0000
0300
0000
;

//---------------dance-double - Copied from SexyChar----------------
#NOTES:
     dance-double:
     Copied from SexyChar:
     Edit:
     11:
     0.785,0.800,0.259,0.432,0.868,1168.000,63.000,105.000,76.000,8.000:
00000000
00000000
00000000
00000000
,
00000000
00000000
00000000
00000000
,
00000000
00000000
00000000
00000000
,
00000000
00000000
00000000
00000000
,
00000000
00000000
00000000
00000000
00000000
00000000
00000000
00000000
10000000
00010000
10000000
00000000
00010000
00000000
00000000
00000000
01000000
00000000
00000000
00000000
10000000
00000000
00000000
00000000
01000000
00000000
00000000
00000000
00100000
01000000
00100000
00000000
,
00000000
00000000
00000000
00000000
10000000
00000000
00000000
00000000
00010000
10000000
00010000
00000000
10000000
00000000
00000000
00000000
00100000
00000000
00000000
00000000
00010000
00000000
00000000
00000000
00100000
00000000
00000000
00000000
01000000
00100000
01000000
00000000
,
00000000
00000000
00000000
00000000
00010000
00000000
00000000
00000000
10000000
01000000
10000000
00000000
00000000
00000000
00010000
00100000
00010000
00000000
00000000
00000000
10000000
00100000
10000000
00000000
00000000
00000000
00000000
00000000
00010000
01000000
00010000
00000000
,
00000000
00000000
00000000
00000000
00100000
00000000
00000000
00000000
00010000
10000000
00010000
00000000
10000000
00000000
00000000
00000000
01000000
00000000
00000000
00000000
00010000
00000000
00000000
00000000
01000000
00000000
00000000
00000000
00100000
01000000
00100000
00000000
,
01000000
00000000
00000000
00000000
10000000
00000000
00000000
00000000
00010000
01000000
00010000
00000000
01000000
00000000
00000000
00000000
10000000
00000000
00000000
00000000
00010000
00000000
00000000
00000000
00100000
00000000
00000000
00000000
10000000
01000000
10000000
00000000
,
01000000
00000000
00000000
00000000
00100000
00000000
00000000
00000000
00010000
10000000
00010000
00000000
01000000
00000000
00000000
00000000
10000000
00000000
00000000
00000000
01000000
00000000
00000000
00000000
00010000
00000000
00000000
00000000
00100000
01000000
00100000
00000000
,
01000000
00000000
00000000
00000000
10000000
00000000
00000000
00000000
00100000
10000000
00100000
00000000
00000000
00000000
01000000
00010000
01000000
00000000
00000000
00000000
00010000
00100000
00010000
00000000
00000000
00000000
00000000
00000000
10000000
01000000
10000000
00000000
,
00010000
00000000
00000000
00000000
01000000
00000000
00000000
00000000
00010000
00100000
00010000
00000000
10000000
00000000
00000000
00000000
00100000
00000000
00000000
00000000
01000000
00000000
00000000
00000000
00010000
00000000
00000000
00000000
10000000
01000000
10000000
00000000
,
01000000
00000000
00000000
00000000
10000000
00000000
00000000
00000000
00100000
01000000
00100000
00000000
10000000
00000000
00000000
00000000
00010000
00000000
00000000
00000000
01000000
00000000
00000000
00000000
10000000
00000000
00000000
00000000
01000000
00010000
01000000
00000000
,
00010000
00000000
00000000
00000000
00100000
00000000
00000000
00000000
00010000
10000000
00010000
00000000
10000000
00000000
00000000
00000000
01000000
00000000
00000000
00000000
00010000
00000000
00000000
00000000
01000000
00000000
00000000
00000000
00100000
00010000
00100000
00000000
,
01000000
00000000
00000000
00000000
10000000
00000000
00000000
00000000
00100000
01000000
00100000
00000000
00000000
00000000
10000000
00010000
10000000
00000000
00000000
00000000
01000000
00100000
01000000
00000000
00000000
00000000
00000000
00000000
00100000
00010000
00100000
00000000
,
00010000
00000000
00000000
00000000
10000000
00000000
00000000
00000000
00100000
10000000
00100000
00000000
00000000
00000000
00000000
00000000
10000000
00000000
01000000
00000000
00010000
00000000
01000000
00000000
20000000
00000000
00000000
00000000
00000000
00000000
00000000
00000000
,
00100000
30000000
10000000
00010000
01000000
00000000
00100000
10000000
01000000
00000000
00010000
01000000
10000000
00000000
00100000
01000000
,
00010000
00000000
00100000
10000000
00100000
00000000
01000000
10000000
00100000
00000000
01000000
00010000
10000000
00010000
00100000
01000000
,
10000000
00000000
01000000
00100000
01000000
00000000
00100000
00010000
01000000
00000000
10000000
01000000
00010000
00000000
00100000
10000000
,
00010000
00000000
01000000
00100000
00010000
00000000
10000000
00100000
00010000
00000000
00100000
10000000
01000000
00100000
00010000
01000000
,
00100000
00000000
10000000
01000000
10000000
00000000
00010000
00100000
10000000
00000000
00100000
00010000
01000000
00000000
10000000
01000000
,
00100000
00000000
00100000
10000000
00010000
00000000
01000000
00010000
00100000
00000000
01000000
10000000
00100000
01000000
00010000
00100000
,
00010000
00000000
00100000
00010000
01000000
00000000
00010000
01000000
10000000
00000000
01000000
00100000
10000000
00000000
01000000
00010000
,
01000000
00000000
00000000
00000000
10000000
00100000
00010000
00100000
10000000
00000000
00100000
00000000
01010000
00000000
00000000
00000000
,
10000000
00000000
00010000
00000000
00000000
00000000
02000000
00000000
00000000
00000000
10000000
00000000
00100000
00000000
00000000
00000000
00010000
00000000
00000000
00000000
00010000
03000000
02000000
00000000
10000000
00000000
00000000
00000000
10000000
03000000
01000000
00000000
,
00010000
00000000
00000000
00000000
10000000
00000000
01000000
00000000
02000000
00000000
00000000
00000000
00100000
03000000
02000000
00000000
10000000
00000000
00000000
00000000
10000000
03000000
02000000
00000000
00100000
00000000
00000000
00000000
00100000
03000000
01000000
00000000
,
10000000
00000000
00100000
00000000
00000000
00000000
02000000
00000000
00000000
00000000
00100000
00000000
00010000
00000000
00000000
00000000
00100000
00000000
00000000
00000000
00100000
03000000
02000000
00000000
00010000
00000000
00000000
00000000
00010000
03000000
01000000
00000000
,
00100000
00000000
00000000
00000000
10000000
00000000
00000000
00000000
02000000
00000000
00000000
00000000
00010000
03000000
02000000
00000000
00100000
00000000
00000000
00000000
00100000
03000000
02000000
00000000
10000000
00000000
00000000
00000000
10000000
03000000
01000000
00000000
,
00200000
00000000
00000000
00000000
00010000
00300000
00200000
00000000
00000000
00000000
00000000
00000000
10000000
00300000
00200000
00000000
00010000
00000000
00000000
00000000
00010000
00300000
00200000
00000000
10000000
00000000
00000000
00000000
10000000
00300000
00100000
00000000
,
00010000
00000000
10000000
00000000
00200000
00000000
00000000
00000000
00010000
00000000
00000000
00000000
00010000
00300000
00200000
00000000
01000000
00000000
00000000
00000000
01000000
00300000
00200000
00000000
00010000
00000000
00000000
00000000
00010000
00300000
00100000
00000000
,
10000000
00000000
00000000
00000000
01000000
00000000
00200000
00000000
00000000
00000000
00000000
00000000
10000000
00300000
00200000
00000000
01000000
00000000
00000000
00000000
01000000
00300000
00200000
00000000
00010000
00000000
00000000
00000000
00010000
00300000
00100000
00000000
,
01000000
00000000
10000000
00000000
00000000
00000000
00200000
00000000
00000000
00000000
00000000
00000000
00310000
00000000
00200000
00000000
10000000
00000000
00000000
00000000
10000000
00300000
00200000
00000000
00010000
00000000
00000000
00000000
00010000
00300000
00100000
00000000
,
01000000
00010000
10000000
01000000
11000000
00000000
10000000
00100000
01000000
00000000
00100000
10000000
00010000
00000000
00010000
00100000
,
01000000
10000000
01000000
00100000
01100000
00000000
01000000
10000000
00100000
00000000
01000000
00010000
00100000
00000000
01000000
10000000
,
00100000
01000000
00010000
00100000
00110000
00000000
00100000
01000000
10000000
00000000
00010000
01000000
10000000
00000000
01000000
00100000
,
10000000
01000000
10000000
00100000
10100000
00000000
00100000
10000000
00010000
00000000
M22M0000
00000000
00000000
00000000
M00M0000
03300000
,
00100000
10000000
01000000
00100000
01100000
00000000
01000000
10000000
00100000
00000000
00100000
10000000
00010000
00000000
00010000
00100000
,
01000000
10000000
00010000
01000000
01010000
00000000
01000000
00100000
10000000
00000000
10000000
01000000
00010000
00000000
01000000
10000000
,
00100000
01000000
00010000
10000000
10010000
00000000
10000000
01000000
00100000
00000000
00100000
01000000
10000000
00000000
01000000
10000000
,
00100000
00000000
00000000
00000000
00000000
00000000
00000000
00000000
00000000
00000000
00000000
00000000
01000000
00000000
00000000
00000000
00000000
00000000
00000000
00000000
00000000
00000000
00000000
00000000
00010000
00000000
00000000
00000000
00000000
00000000
00000000
00000000
00000000
00000000
00000000
00000000
00100000
00000000
00000000
00000000
00000000
00000000
00000000
00000000
00000000
00000000
00000000
00000000
00220000
00000000
00000000
00330000
00000000
00000000
00000000
00000000
00000000
00000000
00000000
00000000
00000000
00000000
00000000
00000000
00MM0000
00000000
00000000
00000000
00000000
00000000
00000000
00000000
00000000
00000000
00000000
00000000
00000000
00000000
00000000
00000000
00000000
00000000
00000000
00000000
00000000
00000000
00000000
00000000
00000000
00000000
00000000
00000000
00000000
00000000
00000000
00000000
00100000
00000000
00000000
00000000
00000000
00000000
00010000
00000000
00000000
00000000
00000000
00000000
00100000
00000000
00000000
00000000
00000000
00000000
00000000
00000000
00000000
00000000
00000000
00000000
01000000
00000000
00000000
00000000
00000000
00000000
00000000
00000000
00000000
00000000
00000000
00000000
10000000
00000000
00000000
00000000
00000000
00000000
00000000
00000000
00000000
00000000
00000000
00000000
00100000
00000000
00000000
00000000
00000000
00000000
00000000
00000000
00000000
00000000
00000000
00000000
00000000
00000000
00000000
00000000
00000000
00000000
00000000
00000000
00000000
00000000
00000000
00000000
01000000
00000000
00000000
00000000
00000000
00000000
00000000
00000000
00000000
00000000
00000000
00000000
00010000
00000000
00000000
00000000
00000000
00000000
00000000
00000000
00000000
00000000
00000000
00000000
,
10000000
00000000
00000000
00000000
01000000
00100000
02000000
00000000
00100000
00000000
00000000
00000000
10000000
00000000
03000000
00000000
00010000
10000000
00010000
00000000
10000000
00000000
01000000
00000000
00100000
00000000
00000000
00000000
10000000
00000000
00100000
00000000
,
00010000
00000000
00000000
00000000
10000000
00100000
20000000
00000000
00010000
00000000
00000000
00000000
01000000
00000000
30000000
00000000
00100000
01000000
00100000
00000000
00000000
00000000
01000000
10000000
01000000
00000000
00000000
00000000
10000000
00010000
10000000
00000000
,
00000000
00000000
00000000
00000000
00010000
00100000
00020000
00000000
10000000
00000000
00000000
00000000
01000000
00000000
00030000
00000000
00100000
01000000
00100000
00000000
01000000
00000000
00010000
00000000
00100000
00000000
00000000
00000000
10000000
00000000
00100000
00000000
,
00010000
00000000
00000000
00000000
01000000
00010000
02000000
00000000
00010000
00000000
00000000
00000000
00100000
00000000
03000000
00000000
10000000
01000000
10000000
00000000
01000000
00000000
10000000
00000000
00100000
00000000
00000000
00000000
00100000
00000000
01000000
00000000
,
00010000
00000000
00000000
00000000
00100000
01000000
00200000
00000000
00010000
00000000
00000000
00000000
01000000
00000000
00300000
00000000
00100000
00010000
00100000
00000000
00010000
00000000
10000000
00000000
00100000
00000000
00000000
00000000
00010000
00000000
00100000
00000000
,
01000000
00000000
00000000
00000000
00010000
00100000
00020000
00000000
10000000
00000000
00000000
00000000
01000000
00000000
00030000
00000000
00100000
10000000
00100000
00000000
00000000
00000000
10000000
00010000
10000000
00000000
00000000
00000000
00010000
01000000
00010000
00000000
,
00000000
00000000
00000000
00000000
00000000
00000000
00000000
00000000
00000000
00000000
00000000
00000000
00000000
00000000
00000000
00000000
00000000
00000000
00000000
00000000
00000000
00000000
00000000
00000000
01000000
00000000
00000000
00000000
00000000
00000000
00100000
00000000
00000000
00000000
00000000
00000000
01000000
00000000
00000000
00000000
00000000
00000000
00000000
00000000
00000000
00000000
00000000
00000000
M00M0000
00000000
00000000
00000000
00000000
00000000
00000000
00000000
00000000
00000000
00000000
00000000
0M000000
00000000
00000000
00000000
00000000
00000000
00000000
00000000
00000000
00000000
00000000
00000000
00M00000
00000000
00000000
00000000
00000000
00000000
00000000
00000000
M00M0000
00000000
00000000
00000000
00000000
00000000
00000000
00000000
00000000
00000000
00000000
00000000
00000000
00000000
00000000
00000000
00010000
00000000
00000000
00000000
00000000
00000000
10000000
00000000
00000000
00000000
00000000
00000000
00010000
00000000
00000000
00000000
00000000
00000000
00000000
00000000
00000000
00000000
00000000
00000000
00000000
00000000
00000000
00000000
00000000
00000000
00000000
00000000
00000000
00000000
00000000
00000000
00000000
00000000
00000000
00000000
00000000
00000000
00000000
00000000
00000000
00000000
00000000
00000000
00010000
00000000
00000000
00000000
00000000
00000000
00000000
00000000
00000000
00000000
00000000
00000000
00100000
00000000
00000000
00000000
00000000
00000000
00000000
00000000
00000000
00000000
00000000
00000000
10000000
00000000
00000000
00000000
00000000
00000000
00000000
00000000
00000000
00000000
00000000
00000000
00200000
00000000
00000000
00000000
00000000
00000000
00000000
00000000
00000000
00000000
00000000
00000000
,
00020000
00000000
00000000
00330000
00000000
00000000
00000000
00000000
00000000
00000000
00000000
00000000
00000000
00000000
00000000
00000000
00000000
00000000
00000000
00000000
00000000
00000000
00000000
00000000
00000000
00000000
00000000
00000000
00000000
00000000
00000000
00000000
MMMM0000
00000000
00000000
00000000
00000000
00000000
00000000
00000000
00000000
00000000
00000000
00000000
00000000
00000000
00000000
00000000
1MM10000
00000000
00000000
00000000
00000000
00000000
00000000
00000000
00000000
00000000
00000000
00000000
00000000
00000000
00000000
00000000
00000000
00000000
00000000
00000000
00000000
00000000
00000000
00000000
10000000
00000000
00000000
00000000
00000000
00000000
00000000
00000000
00000000
00000000
00000000
00000000
00000000
00000000
00000000
00000000
00000000
00000000
00000000
00000000
00000000
00000000
00000000
00000000
00100000
00000000
00000000
00000000
00000000
00000000
00000000
00000000
00000000
00000000
00000000
00000000
00000000
00000000
00000000
00000000
00000000
00000000
00000000
00000000
00000000
00000000
00000000
00000000
01000000
00000000
00000000
00000000
00000000
00000000
00000000
00000000
00000000
00000000
00000000
00000000
00000000
00000000
00000000
00000000
00000000
00000000
00000000
00000000
00000000
00000000
00000000
00000000
00010000
00000000
00000000
00000000
00000000
00000000
00000000
00000000
00000000
00000000
00000000
00000000
00000000
00000000
00000000
00000000
00000000
00000000
00000000
00000000
00000000
00000000
00000000
00000000
MM110000
00000000
00000000
00000000
00000000
00000000
00000000
00000000
00000000
00000000
00000000
00000000
00000000
00000000
00000000
00000000
00000000
00000000
00000000
00000000
00000000
00000000
00000000
00000000
,
00100000
01000000
11MM0000
10000000
00010000
01000000
10000000
11MM0000
,
01000000
00000000
00100000
00000000
1M1M0000
00000000
00100000
M1M10000
00000000
00100000
11MM0000
00000000
01000000
00000000
M11M0000
00000000
,
00100000
00010000
1MM10000
10000000
00100000
00010000
00100000
M11M0000
,
01000000
00010000
MM110000
00100000
10000000
00100000
01000000
11MM0000
,
10000000
00010000
M1M10000
01000000
10000000
00010000
00100000
M11M0000
,
01000000
00000000
00010000
00000000
MM110000
00000000
00100000
11MM0000
00000000
00100000
M1M10000
00000000
00010000
00000000
1MM10000
00000000
,
M00M0000
00000000
00100000
00000000
1MM10000
00000000
00000000
00000000
10000000
01000000
00010000
01000000
10000000
00000000
01000000
00000000
,
00110000
00000000
00000000
00000000
00000000
00000000
00000000
00000000
00010000
00000000
10000000
00000000
00000000
00000000
00200000
00000000
00000000
00000000
00010000
00000000
01000000
00000000
00000000
00000000
10000000
00000000
00000000
00000000
10000000
00300000
00200000
00000000
,
00010000
00000000
00000000
00000000
00010000
00300000
00100000
00000000
10000000
00000000
00000000
00000000
00010000
00000000
00100000
00000000
00200000
00000000
00000000
00000000
01000000
00300000
00200000
00000000
00010000
00000000
00000000
00000000
00010000
00300000
00200000
00000000
,
01000000
00000000
00000000
00000000
01000000
00300000
00100000
00000000
00010000
00000000
01000000
00000000
00000000
00000000
00200000
00000000
00000000
00000000
01000000
00000000
10000000
00000000
00000000
00000000
01000000
00000000
00000000
00000000
01000000
00300000
00200000
00000000
,
10000000
00000000
00000000
00000000
10000000
00300000
00100000
00000000
01000000
00000000
00000000
00000000
00010000
00000000
00000000
00000000
00200000
00000000
00000000
00000000
10000000
00300000
00200000
00000000
01000000
00000000
00000000
00000000
01000000
00300000
00200000
00000000
,
00010000
00000000
00000000
00000000
00010000
00300000
00100000
00000000
02000000
00000000
00000000
00000000
10000000
03000000
02000000
00000000
00000000
00000000
00000000
00000000
00010000
03000000
02000000
00000000
10000000
00000000
00000000
00000000
10000000
03000000
02000000
00000000
,
00010000
00000000
00000000
00000000
00010000
03000000
01000000
00000000
10000000
00000000
00010000
00000000
02000000
00000000
00000000
00000000
10000000
00000000
00000000
00000000
10000000
03000000
02000000
00000000
00100000
00000000
00000000
00000000
00100000
03000000
02000000
00000000
,
10000000
00000000
00000000
00000000
10000000
03000000
01000000
00000000
00010000
00000000
00000000
00000000
00100000
00000000
02000000
00000000
00000000
00000000
00000000
00000000
00010000
03000000
02000000
00000000
00100000
00000000
00000000
00000000
00100000
03000000
02000000
00000000
,
10000000
00000000
00000000
00000000
10000000
03000000
01000000
00000000
00100000
00000000
00010000
00000000
00000000
00000000
02000000
00000000
00000000
00000000
00000000
00000000
13000000
00000000
02000000
00000000
00010000
00000000
00000000
00000000
00010000
03000000
02000000
00000000
,
10000000
00000000
00000000
00000000
10000000
03000000
01000000
00000000
00100000
00000000
10000000
00000000
00010000
00000000
00100000
00000000
00110000
00000000
00000000
00000000
00010000
00000000
01000000
00000000
00100000
00000000
00000000
00000000
01000000
00000000
00010000
00000000
,
10000000
00000000
10000000
01000000
00100000
00010000
00100000
01000000
01100000
00000000
00100000
00010000
01000000
00000000
00100000
10000000
,
01000000
00000000
00100000
00010000
01000000
00100000
10000000
01000000
11000000
00000000
01000000
00100000
00010000
00000000
10000000
00100000
,
00010000
00000000
00100000
01000000
00010000
00100000
00010000
01000000
01010000
00000000
01000000
00010000
10000000
00000000
M22M0000
00000000
,
00000000
00000000
M00M0000
03300000
01000000
00010000
00100000
01000000
01100000
00000000
00100000
00010000
01000000
00000000
01000000
00010000
,
10000000
00000000
10000000
01000000
00100000
00010000
10000000
00100000
10100000
00000000
00100000
01000000
00010000
00000000
00010000
00100000
,
10000000
00000000
00100000
00010000
01000000
00100000
10000000
00010000
10010000
00000000
00010000
00100000
01000000
00000000
01000000
00100000
,
00010000
00000000
00100000
00010000
01000000
00100000
10000000
01000000
21000000
00000000
00000000
00000000
00020000
00000000
00000000
00000000
,
00100000
30000000
02000000
00000000
10000000
00030000
00200000
00000000
,
00010000
03000000
20000000
00000000
00010000
00300000
02000000
00000000
,
00100000
30000000
00200000
00000000
10000000
03000000
00020000
00000000
,
01000000
00000000
00000000
00000000
00000000
00000000
00000000
00000000
00300000
00000000
00000000
00000000
00000000
00000000
00000000
00000000
10030000
00000000
00000000
00000000
00000000
00000000
00000000
00000000
10010000
00000000
00000000
00000000
00000000
00000000
00000000
00000000
00000000
00000000
00000000
00000000
00000000
00000000
00000000
00000000
02200000
00000000
00000000
00000000
00000000
00000000
00000000
00000000
00000000
00000000
00000000
00000000
00000000
00000000
00000000
00000000
10010000
03300000
00000000
00000000
00000000
00000000
00000000
00000000
,
00010000
01000000
00010000
00000000
01000000
00000000
00000000
00000000
10000000
00000000
00000000
00000000
00010000
00000000
00000000
00000000
00100000
00000000
00000000
00000000
10000000
01000000
10000000
00000000
01000000
00000000
00000000
00000000
00100000
00000000
00000000
00000000
,
00010000
10000000
00010000
00000000
01000000
00000000
00000000
00000000
10000000
00000000
00000000
00000000
01000000
00000000
00000000
00000000
00010000
00000000
00000000
00000000
00100000
01000000
00100000
00000000
01000000
00000000
00000000
00000000
10000000
00000000
00000000
00000000
,
00100000
10000000
00100000
00000000
00000000
00000000
01000000
00010000
01000000
00000000
00000000
00000000
00010000
00100000
00010000
00000000
00000000
00000000
00000000
00000000
10000000
01000000
10000000
00000000
00010000
00000000
00000000
00000000
01000000
00000000
00000000
00000000
,
00010000
00100000
00010000
00000000
10000000
00000000
00000000
00000000
00100000
00000000
00000000
00000000
01000000
00000000
00000000
00000000
00010000
00000000
00000000
00000000
10000000
01000000
10000000
00000000
01000000
00000000
00000000
00000000
10000000
00000000
00000000
00000000
,
00100000
01000000
00100000
00000000
10000000
00000000
00000000
00000000
00010000
00000000
00000000
00000000
01000000
00000000
00000000
00000000
10000000
00000000
00000000
00000000
01000000
00010000
01000000
00000000
00010000
00000000
00000000
00000000
00100000
00000000
00000000
00000000
,
00010000
10000000
00010000
00000000
10000000
00000000
00000000
00000000
01000000
00000000
00000000
00000000
00010000
00000000
00000000
00000000
01000000
00000000
00000000
00000000
00100000
00010000
00100000
00000000
01000000
00000000
00000000
00000000
10000000
00000000
00000000
00000000
,
00100000
01000000
00100000
00000000
00000000
00000000
10000000
00010000
10000000
00000000
00000000
00000000
01000000
00100000
01000000
00000000
00000000
00000000
00000000
00000000
00100000
00010000
00100000
00000000
00010000
00000000
00000000
00000000
10000000
00000000
00000000
00000000
,
00100000
10000000
00100000
00000000
00000000
00000000
00000000
00000000
10000000
00000000
01000000
00000000
00010000
00000000
01000000
00000000
10000000
00000000
00000000
00000000
00100000
00000000
00000000
00000000
01010000
00000000
00000000
00000000
00000000
00000000
00000000
00000000
,
10000000
00000000
00010000
00000000
00000000
00000000
02000000
00000000
00000000
00000000
10000000
00000000
00100000
00000000
00000000
00000000
00010000
00000000
00000000
00000000
00010000
03000000
02000000
00000000
10000000
00000000
00000000
00000000
10000000
03000000
01000000
00000000
,
00010000
00000000
00000000
00000000
10000000
00000000
01000000
00000000
02000000
00000000
00000000
00000000
00100000
03000000
02000000
00000000
10000000
00000000
00000000
00000000
10000000
03000000
02000000
00000000
00100000
00000000
00000000
00000000
00100000
03000000
01000000
00000000
,
10000000
00000000
00100000
00000000
00000000
00000000
02000000
00000000
00000000
00000000
00100000
00000000
00010000
00000000
00000000
00000000
00100000
00000000
00000000
00000000
00100000
03000000
02000000
00000000
00010000
00000000
00000000
00000000
00010000
03000000
01000000
00000000
,
00100000
00000000
00000000
00000000
10000000
00000000
00000000
00000000
02000000
00000000
00000000
00000000
00010000
03000000
02000000
00000000
00100000
00000000
00000000
00000000
00100000
03000000
02000000
00000000
10000000
00000000
00000000
00000000
10000000
03000000
01000000
00000000
,
00200000
00000000
00000000
00000000
00010000
00300000
00200000
00000000
00000000
00000000
00000000
00000000
10000000
00300000
00200000
00000000
00010000
00000000
00000000
00000000
00010000
00300000
00200000
00000000
10000000
00000000
00000000
00000000
10000000
00300000
00100000
00000000
,
00010000
00000000
10000000
00000000
00200000
00000000
00000000
00000000
00010000
00000000
00000000
00000000
00010000
00300000
00200000
00000000
01000000
00000000
00000000
00000000
01000000
00300000
00200000
00000000
00010000
00000000
00000000
00000000
00010000
00300000
00100000
00000000
,
10000000
00000000
00000000
00000000
01000000
00000000
00200000
00000000
00000000
00000000
00000000
00000000
10000000
00300000
00200000
00000000
01000000
00000000
00000000
00000000
01000000
00300000
00200000
00000000
00010000
00000000
00000000
00000000
00010000
00300000
00100000
00000000
,
01000000
00000000
10000000
00000000
00000000
00000000
00200000
00000000
00000000
00000000
00000000
00000000
00310000
00000000
00200000
00000000
10000000
00000000
00000000
00000000
10000000
00300000
00200000
00000000
00010000
00000000
00000000
00000000
00010000
00300000
00100000
00000000
,
01000000
00010000
10000000
01000000
11000000
00000000
10000000
00100000
01000000
00000000
00100000
10000000
00010000
00000000
00010000
00100000
,
01000000
10000000
01000000
00100000
01100000
00000000
01000000
10000000
00100000
00000000
01000000
00010000
00100000
00000000
01000000
10000000
,
00100000
01000000
00010000
00100000
00110000
00000000
00100000
01000000
10000000
00000000
00010000
01000000
10000000
00000000
01000000
00100000
,
10000000
01000000
10000000
00100000
10100000
00000000
00100000
10000000
00010000
00000000
M22M0000
00000000
00000000
00000000
M00M0000
03300000
,
00100000
10000000
01000000
00100000
01100000
00000000
01000000
10000000
00100000
00000000
00100000
10000000
00010000
00000000
00010000
00100000
,
01000000
10000000
00010000
01000000
01010000
00000000
01000000
00100000
10000000
00000000
10000000
01000000
00010000
00000000
01000000
10000000
,
00100000
01000000
00010000
10000000
10010000
00000000
10000000
01000000
00100000
00000000
00100000
01000000
10000000
00000000
01000000
10000000
,
00100000
00000000
00000000
00000000
01000000
00000000
00000000
00000000
00010000
00000000
00000000
00000000
00100000
00000000
00000000
00000000
00220000
00330000
00000000
00000000
00000000
00000000
00000000
00MM0000
00000000
00000000
00000000
00000000
00000000
00000000
00000000
00000000
00010000
00000000
00000000
00000000
00000000
00000000
00000000
00000000
01000000
00000000
00000000
00000000
00000000
00000000
00000000
00000000
00100000
00000000
00000000
00000000
00000000
00000000
00000000
00000000
10000000
00000000
00010000
00000000
10000000
00000000
00000000
00000000
,
00000000
00000000
00000000
00000000
00000000
00000000
00000000
00000000
M00M0000
00000000
00000000
00000000
00000000
00000000
00000000
00000000
00000000
00000000
00000000
00000000
00000000
00000000
00000000
00000000
00020000
00000000
00000000
00000000
00000000
00000000
00000000
00000000
00000000
00000000
00000000
00000000
00000000
00000000
00000000
00000000
00000000
00000000
00000000
00000000
00000000
00000000
00000000
00000000
00100000
00000000
00000000
00000000
00000000
00000000
00000000
00000000
00000000
00000000
00000000
00000000
00000000
00000000
00000000
00000000
00000000
00000000
00000000
00000000
00000000
00000000
00000000
00000000
00000000
00000000
00000000
00000000
00000000
00000000
00000000
00000000
00000000
00000000
00000000
00000000
00000000
00000000
00000000
00000000
00000000
00000000
00000000
00000000
00000000
00000000
00000000
00000000
00100000
00000000
00000000
00000000
00000000
00000000
00000000
00000000
00000000
00000000
00000000
00000000
00030000
00000000
00000000
00000000
00000000
00000000
00000000
00000000
00000000
00000000
00000000
00000000
00010000
00000000
00000000
00000000
00000000
00000000
00000000
00000000
00000000
00000000
00000000
00000000
00000000
00000000
00000000
00000000
00000000
00000000
00000000
00000000
00000000
00000000
00000000
00000000
10000000
00000000
00000000
00000000
00000000
00000000
00000000
00000000
00000000
00000000
00000000
00000000
00000000
00000000
00000000
00000000
00000000
00000000
00000000
00000000
00000000
00000000
00000000
00000000
00100000
00000000
00000000
00000000
00000000
00000000
01000000
00000000
00000000
00000000
00000000
00000000
00100000
00000000
00000000
00000000
00000000
00000000
00000000
00000000
00000000
00000000
00000000
00000000
,
00000000
00000000
00000000
00000000
00000000
00000000
00000000
00000000
10000000
00100000
10000000
00000000
00000000
00000000
00010000
01000000
00010000
00000000
00000000
00000000
10000000
01000000
10000000
00000000
00000000
00000000
00000000
00000000
00010000
00100000
00010000
00000000
,
00000000
00000000
00100000
00000000
22000000
00000000
33000000
00000000
MM110000
00000000
00010000
00100000
10000000
00000000
00100000
00000000
,
00010000
00000000
01000000
00000000
00100000
00000000
10000000
00000000
01010000
00000000
01000000
00100000
10000000
00000000
01000000
00000000
,
00100000
00000000
01000000
00000000
10000000
00000000
00010000
00000000
01100000
00000000
00100000
10000000
01000000
00000000
00100000
00000000
,
01000000
00000000
10000000
00000000
00010000
00000000
01000000
00000000
10100000
00000000
00100000
10000000
00010000
00000000
00100000
00000000
,
01000000
00000000
00000000
00000000
2MM20000
00000000
00000000
00000000
00000000
00000000
00000000
00000000
0MM00000
00000000
00000000
30030000
M11M0000
00000000
00000000
00000000
01000000
00000000
00010000
00000000
00100000
00000000
00000000
00000000
10000000
00000000
00000000
00000000
,
00010000
00000000
01000000
00000000
10000000
00000000
00100000
00000000
01010000
00000000
01000000
10000000
01000000
00000000
00100000
00000000
,
10000000
00000000
01000000
00000000
00100000
00000000
00010000
00000000
11000000
00000000
10000000
01000000
00010000
00000000
01000000
00000000
,
00100000
00000000
00010000
00000000
01000000
00000000
00100000
00000000
10010000
00000000
00010000
01000000
10000000
00000000
01000000
00000000
,
00100000
01000000
00010000
00100000
22000000
00000000
00000000
00000000
,
00000000
00000000
00000000
00000000
,
00000000
00000000
00000000
00000000
,
00000000
00000000
00000000
00000000
,
00000000
00000000
00000000
00000000
,
00000000
00000000
00000000
00000000
,
00000000
00000000
00000000
00000000
,
00000000
00000000
00000000
00000000
,
00000000
00000000
00000000
00000000
,
00000000
00000000
00000000
00000000
,
00000000
00000000
00000000
00000000
,
00000000
00000000
00000000
00000000
,
00000000
00000000
00000000
00000000
,
00000000
00000000
00000000
00000000
,
00000000
00000000
00000000
00000000
,
00000000
00000000
00000000
00000000
,
00000000
00000000
33000000
00000000
;
