#TITLE:DATA DRAIN;
#SUBTITLE:;
#ARTIST:DJ Sharpnel;
#TITLETRANSLIT:;
#SUBTITLETRANSLIT:;
#ARTISTTRANSLIT:;
#CREDIT:;
#BANNER:datadrain-bn.png;
#BACKGROUND:datadrain-bg(1).png;
#LYRICSPATH:;
#CDTITLE:!exige.png;
#MUSIC:07-dj_sharpnel-data_drain.mp3;
#OFFSET:-0.423;
#SAMPLESTART:32.815;
#SAMPLELENGTH:11.700;
#SELECTABLE:YES;
#BPMS:0.000=92.502,2.000=100.001,5.000=105.001,7.000=110.001,8.000=115.001,10.000=120.001,11.000=125.001,13.000=130.001,15.000=135.001,17.000=140.001,19.000=150.001,23.000=160.001,25.000=165.001,27.000=170.001,29.000=175.001,30.000=180.001,31.000=185.001,138.000=190.001,139.000=200.001,142.000=205.001,146.000=210.001,147.000=215.001,151.000=220.001,152.000=230.001,157.000=240.001,162.000=250.001,166.000=255.001,168.000=260.001,171.000=270.001,175.000=275.002,176.000=280.002,180.000=290.002,184.000=300.002,191.000=310.002,193.000=320.002,198.000=330.003,203.000=340.003,207.000=350.004,213.000=360.004,216.000=370.004,219.000=380.004,223.000=385.005,233.000=395.005,235.000=410.005,236.000=415.006,237.000=420.006,238.000=425.006,246.000=430.006,249.000=435.007,253.000=450.007,257.000=460.007,261.000=465.007,262.000=470.007,265.000=475.007,269.000=490.008,275.000=500.008,281.000=510.008,283.000=520.008,293.000=535.008,297.000=540.009,301.000=550.009,305.000=560.009,309.000=580.011,321.000=600.013,325.000=610.013,329.000=620.013,333.000=635.014,337.000=640.014,345.000=660.014,361.000=670.014,369.000=680.014,384.500=92.500;
#STOPS:33.000=1.946
,384.500=2.270
;
#BGCHANGES:;
// cache tags:
#FIRSTBEAT:1.000;
#LASTBEAT:384.500;
#SONGFILENAME:Songs/hard shit/DATA DRAIN/DATA DRAIN.sm;
#HASMUSIC:1;
#HASBANNER:1;
#MUSICLENGTH:88.581;
// end cache tags

//---------------dance-single - ----------------
#NOTES:
     dance-single:
     :
     Challenge:
     20:
     1.000,1.000,0.000,0.034,1.000,1002.000,0.000,3.000,0.000,0.000:
0000
0000
0000
0000
1000
0010
1000
0000
0001
0100
0001
0000
0010
0000
1000
0000
,
0100
0010
0100
0000
0001
0010
0001
0000
1000
0100
1000
0000
0010
0000
0001
0000
,
1000
0000
0100
0000
0010
0100
0010
0000
1000
0001
1000
0000
0010
0000
0100
0000
,
0001
1000
0001
0000
0100
0010
0100
0000
1000
0001
1000
0000
0010
0000
0001
0000
,
2000
0000
0000
0000
3100
0010
0100
0000
0001
1000
0001
0000
0100
0000
0010
0000
,
1000
0100
1000
0000
0001
0010
0001
0000
0100
0010
0100
0000
1000
0000
0001
0000
,
0100
0000
0010
0000
1000
0001
1000
0000
0010
0100
0010
0000
1000
0000
0001
0000
,
0100
0010
0100
0000
1000
0001
1000
0000
0010
0100
0010
0000
1000
0000
0010
0000
,
0200
0000
0000
0000
0310
0000
0000
0000
0000
0000
0000
0000
1000
0100
0010
0000
,
0001
0010
0100
0000
0001
0000
1000
0000
0010
0100
0010
0000
1000
0001
1000
0000
,
0100
0010
0001
0000
1000
0000
0010
0000
0100
0000
0001
0000
1000
0001
1000
0000
,
0010
0100
0010
0000
1000
0000
0001
0000
1000
0100
0010
0000
0001
0010
0100
0000
,
1000
0010
0100
0000
0001
0000
1000
0000
0020
0000
0000
0000
0130
0001
0100
0000
,
1000
0100
0010
0000
0001
0000
1000
0000
0010
0100
0010
0000
1000
0001
1000
0000
,
0001
0010
0100
0000
1000
0000
0010
0000
0100
0000
0001
0000
1000
0010
0100
0000
,
1000
0100
0010
0000
0001
0000
1000
0000
0010
0100
0010
0000
1000
0010
0100
0000
,
0001
0010
0100
0000
1000
0000
0001
0000
0100
0000
0010
0000
1000
0001
1000
0000
,
0010
0100
1000
0000
0010
0000
1000
0000
0100
0010
0100
0000
0001
1000
0001
0000
,
0100
0010
0001
0000
1000
0000
0010
0000
0100
0000
0001
0000
1000
0100
0010
0000
,
0001
0010
0100
0000
1000
0000
0010
0000
0100
0010
0100
0000
0001
1000
0001
0000
,
0100
0010
0100
0000
1000
0000
0001
0000
0010
0000
1000
0000
0100
0010
0100
0000
,
1000
0100
0010
0000
0100
0000
0001
0000
0010
0100
0010
0000
1000
0001
1000
0000
,
0100
0010
0001
0000
1000
0000
0010
0000
0100
0000
1000
0000
0001
0010
0100
0000
,
1000
0100
0010
0000
0100
0000
0001
0000
0010
0100
0010
0000
0001
0010
0100
0000
,
1000
0100
0010
0000
0001
0000
1000
0000
0010
0000
0100
0000
0001
1000
0010
0000
,
1000
0001
0100
0000
0010
0000
1000
0000
0100
0001
0100
0000
0010
0100
0010
0000
,
1000
0100
0010
0000
1000
0000
0001
0000
0010
0000
1000
0000
0100
0010
0001
0000
,
0010
0100
1000
0000
0001
0000
0100
0000
0010
0100
0010
0000
1000
0001
1000
0000
,
0100
0010
0100
0000
0001
0000
1000
0000
0010
0000
1000
0000
0100
0010
0100
0000
,
1000
0100
0010
0000
0001
0000
1000
0000
0010
0100
0010
0000
1000
0001
1000
0000
,
0100
0010
0001
0000
1000
0000
0010
0000
0100
0000
0010
0000
0001
1000
0001
0000
,
0100
0010
0001
0000
1000
0000
0010
0000
0100
0010
0100
0000
1000
0100
0010
0000
,
0001
0010
0100
0000
1000
0000
0010
0000
0100
0000
0010
0000
1000
0001
1000
0000
,
0100
0010
0100
0000
0001
0000
1000
0000
0100
0010
0100
0000
0001
0010
0100
0000
,
1000
0100
0010
0000
1000
0000
0001
0000
0100
0000
0010
0000
1000
0010
1000
0000
,
0001
0100
0001
0000
0010
0000
1000
0000
0100
0010
0100
0000
0001
0010
0100
0000
,
1000
0100
0010
0000
1000
0000
0001
0000
0100
0000
0010
0000
1000
0100
0010
0000
,
0001
0010
0100
0000
1000
0000
0010
0000
0100
0010
0100
0000
0001
0010
0100
0000
,
1000
0100
0010
0000
0001
0000
1000
0000
0010
0000
0100
0000
1000
0001
1000
0000
,
0100
0010
0001
0000
0010
0000
1000
0000
0010
0100
0010
0000
1000
0100
0010
0000
,
0001
0010
0100
0000
1000
0000
0001
0000
0100
0000
1000
0000
0010
0100
0010
0000
,
1000
0001
1000
0000
0010
0000
0100
0000
0001
0100
0001
0000
1000
0100
0010
0000
,
0001
0010
0100
0000
1000
0000
0010
0000
0100
0000
0001
0000
1000
0010
1000
0000
,
0100
0010
0001
0000
1000
0000
0001
0000
0010
0100
1000
0000
0100
0001
0100
0000
,
0010
1000
0010
0000
0100
0000
0001
0000
0010
0000
0100
0000
1000
0001
1000
0000
,
0100
0010
0100
0000
0001
0000
0100
0000
0010
0100
1000
0000
0100
0010
0001
0000
,
0100
0010
0100
0000
1000
0000
0001
0000
0100
0000
0010
0000
1000
0001
1000
0000
,
0100
0010
0100
0000
0001
0000
1000
0000
0100
0010
0001
0000
1000
0010
1000
0000
,
0100
0010
0100
0000
0001
0000
1000
0000
0010
0000
0100
0000
1000
0001
1000
0000
,
0100
0010
0001
0000
1000
0000
0010
0000
0100
0001
0100
0000
1000
0010
1000
0000
,
0001
0100
0001
0000
1000
0000
0010
0000
0100
0000
1000
0000
0001
0010
0001
0000
,
1000
0100
0010
0000
1000
0000
0001
0000
0010
0100
0010
0000
1000
0100
0010
0000
,
0001
0010
0100
0000
1000
0000
0001
0000
0100
0000
0010
0000
1000
0001
1000
0000
,
0010
0100
0010
0000
1000
0000
0001
0000
0100
0010
0100
0000
1000
0010
1000
0000
,
0100
0010
0001
0000
1000
0000
0010
0000
0100
0000
0010
0000
0001
0100
0001
0000
,
0010
0100
1000
0000
0001
0000
0100
0000
0010
0100
0010
0000
1000
0100
0010
0000
,
0001
0010
0100
0000
1000
0000
0001
0000
0100
0000
0010
0000
1000
0001
1000
0000
,
0100
0010
0100
0000
0001
0000
1000
0000
0010
0100
0010
0000
1000
0100
0010
0000
,
0001
0010
0100
0000
1000
0000
0001
0000
0100
0000
0010
0000
1000
0010
1000
0000
,
0100
0010
0001
0000
1000
0000
0010
0000
0100
0010
0100
0000
1000
0100
0010
0000
,
0001
0010
0100
0000
1000
0000
0001
0000
0100
0000
0010
0000
0001
0010
0001
0000
,
0100
0010
0100
0000
1000
0000
0001
0000
1000
0100
0010
0000
0001
0010
0100
0000
,
1000
0100
0010
0000
0001
0000
1000
0000
0010
0000
0100
0000
0001
0010
0001
0000
,
1000
0100
0010
0000
0001
0000
1000
0000
0100
0010
0100
0000
0001
1000
0001
0000
,
0100
0010
0001
0000
1000
0000
0010
0000
0100
0000
0001
0000
1000
0010
1000
0000
,
0100
0010
0100
0000
0001
0000
1000
0000
0100
0010
0001
0000
0010
0100
1000
0000
,
0001
0100
0001
0000
1000
0000
0010
0000
0100
0000
0010
0000
0001
0010
0100
0000
,
1000
0100
0010
0000
0001
0000
1000
0000
0010
0100
0010
0000
1000
0001
1000
0000
,
0100
0010
0001
0000
0010
0000
1000
0000
0100
0000
0001
0000
1000
0010
1000
0000
,
0100
0010
0001
0000
1000
0000
0100
0000
0001
1000
0001
0000
0100
0010
0100
0000
,
0001
1000
0001
0000
0100
0000
0010
0000
1000
0000
0001
0000
0100
0010
0100
0000
,
1000
0100
0010
0000
0001
0000
1000
0000
0010
0100
0010
0000
1000
0001
1000
0000
,
0100
0010
0001
0000
1000
0000
0010
0000
0100
0000
0010
0000
0001
0100
0001
0000
,
0100
0010
0100
0000
1000
0000
0001
0000
0100
0010
0001
0000
1000
0010
1000
0000
,
0001
0010
0100
0000
1000
0000
0001
0000
0100
0000
0010
0000
1000
0001
1000
0000
,
0100
0010
0100
0000
0001
0000
1000
0000
0010
0100
0010
0000
1000
0100
0010
0000
,
0001
0010
0100
0000
1000
0000
0010
0000
0100
0000
0001
0000
1000
0010
1000
0000
,
0100
0010
0100
0000
0001
0000
1000
0000
0010
0100
0010
0000
1000
0100
0010
0000
,
0001
0010
0100
0000
0010
0000
1000
0000
0001
0000
0100
0000
0010
0100
0010
0000
,
1000
0100
1000
0000
0010
0000
0100
0000
0001
0100
0001
0000
1000
0010
1000
0000
,
0100
0010
0100
0000
0001
0000
1000
0000
0010
0000
0100
0000
0001
1000
0001
0000
,
0100
0010
0100
0000
1000
0000
0001
0000
0100
0010
0100
0000
1000
0100
0010
0000
,
0001
0010
0100
0000
1000
0000
0010
0000
0100
0000
0001
0000
1000
0010
1000
0000
,
0100
0010
0001
0000
1000
0000
0100
0000
0001
1000
0001
0000
0100
0010
0100
0000
,
0001
0010
0100
0000
1000
0000
0001
0000
0100
0000
0010
0000
1000
0001
1000
0000
,
0100
0010
0100
0000
0001
0000
1000
0000
0100
0010
0100
0000
0001
0010
0100
0000
,
1000
0100
0010
0000
0001
0000
1000
0000
0010
0000
0100
0000
0010
0100
0010
0000
,
1000
0100
0010
0000
0001
0000
1000
0000
0100
0010
0100
0000
0001
0010
0100
0000
,
1000
0100
0010
0000
0001
0000
0100
0000
0010
0100
0010
0000
1000
0100
0010
0000
,
0001
0010
0100
0000
1000
0000
0010
0000
0100
0010
0100
0000
0001
0010
0100
0000
,
1000
0100
0010
0000
0001
0000
1000
0000
0100
0000
0010
0000
1000
0010
1000
0000
,
0001
0010
0100
0000
0010
0000
1000
0000
0100
0010
0100
0000
0001
0010
0100
0000
,
0010
0100
1000
0000
0001
0000
0100
0000
0010
0000
1000
0000
0100
0010
0100
0000
,
0001
0010
0100
0000
1000
0000
0010
0000
1000
0010
1000
0000
0001
0010
0100
0000
,
1000
0000
0010
0000
0100
0000
1000
0000
0001
0010
0100
0000
1000
0100
0010
0000
,
0001
0000
0100
0000
1000
0100
1000
0000
0010
0100
0010
0000
0001
0010
0100
0000
,
1000
0001
0000
0000
0000
0000
0000
0000
;

//---------------dance-single - Copied from----------------
#NOTES:
     dance-single:
     Copied from:
     Edit:
     20:
     1.000,1.000,0.000,0.034,1.000,1002.000,0.000,3.000,0.000,0.000:
0000
0000
0000
0000
1000
0010
1000
0000
0001
0100
0001
0000
0010
0000
1000
0000
,
0100
0010
0100
0000
0001
0010
0001
0000
1000
0100
1000
0000
0010
0000
0001
0000
,
1000
0000
0100
0000
0010
0100
0010
0000
1000
0001
1000
0000
0010
0000
0100
0000
,
0001
1000
0001
0000
0100
0010
0100
0000
1000
0001
1000
0000
0010
0000
0001
0000
,
2000
0000
0000
0000
3100
0010
0100
0000
0001
1000
0001
0000
0100
0000
0010
0000
,
1000
0100
1000
0000
0001
0010
0001
0000
0100
0010
0100
0000
1000
0000
0001
0000
,
0100
0000
0010
0000
1000
0001
1000
0000
0010
0100
0010
0000
1000
0000
0001
0000
,
0100
0010
0100
0000
1000
0001
1000
0000
0010
0100
0010
0000
1000
0000
0010
0000
,
0200
0000
0000
0000
0310
0000
0000
0000
0000
0000
0000
0000
1000
0100
0010
0000
,
0001
0010
0100
0000
0001
0000
1000
0000
0010
0100
0010
0000
1000
0001
1000
0000
,
0100
0010
0001
0000
1000
0000
0010
0000
0100
0000
0001
0000
1000
0001
1000
0000
,
0010
0100
0010
0000
1000
0000
0001
0000
1000
0100
0010
0000
0001
0010
0100
0000
,
1000
0010
0100
0000
0001
0000
1000
0000
0020
0000
0000
0000
0130
0001
0100
0000
,
1000
0100
0010
0000
0001
0000
1000
0000
0010
0100
0010
0000
1000
0001
1000
0000
,
0001
0010
0100
0000
1000
0000
0010
0000
0100
0000
0001
0000
1000
0010
0100
0000
,
1000
0100
0010
0000
0001
0000
1000
0000
0010
0100
0010
0000
1000
0010
0100
0000
,
0001
0010
0100
0000
1000
0000
0001
0000
0100
0000
0010
0000
1000
0001
1000
0000
,
0010
0100
1000
0000
0010
0000
1000
0000
0100
0010
0100
0000
0001
1000
0001
0000
,
0100
0010
0001
0000
1000
0000
0010
0000
0100
0000
0001
0000
1000
0100
0010
0000
,
0001
0010
0100
0000
1000
0000
0010
0000
0100
0010
0100
0000
0001
1000
0001
0000
,
0100
0010
0100
0000
1000
0000
0001
0000
0010
0000
1000
0000
0100
0010
0100
0000
,
1000
0100
0010
0000
0100
0000
0001
0000
0010
0100
0010
0000
1000
0001
1000
0000
,
0100
0010
0001
0000
1000
0000
0010
0000
0100
0000
1000
0000
0001
0010
0100
0000
,
1000
0100
0010
0000
0100
0000
0001
0000
0010
0100
0010
0000
0001
0010
0100
0000
,
1000
0100
0010
0000
0001
0000
1000
0000
0010
0000
0100
0000
0001
1000
0010
0000
,
1000
0001
0100
0000
0010
0000
1000
0000
0100
0001
0100
0000
0010
0100
0010
0000
,
1000
0100
0010
0000
1000
0000
0001
0000
0010
0000
1000
0000
0100
0010
0001
0000
,
0010
0100
1000
0000
0001
0000
0100
0000
0010
0100
0010
0000
1000
0001
1000
0000
,
0100
0010
0100
0000
0001
0000
1000
0000
0010
0000
1000
0000
0100
0010
0100
0000
,
1000
0100
0010
0000
0001
0000
1000
0000
0010
0100
0010
0000
1000
0001
1000
0000
,
0100
0010
0001
0000
1000
0000
0010
0000
0100
0000
0010
0000
0001
1000
0001
0000
,
0100
0010
0001
0000
1000
0000
0010
0000
0100
0010
0100
0000
1000
0100
0010
0000
,
0001
0010
0100
0000
1000
0000
0010
0000
0100
0000
0010
0000
1000
0001
1000
0000
,
0100
0010
0100
0000
0001
0000
1000
0000
0100
0010
0100
0000
0001
0010
0100
0000
,
1000
0100
0010
0000
1000
0000
0001
0000
0100
0000
0010
0000
1000
0010
1000
0000
,
0001
0100
0001
0000
0010
0000
1000
0000
0100
0010
0100
0000
0001
0010
0100
0000
,
1000
0100
0010
0000
1000
0000
0001
0000
0100
0000
0010
0000
1000
0100
0010
0000
,
0001
0010
0100
0000
1000
0000
0010
0000
0100
0010
0100
0000
0001
0010
0100
0000
,
1000
0100
0010
0000
0001
0000
1000
0000
0010
0000
0100
0000
1000
0001
1000
0000
,
0100
0010
0001
0000
0010
0000
1000
0000
0010
0100
0010
0000
1000
0100
0010
0000
,
0001
0010
0100
0000
1000
0000
0001
0000
0100
0000
1000
0000
0010
0100
0010
0000
,
1000
0001
1000
0000
0010
0000
0100
0000
0001
0100
0001
0000
1000
0100
0010
0000
,
0001
0010
0100
0000
1000
0000
0010
0000
0100
0000
0001
0000
1000
0010
1000
0000
,
0100
0010
0001
0000
1000
0000
0001
0000
0010
0100
1000
0000
0100
0001
0100
0000
,
0010
1000
0010
0000
0100
0000
0001
0000
0010
0000
0100
0000
1000
0001
1000
0000
,
0100
0010
0100
0000
0001
0000
0100
0000
0010
0100
1000
0000
0100
0010
0001
0000
,
0100
0010
0100
0000
1000
0000
0001
0000
0100
0000
0010
0000
1000
0001
1000
0000
,
0100
0010
0100
0000
0001
0000
1000
0000
0100
0010
0001
0000
1000
0010
1000
0000
,
0100
0010
0100
0000
0001
0000
1000
0000
0010
0000
0100
0000
1000
0001
1000
0000
,
0100
0010
0001
0000
1000
0000
0010
0000
0100
0001
0100
0000
1000
0010
1000
0000
,
0001
0100
0001
0000
1000
0000
0010
0000
0100
0000
1000
0000
0001
0010
0001
0000
,
1000
0100
0010
0000
1000
0000
0001
0000
0010
0100
0010
0000
1000
0100
0010
0000
,
0001
0010
0100
0000
1000
0000
0001
0000
0100
0000
0010
0000
1000
0001
1000
0000
,
0010
0100
0010
0000
1000
0000
0001
0000
0100
0010
0100
0000
1000
0010
1000
0000
,
0100
0010
0001
0000
1000
0000
0010
0000
0100
0000
0010
0000
0001
0100
0001
0000
,
0010
0100
1000
0000
0001
0000
0100
0000
0010
0100
0010
0000
1000
0100
0010
0000
,
0001
0010
0100
0000
1000
0000
0001
0000
0100
0000
0010
0000
1000
0001
1000
0000
,
0100
0010
0100
0000
0001
0000
1000
0000
0010
0100
0010
0000
1000
0100
0010
0000
,
0001
0010
0100
0000
1000
0000
0001
0000
0100
0000
0010
0000
1000
0010
1000
0000
,
0100
0010
0001
0000
1000
0000
0010
0000
0100
0010
0100
0000
1000
0100
0010
0000
,
0001
0010
0100
0000
1000
0000
0001
0000
0100
0000
0010
0000
0001
0010
0001
0000
,
0100
0010
0100
0000
1000
0000
0001
0000
1000
0100
0010
0000
0001
0010
0100
0000
,
1000
0100
0010
0000
0001
0000
1000
0000
0010
0000
0100
0000
0001
0010
0001
0000
,
1000
0100
0010
0000
0001
0000
1000
0000
0100
0010
0100
0000
0001
1000
0001
0000
,
0100
0010
0001
0000
1000
0000
0010
0000
0100
0000
0001
0000
1000
0010
1000
0000
,
0100
0010
0100
0000
0001
0000
1000
0000
0100
0010
0001
0000
0010
0100
1000
0000
,
0001
0100
0001
0000
1000
0000
0010
0000
0100
0000
0010
0000
0001
0010
0100
0000
,
1000
0100
0010
0000
0001
0000
1000
0000
0010
0100
0010
0000
1000
0001
1000
0000
,
0100
0010
0001
0000
0010
0000
1000
0000
0100
0000
0001
0000
1000
0010
1000
0000
,
0100
0010
0001
0000
1000
0000
0100
0000
0001
1000
0001
0000
0100
0010
0100
0000
,
0001
1000
0001
0000
0100
0000
0010
0000
1000
0000
0001
0000
0100
0010
0100
0000
,
1000
0100
0010
0000
0001
0000
1000
0000
0010
0100
0010
0000
1000
0001
1000
0000
,
0100
0010
0001
0000
1000
0000
0010
0000
0100
0000
0010
0000
0001
0100
0001
0000
,
0100
0010
0100
0000
1000
0000
0001
0000
0100
0010
0001
0000
1000
0010
1000
0000
,
0001
0010
0100
0000
1000
0000
0001
0000
0100
0000
0010
0000
1000
0001
1000
0000
,
0100
0010
0100
0000
0001
0000
1000
0000
0010
0100
0010
0000
1000
0100
0010
0000
,
0001
0010
0100
0000
1000
0000
0010
0000
0100
0000
0001
0000
1000
0010
1000
0000
,
0100
0010
0100
0000
0001
0000
1000
0000
0010
0100
0010
0000
1000
0100
0010
0000
,
0001
0010
0100
0000
0010
0000
1000
0000
0001
0000
0100
0000
0010
0100
0010
0000
,
1000
0100
1000
0000
0010
0000
0100
0000
0001
0100
0001
0000
1000
0010
1000
0000
,
0100
0010
0100
0000
0001
0000
1000
0000
0010
0000
0100
0000
0001
1000
0001
0000
,
0100
0010
0100
0000
1000
0000
0001
0000
0100
0010
0100
0000
1000
0100
0010
0000
,
0001
0010
0100
0000
1000
0000
0010
0000
0100
0000
0001
0000
1000
0010
1000
0000
,
0100
0010
0001
0000
1000
0000
0100
0000
0001
1000
0001
0000
0100
0010
0100
0000
,
0001
0010
0100
0000
1000
0000
0001
0000
0100
0000
0010
0000
1000
0001
1000
0000
,
0100
0010
0100
0000
0001
0000
1000
0000
0100
0010
0100
0000
0001
0010
0100
0000
,
1000
0100
0010
0000
0001
0000
1000
0000
0010
0000
0100
0000
0010
0100
0010
0000
,
1000
0100
0010
0000
0001
0000
1000
0000
0100
0010
0100
0000
0001
0010
0100
0000
,
1000
0100
0010
0000
0001
0000
0100
0000
0010
0100
0010
0000
1000
0100
0010
0000
,
0001
0010
0100
0000
1000
0000
0010
0000
0100
0010
0100
0000
0001
0010
0100
0000
,
1000
0100
0010
0000
0001
0000
1000
0000
0100
0000
0010
0000
1000
0010
1000
0000
,
0001
0010
0100
0000
0010
0000
1000
0000
0100
0010
0100
0000
0001
0010
0100
0000
,
0010
0100
1000
0000
0001
0000
0100
0000
0010
0000
1000
0000
0100
0010
0100
0000
,
0001
0010
0100
0000
1000
0000
0010
0000
1000
0010
1000
0000
0001
0010
0100
0000
,
1000
0000
0010
0000
0100
0000
1000
0000
0001
0010
0100
0000
1000
0100
0010
0000
,
0001
0000
0100
0000
1000
0100
1000
0000
0010
0100
0010
0000
0001
0010
0100
0000
,
1000
0001
0000
0000
0000
0000
0000
0000
;

//---------------dance-single - Copied from----------------
#NOTES:
     dance-single:
     Copied from:
     Hard:
     14:
     1.000,0.975,1.000,0.034,0.000,383.000,380.000,3.000,0.000,0.000:
0000
1010
0101
0011
,
0110
0011
0101
1010
,
1001
0110
0011
1010
,
0101
0011
0101
1010
,
2001
3010
0101
0101
,
0110
0011
0011
1100
,
0101
0011
0110
1010
,
0011
0101
0110
1010
,
0210
0310
0000
1100
,
0011
0101
0110
0011
,
0110
1001
0110
1001
,
0110
1010
0101
0011
,
0110
0101
1020
0031
,
1100
0011
0110
0011
,
0011
1100
0110
0011
,
1100
0011
0110
1010
,
0011
1100
0101
0011
,
0110
1010
0110
0101
,
0011
1001
0110
0101
,
0011
1100
0110
0101
,
0011
1100
0011
0110
,
1100
0110
0011
0011
,
0110
1001
0110
0011
,
1100
0110
0011
0011
,
1100
0011
1010
0101
,
0011
0110
0101
0110
,
0110
1010
0011
0110
,
0011
1001
0110
0011
,
0110
0101
1010
0110
,
1100
0011
0110
0011
,
0110
1001
0110
0011
,
0011
1001
0110
1100
,
0011
1100
0110
0011
,
0110
0101
0110
0011
,
1100
1010
0101
1010
,
0101
0011
0110
0011
,
1100
1010
0101
0110
,
0011
1100
0110
0011
,
1100
0011
1010
0101
,
0110
0011
0110
0110
,
0011
1100
0101
0110
,
0011
1010
0101
0101
,
0011
1100
0110
0011
,
0110
1001
0011
0101
,
0110
0110
0011
0101
,
0110
0101
0110
0110
,
0011
1100
0101
0011
,
0110
0101
0110
0011
,
0110
0101
1010
0101
,
0110
1001
0011
0110
,
0101
1001
0110
0011
,
0101
1010
0011
0110
,
0011
1100
0101
0011
,
0110
1010
0011
0110
,
0110
1001
0110
0011
,
0011
1001
0110
0110
,
0011
1100
0101
0011
,
0110
0101
0110
0110
,
0011
1100
0101
1010
,
0110
1001
0110
1100
,
0011
1100
0101
0011
,
0011
1100
0101
0011
,
1100
0011
1010
0011
,
0101
0011
0110
0101
,
0011
1001
0110
0011
,
0110
0101
0110
0011
,
0101
1001
0110
0011
,
1100
0011
0110
0011
,
0110
0011
1100
0011
,
0110
1001
0101
0011
,
0101
0101
1010
0011
,
1100
0011
0110
0011
,
0110
1001
0110
0011
,
0011
1100
0011
0011
,
0011
1100
0101
0011
,
0110
0101
0110
0110
,
0011
1100
0110
0011
,
0110
0101
0110
0110
,
0011
0110
1001
0110
,
0110
1010
0101
0011
,
0110
0101
1010
0101
,
0011
1100
0011
1100
,
0011
1100
0110
0011
,
0110
1001
0101
0011
,
0011
1100
0101
0011
,
0110
0101
0110
0011
,
1100
0011
1010
0110
,
0110
0011
0110
0011
,
1100
0011
0110
0110
,
0011
1100
0110
0011
,
1100
0011
1100
1010
,
0011
0110
0110
0011
,
0110
1001
0110
0110
,
0011
1100
1010
0011
,
1100
0110
0011
1100
,
0011
1100
0110
0011
,
1100
0000
0000
0000
;

//---------------dance-single - Copied from Copied f----------------
#NOTES:
     dance-single:
     Copied from Copied f:
     Medium:
     10:
     0.618,0.488,0.000,0.011,0.000,382.000,0.000,1.000,0.000,0.000:
0000
0100
0100
0001
,
0100
0100
0010
0001
,
1000
0010
1000
0010
,
0100
0100
0100
0010
,
1000
0010
0100
1000
,
1000
0100
0010
0100
,
0100
0001
0001
0010
,
0100
0001
0010
1000
,
0001
0100
0000
0100
,
0001
0100
0001
0001
,
0010
1000
0100
1000
,
0100
0100
1000
0100
,
1000
0010
0020
0030
,
1000
0100
1000
0001
,
0001
0100
1000
1000
,
0001
0100
0010
0001
,
1000
1000
0001
0001
,
0100
0100
0100
0100
,
0100
0010
1000
0100
,
0100
0010
0001
0100
,
1000
0010
0010
0001
,
0010
0001
1000
0010
,
0001
0010
1000
0001
,
0001
0010
0010
0010
,
1000
0001
1000
0010
,
0001
0100
1000
0001
,
1000
0100
0001
0010
,
0100
0001
0100
0001
,
0010
1000
1000
0100
,
0001
1000
0100
1000
,
0010
1000
0010
0001
,
1000
0010
0010
1000
,
1000
1000
0010
0100
,
0001
0001
0010
1000
,
0100
0001
0100
1000
,
0010
0100
0100
1000
,
1000
0001
0010
0001
,
1000
0001
0001
0100
,
0100
1000
1000
1000
,
0100
0100
0100
1000
,
0001
0010
0001
0001
,
0100
0100
1000
0010
,
0100
1000
1000
0010
,
0001
0100
0100
1000
,
1000
0001
0010
0001
,
0100
0001
0001
0010
,
0010
0010
0100
0100
,
0100
0100
0001
0001
,
0100
0010
0010
0010
,
0001
1000
0001
0010
,
0100
0001
0100
0100
,
0010
0010
1000
0001
,
0010
0001
0010
0010
,
0010
0010
0100
1000
,
1000
1000
0100
0010
,
0100
0100
0010
0100
,
0001
0010
0001
0100
,
0010
0010
1000
0010
,
0001
0100
0001
1000
,
0010
1000
0001
0010
,
1000
1000
1000
1000
,
0100
0100
0100
0001
,
1000
0001
0001
0100
,
0100
0001
0001
0100
,
0100
0001
0100
1000
,
0001
0100
0001
0010
,
1000
0100
0100
1000
,
0010
0100
1000
0100
,
0010
0100
1000
0100
,
1000
1000
1000
1000
,
0010
0100
0010
0100
,
0010
0010
0010
1000
,
0001
1000
0010
0010
,
0100
1000
0100
0010
,
0010
0001
0010
0001
,
0010
0100
0001
0010
,
0100
0100
1000
1000
,
1000
0100
0001
1000
,
0010
0100
0010
0010
,
1000
0100
1000
0010
,
0010
0010
1000
1000
,
1000
0010
0001
0010
,
1000
0010
0100
0010
,
0001
0001
0100
0010
,
0001
0100
0001
0001
,
0100
1000
0001
0010
,
1000
0001
0010
0100
,
0010
1000
0010
1000
,
1000
1000
1000
0010
,
1000
0100
1000
0100
,
0010
1000
0010
0100
,
1000
0010
1000
1000
,
1000
1000
1000
1000
,
0001
0010
0100
0100
,
0001
0100
0010
0001
,
1000
0010
1000
1000
,
0100
0000
0000
0000
;
