#TITLE:Duel of Speed;
#SUBTITLE:;
#ARTIST:DJ Rockstar;
#TITLETRANSLIT:;
#SUBTITLETRANSLIT:;
#ARTISTTRANSLIT:;
#CREDIT:;
#BANNER:Duel of Speed.png;
#BACKGROUND:Duel of Speed-bg.png;
#LYRICSPATH:;
#CDTITLE:;
#MUSIC:Duel of Speed.mp3;
#OFFSET:-0.180;
#SAMPLESTART:30.980;
#SAMPLELENGTH:15.000;
#SELECTABLE:YES;
#BPMS:0.000=93.500,22.000=187.000;
#STOPS:22.000=0.640
,164.000=0.960
,273.000=0.960
;
#BGCHANGES:;
// cache tags:
#FIRSTBEAT:8.000;
#LASTBEAT:302.000;
#SONGFILENAME:Songs/stepmix .10/Duel of Speed/Duel of Speed.sm;
#HASMUSIC:1;
#HASBANNER:1;
#MUSICLENGTH:108.858;
// end cache tags

//---------------dance-single - LIGHT----------------
#NOTES:
     dance-single:
     LIGHT:
     Easy:
     5:
     0.303,0.381,0.083,0.147,0.000,206.000,9.000,16.000,0.000,0.000:
0000
0000
0000
0000
,
0000
0000
0000
0000
,
1000
0000
0001
0000
,
1000
0000
0001
0000
,
1000
0000
0001
0000
,
1000
0001
1000
0000
,
1001
0000
0010
0000
,
0100
0010
0001
0000
,
1000
0001
0010
0000
,
0100
1000
0010
0000
,
1001
0100
0010
1000
,
0001
0100
0010
1000
,
0010
0100
0010
0001
,
0010
1000
0100
0001
,
0100
0010
0100
1000
,
0010
1000
0001
0100
,
2000
0000
0000
0000
,
3002
0000
0000
0000
,
0103
0010
1000
0001
,
0010
0100
0010
1000
,
0001
0100
0010
0100
,
1000
0001
0100
0010
,
1000
0010
0001
0010
,
1000
0100
0001
0100
,
2000
0000
0000
0000
,
3002
0000
0000
0000
,
1003
1000
1000
1000
,
1000
1000
1000
1000
,
0010
0010
0010
0010
,
0010
0010
0010
0010
,
0100
0100
0100
0100
,
0100
0100
0100
0100
,
0001
0001
0001
0001
,
0001
0001
0001
0001
,
2000
0000
0000
0000
,
3020
0000
0000
0000
,
0230
0000
0000
0000
,
0302
0000
0000
0000
,
1003
0010
1000
0001
,
1000
0100
1000
0001
,
1000
0010
1000
0001
,
0110
1001
0000
0000
,
0000
0010
0100
0010
,
0100
0010
0000
0000
,
0000
1000
0100
1000
,
0010
1000
0000
0000
,
0000
0010
0100
0001
,
0100
0010
0000
0000
,
0000
0001
1000
0001
,
0100
0001
0000
0000
,
0000
0010
0100
0010
,
0100
0010
0000
0000
,
0000
1000
0100
1000
,
0010
1000
0000
0000
,
0000
0010
1000
0010
,
0100
0010
0000
0000
,
0000
1000
1000
1000
,
1000
0200
0000
0000
,
0000
0320
0000
0000
,
0000
0032
0000
0000
,
0000
0203
0000
0000
,
0000
0320
0000
0000
,
0000
2030
0000
0000
,
0000
3200
0000
0000
,
0000
0320
0000
0000
,
0000
0031
0100
0001
,
0010
0001
0100
0001
,
0010
0000
0001
0000
0100
0000
0001
0100
,
0001
0100
0001
0000
1001
0000
0100
0000
,
0010
1000
0001
0100
,
0010
1000
0001
0100
,
1000
0100
0001
0010
,
1000
0010
1001
0000
,
0000
0000
0110
0000
,
0110
0000
1001
0000
,
0000
0000
0000
0010
0100
0000
0000
0000
;

//---------------dance-single - STANDARD----------------
#NOTES:
     dance-single:
     STANDARD:
     Medium:
     7:
     0.432,0.416,0.202,0.230,0.000,282.000,22.000,25.000,0.000,0.000:
0000
0000
0000
0000
,
0000
0000
0000
0000
,
0010
0000
1000
0000
,
0100
0000
0001
0000
,
1000
0000
0010
0000
,
0100
0001
0110
0000
,
1001
0100
0010
1000
,
0100
0001
0100
1000
,
0010
0100
0010
1000
,
0001
1000
0010
0100
,
1001
0100
0010
0001
,
0100
0000
0010
0000
1000
0010
0100
0000
,
0010
0100
1000
0010
,
0001
0000
1000
0000
0100
0010
0001
0000
,
0100
0001
1000
0010
,
0100
0000
0001
0000
0100
0010
1000
0000
,
0202
0000
0000
0303
,
2200
0000
0000
3300
,
0110
1000
0001
0100
,
0001
0000
0100
0000
0010
1000
0100
0000
,
1000
0100
0010
0100
,
1000
0000
0001
0000
1000
0100
0010
0000
,
0001
0100
0001
0010
,
0001
0000
0100
0000
0010
1000
0100
0000
,
2200
0000
0000
3300
,
0202
0000
0000
0303
,
2000
0100
0010
0100
,
0010
0100
0010
0100
,
3020
1000
0100
1000
,
0100
1000
0100
1000
,
0230
0010
0001
0010
,
0001
0010
0001
0010
,
0302
0010
1000
0010
,
1000
0010
1000
0010
,
2003
0100
0010
0100
,
3020
1000
0100
1000
,
0230
0010
0001
0010
,
0302
0010
1000
0010
,
2003
0010
0100
0001
,
0100
0010
0100
0001
,
0100
0010
0100
3001
,
0110
1100
0000
0000
,
0000
0000
0010
1000
0100
1000
0010
0000
,
1000
0010
0000
0000
,
0000
0000
1000
0001
0100
0001
1000
0000
,
0010
0100
0001
0000
0000
0000
0000
0000
,
0000
0000
0001
0010
0100
1000
0100
0010
,
0001
0100
0010
0000
0000
0000
0000
0000
,
0000
0000
0001
0000
1000
0100
1000
0000
,
0001
0100
0001
0000
0000
0000
0000
0000
,
0000
0000
0010
1000
0100
1000
0010
0000
,
1000
0010
0000
0000
,
0000
0000
1000
0000
0010
0100
0010
1000
,
0001
0100
0010
0000
0000
0000
0000
0000
,
0000
0000
0010
0000
1000
0001
0010
0100
,
0010
0001
0100
0000
0000
0000
0000
0000
,
0000
1100
0101
0011
,
1010
0200
0010
0010
,
0010
0320
1000
1000
,
1000
2030
0100
0100
,
0100
3200
0010
0010
,
0010
0320
0001
0100
,
0001
0230
0010
1000
,
0010
2300
0001
0010
,
0001
3020
1000
0100
,
1000
0130
0100
0001
,
0001
0000
1000
0000
1000
0000
0010
0100
,
0010
0000
0001
0000
1000
0000
0001
0100
,
0010
1000
1100
0000
1001
0000
0010
0000
,
0100
1000
0001
0010
,
0100
1000
0010
0000
0101
0000
1000
0000
,
0010
0100
0001
0100
,
0001
0100
0010
0000
1001
0000
0000
0000
,
0000
0010
1000
0100
0010
0000
0000
1000
,
0110
0000
0000
0010
1001
0000
0110
0000
,
0000
1100
0000
0010
0100
0000
0000
0000
;

//---------------dance-single - HEAVY----------------
#NOTES:
     dance-single:
     HEAVY:
     Hard:
     8:
     0.496,0.555,0.322,0.193,0.055,322.000,35.000,21.000,0.000,0.000:
0000
0000
0000
0000
,
0000
0000
0000
0000
,
0100
0000
0001
0000
,
0010
0000
1000
0000
,
0101
0000
0110
0000
,
1010
0101
1100
0000
,
1001
0000
0100
0000
0010
0000
0001
1000
,
0100
0000
0010
0000
0001
0000
1000
0010
,
0100
0000
1000
0000
0010
0000
0100
0001
,
0010
0001
0010
1100
,
1001
0000
0100
0000
0010
1000
0001
0000
,
0100
0000
0010
0000
1000
0010
0100
0000
,
0101
0000
0010
0000
1000
0001
0100
0000
,
0010
0000
1000
0000
0010
0100
1000
0000
,
0101
0000
1000
0000
0010
0100
0001
0000
,
0100
0000
1000
0000
0001
0010
1000
0000
,
0201
0010
0001
0310
,
1200
0010
1000
0310
,
0110
0000
1000
0000
0001
1000
0100
0000
,
0010
0000
1000
0000
0010
1000
0001
0000
,
1010
0000
0100
0000
0001
1000
0100
0000
,
1000
0000
0010
0000
1000
0100
0010
0000
,
1100
0000
0010
0000
0001
1000
0100
0000
,
1000
0000
0010
0000
0100
1000
0010
0000
,
1200
0010
1000
0310
,
0201
0010
0001
0310
,
2000
0100
0010
0001
,
0010
0100
0010
0001
,
3020
1000
0100
0001
,
0100
1000
0100
0001
,
0230
0010
0001
0010
,
1000
0010
0001
0010
,
0302
0010
1000
0100
,
1000
0010
1000
0100
,
2003
0100
0010
0001
,
3020
1000
0100
0001
,
0230
0010
0001
1000
,
0302
0010
1000
0100
,
2003
0010
0001
0100
,
0010
0000
0001
0000
0100
0100
0100
0000
,
0010
0001
0100
3001
,
0110
1100
0000
0000
,
0000
0000
0010
1000
0100
0010
0001
0000
,
1000
0110
0000
0000
,
0000
0000
1000
0010
0100
0001
0100
0000
,
0010
0100
1000
0000
0000
0000
0000
0000
,
0000
0000
0001
1000
0100
0010
0100
0001
,
0100
0010
1000
0000
0000
0000
0000
0000
,
0000
0000
0001
0000
1000
0100
0001
0000
,
0001
0100
1000
0000
0000
0000
0000
0000
,
0000
0000
0010
1000
0100
1000
0010
0000
,
1100
0101
0000
0000
,
0000
0000
0000
0000
1000
0000
0000
0000
0001
0000
0100
0000
0010
0000
1000
0100
,
1000
0010
0100
0000
0000
0000
0000
0000
,
0000
0000
0000
0000
0010
0000
0000
0000
0001
0100
0001
0000
0100
0001
0100
0000
,
0001
0100
0001
0000
0100
0000
0000
0000
0000
0000
0000
0000
0000
0000
0000
0000
,
0000
0000
0000
1000
0010
0100
0001
0100
0010
1000
0010
0100
,
0001
0100
0010
2000
0000
0000
0001
0000
0000
0001
0000
0000
,
0001
3020
1000
1000
,
1000
2030
0001
0001
,
0001
3200
0010
0010
,
0010
0320
0001
0100
,
1000
0230
0010
1000
,
0001
2300
0001
0010
,
0100
3020
1000
0100
,
0001
0000
0130
0001
0100
0000
0001
0010
,
0001
0000
1000
0100
1000
0000
0010
0100
,
0010
0000
0001
1000
0100
0000
0001
0100
,
0010
0100
0011
0000
1001
0000
0010
0000
,
0001
1000
0100
0000
0001
0000
1000
0000
,
0010
1000
0100
0000
0011
0000
1000
0000
,
0010
1000
0100
0000
1000
0000
0010
0000
,
0001
0100
0010
0000
1001
0000
0000
0000
,
0000
0010
1000
0100
0110
0000
0000
1100
,
1100
0000
0000
0011
1001
0000
1010
0000
,
0000
1100
0000
0110
0110
0000
0000
0000
;

//---------------dance-single - BEGINNER----------------
#NOTES:
     dance-single:
     BEGINNER:
     Beginner:
     2:
     0.178,0.208,0.028,0.055,0.000,127.000,3.000,6.000,0.000,0.000:
0000
0000
0000
0000
,
0000
0000
0000
0000
,
0000
0000
0000
0000
,
0000
0000
0000
0000
,
0000
0000
0000
0000
,
0000
0000
0000
0000
,
0010
0000
0000
0000
,
0010
0000
0000
0000
,
0010
0000
0000
0000
,
0010
0000
0010
0000
,
0100
0100
0100
0000
,
0001
0000
0001
0000
,
0010
0010
0010
0000
,
1000
0000
1000
0000
,
0100
0100
0100
0000
,
0001
0000
0001
0000
,
2000
0000
3000
0000
,
0002
0000
0003
0000
,
1000
1000
1000
0000
,
0010
0000
0010
0000
,
0001
0001
0001
0000
,
0100
0000
0100
0000
,
1000
1000
1000
0000
,
0010
0000
0010
0000
,
2000
0000
3000
0000
,
0002
0000
0003
0000
,
0010
0000
0010
0000
,
0010
0000
0010
0000
,
0010
0000
0010
0000
,
0010
0000
0010
0000
,
0100
0000
0100
0000
,
0100
0000
0100
0000
,
0100
0000
0100
0000
,
0100
0000
0100
0000
,
1000
0000
1000
0000
,
0010
0000
0010
0000
,
0100
0000
0100
0000
,
0001
0000
0001
0000
,
0020
0000
0000
0000
,
0000
0000
0000
0000
,
0000
0000
0000
0000
,
0030
0000
0000
0000
,
0000
0010
0010
0010
,
0010
0010
0000
0000
,
0000
1000
1000
1000
,
1000
1000
0000
0000
,
0000
0100
0100
0100
,
0100
0100
0000
0000
,
0000
0001
0001
0001
,
0001
0001
0000
0000
,
0000
0010
0010
0010
,
0010
0010
0000
0000
,
0000
1000
1000
1000
,
1000
1000
0000
0000
,
0000
0100
0100
0100
,
0100
0100
0000
0000
,
0000
0001
0001
0001
,
0001
0001
0000
0000
,
0000
0010
0000
0000
,
0000
0100
0000
0000
,
0000
1000
0000
0000
,
0000
0100
0000
0000
,
0000
0010
0000
0000
,
0000
0001
0000
0000
,
0000
0010
0000
0000
,
0000
2000
0000
0000
,
0000
0000
0000
0000
,
0000
0000
0000
0000
,
0000
3000
0010
0010
,
0010
0000
1000
0000
,
1000
0000
0100
0100
,
0100
0000
0001
0000
,
0001
0000
1001
0000
,
0000
0000
0010
0000
,
0100
0000
1001
0000
,
0000
0000
1001
0000
;

//---------------dance-double - LIGHT----------------
#NOTES:
     dance-double:
     LIGHT:
     Easy:
     4:
     0.302,0.347,0.138,0.175,0.000,196.000,15.000,19.000,0.000,0.000:
00000000
00000000
00000000
00000000
,
00000000
00000000
00000000
00000000
,
01000000
00000000
00010000
00000000
,
00001000
00000000
00000100
00000000
,
00010000
00000000
00001000
00000000
,
00010000
00000010
00000100
00000000
,
00011000
00000000
00100000
00000000
,
00001000
01000000
00100000
00000000
,
00010000
00100000
00001000
00000000
,
00100000
00001000
00000010
00000000
,
00011000
01000000
00100000
00000000
,
00001000
00000100
00000010
00000000
,
00000001
00001000
00000100
00000000
,
00010000
00001000
00100000
00000000
,
10000000
00010000
01000000
00000000
,
00100000
01000000
00100000
01000000
,
00002000
00000000
00000000
00000000
,
00023000
00000000
00000000
00000000
,
00030100
00010000
01000000
00000000
,
01000000
00010000
00000100
00000000
,
00000100
00001000
01000000
00000000
,
01000000
00001000
00000100
00000000
,
00010000
01000000
00100000
00000000
,
10000000
01000000
00100000
00010000
,
00000020
00000000
00000000
00000000
,
00000032
00000000
00000000
00000000
,
00001003
00001000
00001000
00001000
,
00001000
00001000
00001000
00001000
,
00000100
00000100
00000100
00000100
,
00000100
00000100
00000100
00000100
,
00010000
00010000
00010000
00010000
,
00010000
00010000
00010000
00010000
,
00000010
00000010
00000010
00000010
,
00000010
00000010
00000010
00000010
,
00020000
00000000
00000000
00000000
,
00032000
00000000
00000000
00000000
,
02003000
00000000
00000000
00000000
,
03200000
00000000
00000000
00000000
,
10300000
00100000
00010000
01000000
,
10000000
00010000
00100000
00010000
,
00001000
00000000
00011000
00000000
,
00011000
00011000
00000000
00000000
,
00000000
00010000
00000100
00001000
,
00000010
00010000
00000000
00000000
,
00000000
00001000
01000000
00010000
,
00100000
00001000
00000000
00000000
,
00000000
01000000
00010000
00100000
,
00001000
00000100
00000000
00000000
,
00000000
00000010
00002000
00003000
,
00000002
00000003
00000000
00000000
,
00000000
00001000
00000100
00010000
,
00000100
00001000
00000000
00000000
,
00000000
01000000
00010000
00100000
,
00010000
01000000
00000000
00000000
,
00000000
00002000
00100000
01000000
,
00100000
01003000
00000000
00000000
,
00000000
00011000
00011000
00011000
,
00011000
00020000
00000000
00000000
,
00000000
00032000
00000000
00000000
,
00000000
00023000
00000000
00000000
,
00000000
00032000
00000000
00000000
,
00000000
00023000
00000100
00000010
,
00000100
00032000
01000000
00100000
,
01000000
00023000
00000100
00000010
,
00000100
00032000
01000000
00100000
,
01000000
00013000
01000000
00010000
,
00000000
00001000
00000100
00001000
,
00000000
00010000
00001000
00010000
,
00001000
00011000
00011000
01000000
,
00010000
00000000
00010000
01000000
,
00001000
00000000
00010000
00000010
,
00001000
00000000
00000001
00001000
,
00000100
00000000
00001001
00000000
,
00000000
00000000
00011000
00000000
,
10010000
00000000
00011000
00000000
,
00000000
00000000
00000000
00000100
00000100
00000000
00000000
00000000
;

//---------------dance-double - STANDARD----------------
#NOTES:
     dance-double:
     STANDARD:
     Medium:
     7:
     0.394,0.381,0.193,0.230,0.000,254.000,21.000,25.000,0.000,0.000:
00000000
00000000
00000000
00000000
,
00000000
00000000
00000000
00000000
,
00001000
00000000
10000000
00000000
,
00001000
00000000
10000000
00000000
,
00001000
00000000
10000000
00000000
,
00001000
10000000
00001000
00000000
,
00010100
00000010
00001000
00000100
,
00010000
00001000
01000000
00100000
,
10000000
01000000
00100000
00010000
,
00001000
00000100
00000010
00000001
,
00001100
00010000
00000100
00000000
,
01000000
00000000
00000000
00000000
00010000
00100000
01000000
00000000
,
11000000
00100000
00010000
00000000
,
00001000
00000000
00000000
00000000
00000010
00000100
00000001
00000000
,
00001100
00010000
00000100
00000000
,
01000000
00000000
00000000
00000000
00010000
00100000
01000000
00000000
,
02020000
00000000
00000000
03030000
,
00022000
00000000
00000000
00033000
,
00000101
00000010
00001000
00000000
,
00000100
00000000
00000000
00000000
00010000
00001000
00100000
00000000
,
01010000
10000000
00100000
00000000
,
00010000
00000000
00000000
00000000
00000010
00000100
00001000
00000000
,
00011000
00100000
00000010
00000000
,
00010000
00000000
00000000
00000000
00001000
00100000
01000000
00000000
,
22000000
00000000
00000000
33000000
,
02002000
00000000
00000000
03003000
,
00000020
00010000
00000100
00010000
,
00000100
00010000
00000100
00010000
,
00200030
00001000
01000000
00001000
,
01000000
00001000
01000000
00001000
,
00300200
00010000
00000010
00010000
,
00000010
00010000
00000010
00010000
,
02000300
00001000
00100000
00001000
,
00100000
00001000
00100000
00001000
,
03020000
01000000
00100000
01000000
,
00230000
00001000
00010000
00001000
,
00300200
00100000
00010000
00100000
,
00002300
00000010
00000001
00000010
,
00003002
00000010
00001000
00000100
,
00001000
00000010
00001000
00000100
,
00001000
00000010
00001000
00000103
,
00010100
00011000
00000000
00000000
,
00000000
00000000
00100000
01000000
00010000
00000100
00001000
00000000
,
00000010
00000001
00000000
00000000
,
00000000
00000000
00001000
00000010
00010000
00000010
00001000
00000000
,
00000100
00010000
00001000
00000000
00000000
00000000
00000000
00000000
,
00000000
00000000
00100000
00010000
01000000
00001000
00010000
00000100
,
00000010
00000001
00001000
00000000
00000000
00000000
00000000
00000000
,
00000000
00000000
00000100
00000000
00010000
00001000
00010000
00000000
,
00001000
00010000
00001000
00000000
00000000
00000000
00000000
00000000
,
00000000
00000000
00100000
00010000
01000000
00010000
00100000
00000000
,
00001000
01000000
00000000
00000000
,
00000000
00000000
00010000
00000000
00100000
01000000
00100000
00001000
,
00010000
00000010
00000100
00000000
00000000
00000000
00000000
00000000
,
00000000
00000000
00001000
00000000
00000001
00000010
00000100
00001000
,
00000100
00000010
00000001
00000000
00000000
00000000
00000000
00000000
,
00000000
00000110
00010100
00101000
,
01010000
00002000
00000000
00000000
,
00000000
20003000
00000000
00000000
,
00000000
30020000
00000000
00000000
,
00000000
00032000
00000000
00000000
,
00000000
00003020
00010000
00001000
,
00010000
00200030
00001000
00010000
,
00001000
00300200
00010000
00001000
,
00010000
02000300
00001000
00010000
,
00001000
03010000
00010000
00001000
,
00001000
00000000
00010000
00000000
00010000
00000000
00001000
00010000
,
00001000
00000000
00000010
00000000
00010000
00000000
00000100
00010000
,
00001000
01000000
01010000
00000000
11000000
00000000
00100000
00000000
,
00010000
00000000
00001000
00000000
,
00000010
00001000
00000100
00000000
00000101
00000000
00001000
00000000
,
00000010
00000000
00010000
00000000
,
00001000
01000000
00100000
00000000
01001000
00000000
00000000
00000000
,
00000000
00100000
00010000
01000000
00001000
00000000
00000000
00100000
,
00001000
00000000
00000000
00010000
00000100
00000000
00001000
00000000
,
00000000
00000010
00000000
00000001
00001000
00000000
00000000
00000000
;

//---------------dance-double - HEAVY----------------
#NOTES:
     dance-double:
     HEAVY:
     Hard:
     8:
     0.482,0.555,0.367,0.156,0.055,310.000,40.000,17.000,0.000,0.000:
00000000
00000000
00000000
00000000
,
00000000
00000000
00000000
00000000
,
10000000
00000000
00000001
00000000
,
10000000
00000000
00000001
00000000
,
10010000
00000000
00001001
00000000
,
10010000
00011000
00001001
00000000
,
10100000
01000000
00100000
00010000
,
00000010
00000100
00001000
00000001
,
00001000
00100000
10000000
01000000
,
00100000
00010000
00000100
00000010
,
00001100
00000010
00001100
00010000
,
00100000
00000000
01000000
00000000
10000000
00100000
01000000
00000000
,
01010000
00100000
01010000
00001000
,
00000100
00000000
00000010
00000000
00000100
00000001
00000010
00000000
,
00001100
00000010
00001100
00010000
,
00100000
00000000
10000000
00000000
00100000
01000000
00010000
00000000
,
02001000
00100000
00001000
03100000
,
00002100
00000001
00000100
00003001
,
00001100
00000010
00001100
00010000
,
00100000
00000000
01000000
00000000
10000000
00100000
01000000
00000000
,
01010000
00100000
01010000
00001000
,
00000100
00000000
00000010
00000000
00000100
00000001
00000010
00000000
,
00001100
00000010
00001100
00010000
,
00100000
00000000
10000000
00000000
00100000
01000000
00010000
00000000
,
02001000
00100000
00001000
03100000
,
00002100
00000001
00000100
00003001
,
00010200
00000010
00010000
00000010
,
00010000
00000010
00010000
00000010
,
00020300
01000000
00001000
01000000
,
00001000
01000000
00001000
01000000
,
00032000
00100000
00010000
00100000
,
00010000
00100000
00010000
00100000
,
00203000
01000000
00001000
01000000
,
00001000
01000000
00001000
01000000
,
00302000
00000100
00010000
00000100
,
00023000
00000010
00000100
00000010
,
00030200
00010000
00000010
00010000
,
00000320
00000001
00000100
00000001
,
00000230
00000010
00001000
00000010
,
00010000
00000010
00001000
00000001
,
00001000
00000010
00001000
00000310
,
00011000
00101000
00000000
00000000
,
00000000
00000000
01000000
00100000
00010000
00001000
00000100
00000000
,
00010000
00001010
00000000
00000000
,
00000000
00000000
00000001
00000010
00000100
00001000
00000010
00000000
,
00010000
00001000
01000000
00000000
00000000
00000000
00000000
00000000
,
00000000
00000000
10000000
00010000
01000000
00001000
01000000
00010000
,
01000000
00100000
00001000
00000000
00000000
00000000
00000000
00000000
,
00000000
00000000
00000100
00000000
00010000
00001000
01000000
00000000
,
00001000
00010000
00000100
00000000
00000000
00000000
00000000
00000000
,
00000000
00000000
01000000
00100000
00010000
00000010
00000100
00000000
,
00011000
00001100
00000000
00000000
,
00000000
00000000
00000000
00000000
00000010
00000000
00000000
00000000
00001000
00000000
00000100
00000000
00010000
00000000
00001000
01000000
,
00001000
00100000
10000000
00000000
00000000
00000000
00000000
00000000
,
00000000
00000000
00000000
00000000
10000000
00000000
00000000
00000000
00010000
01000000
00010000
00000000
00100000
00001000
00100000
00000000
,
00010000
00000100
00010000
00000000
00000010
00000000
00000000
00000000
00000000
00000000
00000000
00000000
00000000
00000000
00000000
00000000
,
00000000
00000000
00000000
00010000
00001000
00010000
00001000
00010000
00001000
00010000
00001000
00010000
,
00001000
00010000
00001000
00020000
00000000
00000000
00000100
00000000
00000000
00000100
00000000
00000000
,
00000100
00032000
00100000
00100000
,
00100000
00023000
00000010
00000010
,
00000010
00032000
01000000
01000000
,
01000000
00103000
01000000
10000000
,
00010000
00000010
00000100
00010000
,
00100000
01000000
10000000
00010000
,
00000100
00000010
00000001
00001000
,
00100000
00000000
01000000
00010000
01000000
00000000
00001000
00100000
,
00001000
00000000
00010000
00100000
00010000
00000000
00000010
00001000
,
00000010
00000000
00010000
00000100
00010000
00000000
00000001
00000100
,
00000001
00000100
00010010
00000000
00101000
00000000
01000000
00000000
,
00101000
01000000
00010000
00000100
,
00000010
00001000
00000100
00000000
00010100
00000000
00000010
00000000
,
00010100
00000010
00001000
00100000
,
10000000
01000000
00100000
00000000
10010000
00000000
00000000
00000000
,
00000000
00100000
00010000
00000100
00000110
00000000
00000000
00010000
,
00011000
00000000
00000000
00100000
10010000
00000000
01001000
00000000
,
00000000
00101000
00000000
00010000
00010100
00000000
00000000
00000000
;
