#TITLE:Indigo Vision;
#SUBTITLE:(full flavour hide around mix);
#ARTIST:TaQ;
#TITLETRANSLIT:;
#SUBTITLETRANSLIT:;
#ARTISTTRANSLIT:;
#CREDIT:;
#BANNER:indigovision.png;
#BACKGROUND:indigovision-bg.png;
#LYRICSPATH:;
#CDTITLE:;
#MUSIC:17.Indigo Vision (full flavour hide around mix).mp3;
#OFFSET:-2.000;
#SAMPLESTART:70.000;
#SAMPLELENGTH:12.000;
#SELECTABLE:YES;
#BPMS:0.000=155.000,80.000=77.500,102.000=155.000;
#STOPS:;
#BGCHANGES:;
// cache tags:
#FIRSTBEAT:16.000;
#LASTBEAT:222.000;
#SONGFILENAME:Songs/Ace Megapack/Indigo Vision/indigo.sm;
#HASMUSIC:1;
#HASBANNER:1;
#MUSICLENGTH:98.723;
// end cache tags

//---------------dance-single - ----------------
#NOTES:
     dance-single:
     :
     Challenge:
     11:
     1.000,1.000,1.000,0.091,1.000,663.000,137.000,9.000,0.000,0.000:
0000
0000
0000
0000
,
0000
0000
0000
0000
,
0000
0000
0000
0000
,
0000
0000
0000
0000
,
1000
0100
0010
0001
1010
0000
0101
0000
1100
0000
1000
0100
1010
0000
0110
0000
,
0100
0001
0010
0100
1010
0000
1001
0000
0101
0000
0010
0100
1001
0000
0011
0000
,
1000
0001
0010
0100
0011
0000
0110
0000
1010
0000
0100
0010
1100
0000
0011
0000
,
0100
0001
1000
0010
1100
0000
0101
0000
1010
0000
0001
0100
0011
0000
1100
0000
,
0010
0001
0100
0010
1100
0000
0011
0000
0110
0000
0001
0100
1010
0000
1001
0000
,
0100
0001
0010
0100
1001
0000
0011
0000
1100
0000
0001
1000
0110
0000
1001
0000
,
0100
0010
0001
0100
1010
0000
0110
0000
0101
0000
0010
0100
1001
0000
0101
0000
,
1000
0100
0010
0001
1010
0000
0101
0000
1000
0001
0100
0010
1000
0000
1001
0000
,
0100
0010
1100
0000
0100
0010
1001
0000
0010
1000
0110
0000
1000
0010
0101
0000
,
1000
0100
0011
0000
1000
0001
1100
0000
0010
0001
1100
0000
0010
1000
0101
0000
,
0001
0010
1100
0000
0010
0100
0011
0000
0100
1000
0110
0000
1000
0001
1100
0000
,
0010
1000
0011
0000
0100
0010
1100
0000
0001
1000
0110
0000
0100
1010
0000
0000
,
0001
0100
0011
0000
1000
0001
0110
0000
0010
1000
0101
0000
0100
0010
1001
0000
,
0001
0100
1010
0000
1000
0001
0110
0000
0001
0010
1100
0000
0100
0011
0000
0000
,
0010
1000
0101
0000
0100
0010
1001
0000
0001
0010
1100
0000
0010
0001
1100
0000
,
0010
1000
0101
0000
0010
0101
0000
1000
0011
0000
0100
1010
0000
1000
0101
0000
,
0120
0100
1000
0100
0001
0001
0001
0100
1000
0001
0100
0001
1030
0100
0010
0001
,
0020
0100
0001
1000
0100
0100
0100
0001
1000
0100
0001
1030
0100
0010
0001
0100
,
0020
0100
1000
0001
0100
0100
0100
1000
0001
1000
0100
0001
1030
0010
0001
0010
,
2000
0000
0000
0000
0000
0000
0000
0000
0200
0000
0000
0000
0000
0000
0300
0000
0020
0000
0000
0000
0000
0000
0030
0000
3100
0010
0001
1000
0001
0010
0100
1000
,
0200
0000
0000
0000
0000
0000
0000
0000
2000
0000
0000
0000
0000
0000
3000
0000
0002
0000
0000
0000
0000
0000
0003
0000
0310
0001
0100
0010
1000
0100
0010
0001
,
1100
0001
0010
0100
0010
0001
1000
0010
0100
0010
1000
0100
0001
0100
1000
0001
1010
0000
0100
0000
0001
0000
0100
0000
1010
0000
0001
0000
0100
0000
0010
0000
,
0101
0010
1000
0100
0011
1000
0010
0001
1100
0010
0100
0000
0001
1000
0010
0000
,
1100
0000
0001
0000
1100
0000
0010
0000
0100
0001
0010
0100
0001
0100
0010
0000
,
0001
0000
0100
0010
1000
0000
1001
0000
0100
0010
1000
0001
0010
0000
1000
0000
,
0010
0001
1000
0010
0001
0000
0010
0000
1000
0100
0000
0010
0100
0000
1000
0000
,
0001
0100
0010
1000
0001
0000
0100
0000
1010
0100
0000
0010
0100
0000
0001
0010
,
0100
0001
0000
0100
0010
0000
0001
0100
0010
1000
0000
0001
0010
0000
1000
0010
,
0001
1000
0000
0010
0001
0000
0010
1000
1100
0010
0000
0100
1000
0000
0001
0100
,
1010
0100
0000
0001
0010
0000
0100
1000
0110
1000
0100
0010
1001
1000
0010
0100
,
0011
1000
0010
0100
1001
0010
1000
0010
0101
0000
1001
0000
0110
0000
0101
0000
,
0011
0000
1100
0000
0011
0000
1100
0000
0001
0100
0001
0100
0001
0000
0011
0000
,
0110
0000
1100
0000
1001
0000
0110
0000
0010
1000
0010
1000
0010
0000
1100
0000
,
0001
0100
0001
0100
0001
0000
1010
0000
0100
0010
0100
0010
0100
0010
0001
0100
,
0010
1000
0001
0100
0010
1000
0001
1000
0010
0100
1001
0000
1000
0010
1100
0000
,
0001
0010
0101
0000
1000
0100
1010
0000
0001
0100
0011
0000
1000
0001
0110
0000
,
0010
1000
0101
0000
0100
0010
1001
0000
0001
0010
1100
0000
0001
0100
1010
0000
,
0001
0100
0011
0000
1000
0100
0011
0000
1000
0010
0101
0000
1000
0001
0110
0000
,
0010
1000
0001
0100
0010
1000
0001
0100
0010
1000
0101
0000
0010
0100
1001
0000
,
0100
0010
1001
0000
0100
0010
1001
0000
0010
0100
1010
0000
0010
0001
1100
0000
,
0010
1000
0101
0000
1000
0001
0110
0000
0011
1000
0100
0010
0100
1000
0001
0000
,
0101
0010
1000
0001
0100
0010
1000
0000
1001
0010
0100
0001
1100
0010
0001
0100
,
1010
0001
0010
1000
0101
0010
1000
0010
0101
1000
0010
0100
0001
0000
1000
0010
,
0000
0100
0001
0000
1000
0000
0010
0000
0100
0001
0010
0100
1001
0000
0001
0010
,
0100
1000
0100
0010
1001
0000
1000
0010
0001
0010
1000
0100
1001
0000
0001
0100
,
0010
0100
0001
0010
1001
0000
1000
0001
0100
0010
1000
0100
0010
0100
1000
0001
,
0100
0010
0100
0001
0010
0100
0001
0100
0010
0001
0100
0010
0001
0010
1000
0100
,
0010
1000
0010
0001
1000
0010
0100
0001
1000
0010
0100
0001
1000
0100
0010
0100
,
0010
0100
0010
0001
1000
0010
0100
0001
1000
0010
0100
0001
0010
0100
0001
0100
,
0010
0001
0100
0010
0100
1000
0100
0010
1000
0100
0010
0100
0001
0100
0010
0001
,
0100
0010
1000
0001
0100
0010
1000
0001
0010
0100
0001
0100
0010
0001
0100
0010
,
1000
0001
0100
0010
1001
0000
0000
0000
0000
0000
0000
0000
0000
0000
0000
0000
;

//---------------dance-single - ----------------
#NOTES:
     dance-single:
     :
     Hard:
     8:
     0.543,0.532,0.132,0.051,0.172,357.000,13.000,5.000,0.000,0.000:
0000
0000
0000
0000
,
0000
0000
0000
0000
,
0000
0000
0000
0000
,
0000
0000
0000
0000
,
1000
0000
0000
0000
0100
0000
0000
0000
0010
0000
0000
0001
0010
0000
0000
0000
,
0100
0000
0000
0000
1000
0000
0000
0000
0001
0000
0000
0100
0010
0000
0000
0000
,
0100
0000
0000
0000
0001
0000
0000
0000
1000
0000
0000
0100
0010
0000
0000
0000
,
0001
0000
0000
0000
0010
0000
0000
0000
0100
0000
0000
1000
0001
0000
0000
0000
,
1000
0000
0001
0010
0000
0000
0001
0010
0000
0000
1000
0100
0000
0000
1000
0100
,
0000
0000
0010
0100
0000
0000
0010
0100
0000
0000
0001
0010
0000
0000
0100
1000
,
0000
0000
0010
0100
0000
0000
0001
0010
0000
0000
0100
1000
0000
0000
0100
1000
,
0000
0000
0010
0001
0000
0000
0100
0010
0000
0000
0001
0010
0000
0000
0100
0000
,
1000
0010
0010
0000
0100
0000
0001
0000
,
0010
0100
0001
0000
0100
1000
0001
0001
,
1000
0010
0100
0000
0001
0000
0010
0000
,
0100
0010
0001
0000
1000
0010
0100
0001
,
1000
0010
0010
0000
0100
0000
0001
0000
,
0010
0100
1000
0000
0001
0001
0100
0000
,
0010
1000
0001
0000
0100
0001
1000
0000
,
0001
1000
0100
0010
0100
1000
0001
0100
,
0020
0000
1000
0000
0100
0030
0000
0000
2000
0000
0100
0000
3010
0000
0000
0000
,
0002
0000
0010
0000
0100
0003
0000
0000
0020
0000
0100
0000
0031
0000
0000
0000
,
0200
0000
0010
0000
1000
0300
0000
0000
1000
0000
0001
0000
0100
0000
0000
0000
,
0010
1000
0001
0000
1100
0000
0101
0000
,
0100
0000
0010
0000
1000
0000
0001
1000
0100
0000
0010
0000
0100
0000
0010
0001
,
0100
0010
1000
0001
1000
0000
0001
0000
,
0100
0000
0010
0000
0110
0100
0001
0010
,
0100
1000
0001
0000
1001
1000
0100
0010
,
0001
1000
0010
0000
0110
0100
0001
1000
,
0010
0000
0100
0000
0001
0000
1000
0100
1000
0000
0010
0000
0100
0000
0001
0000
,
0010
0000
0100
0000
0110
0000
0000
0000
0001
0000
0010
0100
0010
0000
0100
0000
,
1000
0000
0001
0000
0100
0000
0010
0000
1000
0000
0001
0100
0001
0000
0100
0000
,
0001
0000
0010
0000
0100
0000
1000
0000
0001
0000
1000
0010
1000
0000
0010
0000
,
0100
0000
0001
0100
0001
0000
0100
0000
0001
0000
0010
0000
0100
0000
1000
0000
,
0100
0010
0001
1000
1001
0000
0010
0000
,
0100
0010
1001
0100
,
0010
0100
0010
0001
,
1000
0000
0010
0000
0100
0001
0100
0001
,
0010
0000
0100
0000
1000
0000
0001
0000
1000
0001
0100
0000
0001
0000
1000
0000
,
0100
1000
0001
1000
0001
0010
0100
1000
,
0001
0000
0010
0000
0100
0000
1000
0000
0010
1000
0010
0000
0100
0000
0001
0000
,
1000
0010
0100
0001
1000
0010
0100
0001
,
1000
0000
0010
0000
0100
0000
0001
0000
0010
0001
0010
0000
0100
0000
1000
0000
,
0001
0010
0100
1000
0001
0010
0100
1000
,
0001
0000
0010
0000
0100
0000
1000
0000
0100
1000
0100
0000
1000
0000
0100
0000
,
0010
0000
0001
0000
1000
0000
0100
0000
0010
0000
0001
0000
1000
0010
0000
1000
,
0001
0000
1000
0010
0000
1000
0001
0000
1001
0000
0000
0000
0110
0000
0000
0000
,
1001
0000
0110
0000
0100
0010
0100
0000
,
0001
1000
0001
0000
0010
0100
0010
0000
,
0001
1000
0100
0000
1000
0001
0010
0000
,
0001
1000
0010
0000
1000
0001
0100
0000
,
0001
0010
0100
0000
1000
0100
1000
0001
,
0100
0001
1000
0010
1000
0001
0010
0001
,
1000
0100
0001
0100
1000
0001
0100
1000
,
0100
0001
0010
0001
1000
0100
0010
0001
,
1000
0010
1100
0000
0000
0000
0000
0000
;

//---------------dance-single - ----------------
#NOTES:
     dance-single:
     :
     Medium:
     6:
     0.449,0.590,0.415,0.324,0.000,237.000,41.000,32.000,0.000,0.000:
0000
0000
0000
0000
,
0000
0000
0000
0000
,
0000
0000
0000
0000
,
0000
0000
0000
0000
,
1000
0000
0100
0000
0010
0000
0001
0010
,
0001
0000
0010
0000
0100
0000
1000
0100
,
1000
0000
0100
0000
0010
0000
0001
0010
,
0001
0000
0010
0000
0100
0000
1000
0100
,
1000
0100
0000
0010
0000
1000
0000
0001
,
0000
0010
0000
1000
0000
0100
0000
0010
,
0000
0001
0000
0100
0000
0010
0000
1000
,
0000
0100
0000
0001
0000
0100
0000
1000
,
0010
0010
0010
0010
,
0010
0000
0010
0000
0010
0000
0010
0100
,
0001
0001
0001
0001
,
0001
0000
0001
0000
0001
0000
0001
0010
,
0100
0100
0100
0100
,
0100
0000
0100
0000
0100
0000
0100
1000
,
0010
0010
0010
0010
,
0010
1000
0010
0001
1000
0100
0001
1000
,
0200
0000
0320
0000
0032
0000
0203
0320
,
2030
0000
3200
0000
0320
0000
0032
0203
,
0320
0000
2030
0000
3200
0000
2300
3200
,
0320
0000
0230
0000
0320
0000
0230
0300
,
0021
0000
0230
0000
2300
0000
0020
3030
,
0210
0301
0110
1001
,
0110
1001
1000
0100
,
0010
0001
0010
0100
,
1000
0000
0001
0100
0010
0000
1000
0000
,
0001
0010
0100
0001
,
0100
0000
0010
0001
0010
0000
0100
0000
,
1000
0010
0100
0010
,
1000
0000
0100
0010
0100
0000
0010
0000
,
0001
0100
1001
0110
,
1001
0110
0100
0010
,
0010
0010
1000
1000
,
0100
0100
0010
0010
,
0001
0000
0001
0000
1000
0001
0100
0001
,
1000
0100
1000
0000
1001
0000
0110
0000
,
1001
0110
1001
0110
,
0010
0100
0010
0000
0011
0000
1100
0000
,
0011
1100
0011
1100
,
0001
0100
0001
0000
1100
0000
1010
0000
,
1100
1010
1100
1010
,
0001
0010
0001
0000
0110
0000
0011
0000
,
0110
0000
0011
0000
0100
0010
1000
0001
,
0100
0010
1000
0000
1001
0000
0001
0010
,
0100
1000
0001
0001
,
1000
1000
0100
0100
,
0010
0010
0001
0001
,
0100
0100
2010
3001
,
0012
1003
0210
1300
,
0120
0031
0021
1030
,
0210
0000
0301
0000
0120
0000
1000
0030
,
0011
0000
1000
0000
0010
0100
0001
1000
,
0010
0010
0200
0000
0300
0000
0000
0000
;

//---------------dance-single - ----------------
#NOTES:
     dance-single:
     :
     Easy:
     4:
     0.336,0.392,0.294,0.061,0.000,197.000,29.000,6.000,0.000,0.000:
0000
0000
0000
0000
,
0000
0000
0000
0000
,
0000
0000
0000
0000
,
0000
0000
0000
0000
,
1001
0100
0010
0100
,
0010
0100
0010
0100
,
1001
0010
0100
0010
,
0100
0010
0100
0010
,
0000
0001
0000
0010
0000
0100
0000
1000
,
0000
0100
0000
0010
0000
0001
0000
0010
,
0000
0100
0000
1000
0000
0100
0000
0010
,
0000
0001
0000
0010
0000
0100
0000
1000
,
0100
0100
0100
0100
,
0100
0100
0110
0110
,
0001
0001
0001
0001
,
0001
0001
0011
0011
,
1000
1000
1000
1000
,
1000
1000
1010
1010
,
0100
0100
0100
0100
,
0110
0110
1001
0110
,
1002
0000
0000
0000
,
0023
0000
0000
0000
,
0230
0000
0000
0000
,
2300
0000
0000
0000
,
3020
0000
0000
0000
,
0230
0000
0301
1000
,
0100
0010
0001
0001
,
1000
1000
0010
0010
,
0010
0000
0100
0001
0100
0000
0001
0000
,
0010
0100
1000
0001
,
0010
0000
0100
1000
0100
0000
0010
0000
,
0001
1000
0010
0100
,
0001
1000
1001
0100
,
0011
1000
0110
1001
,
0110
1001
1000
0100
,
0010
0001
0010
0100
,
1000
0001
0100
0001
,
1000
0100
1000
0001
,
0010
0001
1000
1000
,
1000
1000
1000
1000
,
1001
1001
0010
0010
,
0010
0010
0010
0010
,
0110
0110
0001
0001
,
0001
0001
0001
0001
,
0011
0011
1000
1000
,
1000
1000
1010
1010
,
0101
1010
1000
0001
,
1000
0000
0001
0000
0100
0010
1000
0000
,
0001
0100
0010
1000
,
0001
0000
0010
0000
0100
0010
0001
0000
,
0100
0010
1000
0001
,
1000
0000
0100
0000
0010
0100
1000
0000
,
0001
0100
0010
1000
,
0001
0000
0010
0000
0100
0010
0001
0000
,
0100
0010
1000
0100
,
0010
0100
0010
0000
0000
0000
0000
0000
;
