#TITLE:OVERBLAST!!;
#SUBTITLE:;
#ARTIST:L.E.D. Light;
#TITLETRANSLIT:;
#SUBTITLETRANSLIT:;
#ARTISTTRANSLIT:;
#CREDIT:;
#BANNER:Overblast-bn.png;
#BACKGROUND:Overblast-bg.png;
#LYRICSPATH:;
#CDTITLE:!Dan23!.png;
#MUSIC:OVERBLAST!!.mp3;
#OFFSET:0.520;
#SAMPLESTART:40.256;
#SAMPLELENGTH:11.960;
#SELECTABLE:YES;
#BPMS:0.000=147.000;
#STOPS:;
#BGCHANGES:;
// cache tags:
#FIRSTBEAT:4.000;
#LASTBEAT:168.000;
#SONGFILENAME:Songs/Fresh Flock of Fantastic Files F4/(Dan23) OVERBLAST!!/Overblast.sm;
#HASMUSIC:1;
#HASBANNER:1;
#MUSICLENGTH:70.878;
// end cache tags

//---------------dance-single - ----------------
#NOTES:
     dance-single:
     :
     Hard:
     11:
     1.000,1.000,1.000,0.141,1.000,463.000,99.000,10.000,0.000,0.000:
0000
0000
0000
0000
,
1001
0000
0001
0100
0010
0000
1000
0000
0100
0010
0001
0100
0010
0000
1001
0000
,
1100
0010
0100
0001
0010
0000
1100
0000
0011
0000
1000
0010
0101
0000
1001
0000
,
0110
0000
0001
0010
0100
0000
1100
0000
0010
0100
0001
0010
0100
1000
0001
0100
,
0010
1000
0100
1000
0001
0100
0010
0100
0001
0010
0100
1000
0010
0100
0001
1000
,
0110
0000
0001
0100
0001
0000
1100
0000
0001
0000
1100
0000
0001
0000
1100
0000
,
1001
0000
0001
1000
0001
0000
0110
0000
0001
0000
0110
0000
1000
0000
0110
0000
,
0001
0100
0001
1000
0001
0010
0001
0100
0010
0100
0001
1000
0100
0010
0001
0100
,
1010
0000
0101
0000
1100
0000
0101
0000
1000
0100
1000
0100
0010
0001
0010
0001
,
1100
0000
0000
1000
0100
0000
0000
0011
0000
0000
0101
0000
0000
1010
0000
0000
,
2002
0000
0000
0000
3003
0000
0202
0000
0000
0303
1010
0000
0101
0000
1001
0000
,
0110
0000
0000
0001
1000
0000
0000
1100
0000
0000
0101
0000
0000
0011
0000
0000
,
2200
0000
0000
0000
0000
3300
0202
0000
0000
0303
1001
0000
0000
0110
0000
0000
,
1001
0000
0100
0010
0100
0000
0001
1000
0100
0010
0001
0100
0010
1000
0001
0100
,
1001
0000
0100
1000
0100
0000
0010
0001
0100
0010
1000
0001
0010
0100
1000
0001
,
1100
0000
0010
0100
0001
0010
0100
1000
0001
0100
0010
1000
0001
0100
0010
0100
,
2002
0000
0000
0000
0000
0000
0000
0000
0000
3003
0110
0000
0000
1001
0000
0000
,
0110
0000
0010
0100
0001
0010
0100
1000
0001
0100
0001
1000
0001
0000
1000
0001
,
1100
0000
0100
0010
0001
0000
0001
0100
0001
1000
0010
0100
0001
1000
0100
1000
,
0101
0000
1000
0100
1000
0000
0010
0100
0001
0010
0100
1000
0001
0100
0010
0100
,
1001
0000
0001
0100
0001
0000
1000
0100
1000
0000
0101
0000
0000
1100
0000
0000
,
1001
0000
0001
0100
1010
0000
0001
0100
0010
1000
0001
0100
1001
0000
0100
1000
,
0001
0000
0100
0010
0100
0000
0001
0100
0001
1000
0001
0010
0001
0100
0001
1000
,
0101
0000
0001
0010
0100
1000
0010
0100
0001
1000
0100
0010
0001
1000
0010
0100
,
1001
0000
0001
0010
1100
0000
1000
0010
0101
0000
1000
0001
1100
0010
0100
0001
,
1001
0000
0100
0010
0100
0000
0001
0010
0100
1000
0010
0100
0001
1000
0100
1000
,
0001
0000
1000
0100
1000
0000
0010
0001
0100
0010
0100
0001
1000
0010
0100
0001
,
1100
0000
0001
0000
1001
0000
0100
0010
1000
0001
0010
0100
1000
0010
0100
0001
,
1100
0010
0100
0001
0010
0100
1000
0100
0010
0001
1100
0000
0000
0101
0000
0000
,
1001
0000
0100
0010
1000
0001
0010
0100
1000
0010
0100
0001
1100
0000
0101
0000
,
1001
0100
0010
1000
0001
0010
0100
1000
0100
0010
0001
0100
1010
0000
0101
0000
,
1001
0100
0010
1000
0001
0010
0001
0100
0010
0100
0001
1000
0100
1000
0001
0100
,
1001
0000
1000
0100
0011
0000
0001
0100
1010
0000
0001
0100
0010
1000
0100
0010
,
1001
0000
0000
0010
0001
0000
1000
0000
1100
0000
0000
0101
0000
0000
1001
0000
,
0000
0000
0100
0000
0000
0110
0000
0000
1000
1000
0000
0000
1001
0000
0110
0000
,
1001
0000
0000
0100
0010
0000
1000
0000
0101
0000
0000
0110
0000
0000
1100
0000
,
0000
0000
0001
0000
0000
1100
0000
0000
0010
0010
0000
0000
0110
0000
1001
0000
,
0110
0000
0010
0100
0001
0010
0100
1000
0101
0000
1000
0010
0100
0001
0010
0100
,
1001
0000
0100
0010
1000
0001
0010
0100
1100
0000
0001
0100
0010
0100
0001
1000
,
0110
0000
0001
0100
0010
0000
1000
0000
1100
0000
0010
0100
0001
0000
1000
0000
,
1100
0010
0100
0001
0100
0010
1000
0001
1000
0100
0010
0001
1000
0100
0010
0001
,
1001
0000
0000
0000
0000
0000
0000
0000
0000
0000
1100
0000
0000
0101
0000
0000
,
1001
0000
0000
0000
;
