#TITLE:Vault of Heaven;
#SUBTITLE:;
#ARTIST:Mr.T;
#TITLETRANSLIT:;
#SUBTITLETRANSLIT:;
#ARTISTTRANSLIT:;
#CREDIT:;
#BANNER:Vault of Heaven.png;
#BACKGROUND:Vault of Heaven-bg.png;
#LYRICSPATH:;
#CDTITLE:eternocaos.png;
#MUSIC:Vault of Heaven.mp3;
#OFFSET:1.445;
#SAMPLESTART:63.980;
#SAMPLELENGTH:15.000;
#SELECTABLE:YES;
#BPMS:0.000=135.020,17.500=169.999,140.500=161.919,169.500=169.999,176.000=170.000,208.000=161.640,272.750=160.600,303.833=160.620,304.000=160.640,304.167=160.660,304.333=160.680,304.500=160.700,304.667=160.720,304.833=160.740;
#STOPS:;
#BGCHANGES:;
// cache tags:
#FIRSTBEAT:4.000;
#LASTBEAT:304.667;
#SONGFILENAME:Songs/mongol/Vault of Heaven/Vault of Heaven.sm;
#HASMUSIC:1;
#HASBANNER:1;
#MUSICLENGTH:112.318;
// end cache tags

//---------------dance-single - MANIAC----------------
#NOTES:
     dance-single:
     MANIAC:
     Hard:
     13:
     1.000,1.000,0.614,0.312,1.000,900.000,69.000,35.000,0.000,0.000:
0000
0000
0000
0000
,
2000
0000
0000
0000
3000
0000
0000
0002
,
0000
0000
0003
0000
0000
2000
0000
0000
0000
0000
3000
0000
0002
0000
0000
0000
,
0000
0000
0000
0003
0000
0000
0000
0000
0000
0000
0000
0000
0000
0000
0000
0000
2000
0000
0000
0000
0000
0000
0000
0000
0000
0000
0200
0000
3000
0000
0000
0000
0000
0000
0000
0000
0000
0000
0000
0000
0000
0000
0000
0000
0000
0000
0000
0000
,
0000
0000
0000
0000
0300
0000
0000
0000
0000
0000
0000
0000
0000
0000
0000
0000
0000
0000
0001
0000
0000
0010
0000
0000
0100
0000
0000
1000
0000
0000
0001
0000
0000
0010
0000
0000
0100
0000
0000
1000
0000
0000
0100
0000
0000
0010
0000
0000
,
0001
0010
0100
1000
0010
0100
0001
1000
0010
0100
0001
1000
0010
0100
0001
0010
,
0100
1000
0001
1000
0100
0010
0100
1000
0100
0010
0001
0010
0100
1000
0100
0010
,
0001
0010
0100
0010
0100
1000
0100
1000
0100
0010
0100
0010
0100
0010
0001
0010
,
0000
0010
0001
0010
0001
0010
0100
1000
0001
0010
0100
1100
0100
0010
0001
0010
,
0100
1000
0010
0100
0001
1000
0010
0100
0001
0010
0100
0010
0001
1000
0001
0010
,
0100
0010
0001
1000
0001
0010
0100
1000
0100
1000
0100
0010
0100
1000
0010
0100
,
0001
1000
0010
0100
0001
0010
0100
0010
0001
0010
0100
1000
0100
0010
0001
1000
,
0001
1000
0001
0010
0100
1000
0001
1000
0001
1000
0010
0100
0001
0010
0100
1000
,
0001
0010
0100
1000
0010
0100
0001
0010
0100
1000
0010
0100
0001
1000
0010
0100
,
0001
0100
1000
0100
0001
0010
1000
0010
0001
0010
0100
1000
0001
0000
0000
1100
,
0000
0000
0000
0110
0000
0000
0000
0000
0000
0000
0000
0000
0000
0000
0000
0000
0000
0000
0000
0000
0000
0110
0000
0000
0000
0000
0000
0011
0000
0000
0000
0000
0000
0000
0000
0000
0000
0000
0000
0000
0000
0000
0000
0000
0000
0000
1100
0000
,
0000
0000
0000
0000
0110
0000
0000
0000
0000
0100
0000
0000
1000
0000
0000
0100
0000
0000
0010
0000
0000
0001
0000
0000
0010
0000
0000
0001
0000
0000
0010
0000
0000
0001
0000
0000
0010
0000
0000
0001
0000
0000
0010
0000
0000
0001
0000
0000
,
0200
0000
0000
0000
,
0000
0300
0000
0000
0001
0010
0100
1000
0100
1000
0010
0100
0001
0010
0100
0010
,
0001
1000
0001
0010
0100
0010
0001
1000
0010
0100
0001
0010
0100
1000
0100
0010
,
0100
1000
0010
0100
0001
0010
0100
0010
0001
0100
0001
0100
0001
0010
0100
1000
,
0100
0010
0100
1000
0010
0100
0001
1000
0010
0100
0001
0100
0001
0100
0010
0100
,
0010
0100
1000
0010
1000
0100
0010
0001
0010
0100
1000
0010
0100
0001
0100
0010
,
1000
0010
1000
0100
0010
0100
0001
1000
0100
0001
0010
0100
0010
0001
1000
0001
,
0100
1000
0100
0001
0010
0100
0010
0001
0010
0100
1000
0100
0010
0100
1000
0010
,
0100
0001
0010
0200
0000
0000
0000
0000
0000
0300
2000
0000
3000
0000
0001
1000
,
0001
0000
1000
0000
0001
0000
1000
0000
0001
0000
0100
0000
0001
0000
0100
0000
0001
0000
0100
0000
0001
0000
0100
0000
0001
0000
0000
1000
0000
0000
0001
0000
0000
1000
0000
0000
0001
0000
0000
0010
0000
0000
0100
0000
0000
1000
0000
0000
,
0001
1000
0100
0010
0100
1000
0010
0100
0001
1000
0010
0100
0001
1000
0001
0010
,
0100
0010
0001
0100
0010
1000
0100
1000
0100
0010
0100
0010
0100
1000
0010
0100
,
0001
1000
0010
0100
0001
0010
0100
0010
0001
1000
0001
1000
0010
0100
0001
0010
,
0100
0010
0001
0100
0001
0100
0010
0100
0010
1000
0010
1000
0010
1000
0100
1000
,
0100
1000
0100
0010
0001
1000
0100
0010
0001
1000
0100
0010
0001
0010
0100
1000
,
0010
0100
0001
1000
0010
0100
0001
0010
0100
1000
0001
0010
0100
1000
0100
0010
,
0100
0000
0000
1000
0000
0000
0000
0000
0000
0000
0000
0000
0000
0000
0000
0000
0000
0000
0000
0000
0000
0000
0000
0000
0000
0000
0000
0000
2002
0000
0000
0000
0000
0000
0000
0000
0000
0000
0000
0000
0000
0000
3003
0000
0000
0000
0000
0000
,
0000
0000
0000
0000
0000
0000
1000
0000
0000
0100
0000
0000
1000
0000
0100
0000
1000
0000
0100
0000
1000
0000
0100
0000
0010
0000
0001
0000
0010
0000
0100
0000
1000
0000
0100
0000
1000
0000
0100
0000
1000
0000
0100
0000
0010
0000
0001
0000
,
0200
0301
0010
0100
1100
0100
0010
0001
,
0110
0100
1000
0010
0110
0001
0010
0100
,
1100
0010
0100
0001
0110
0100
1000
0100
,
0011
0100
1000
0010
1100
0001
0020
0000
,
0031
0000
2000
0000
0000
3000
0000
0000
,
0000
0002
0023
0230
,
2300
0000
3002
0003
0000
0000
0000
0000
,
0000
0000
0000
0000
0000
0000
0000
0000
0000
0000
0000
0000
0000
0000
0000
0000
0000
0000
1001
0000
0000
1001
0000
0000
0001
0000
0010
0000
0100
0000
1000
0000
0100
0000
1000
0000
0100
0000
1000
0000
0100
0000
1000
0000
0100
0000
0010
0000
,
0001
0000
0000
0000
0000
0000
0000
0000
0010
0000
0000
0000
0000
0000
0000
0000
0100
0000
0000
0000
0000
0000
0000
0000
1000
0000
0000
0000
0000
0000
0001
0000
0000
0000
0000
0000
1000
0000
0000
0000
0000
0000
0000
0000
0000
0000
0000
0000
0010
0000
0000
0000
0000
0000
0000
0000
0000
0000
0000
0000
0100
0000
0000
0000
0000
0000
0000
0000
0000
0000
0000
0000
0001
0000
0000
0000
0000
0000
0000
0000
0000
0000
0000
0000
0010
0000
0000
0000
0000
0000
0000
0000
0000
0000
0000
0000
0100
0000
0000
0000
0000
0000
0000
0000
0000
0000
0000
0000
1000
0000
0000
0000
0000
0000
0000
0000
0000
0000
0000
0000
0100
0000
0000
0000
0000
0000
0000
0000
0000
0000
0000
0000
0010
0000
0000
0000
0000
0000
0000
0000
0000
0000
0000
0000
0100
0000
0000
0000
0000
0000
0000
0000
0000
0000
0000
0000
1000
0000
0000
0000
0000
0000
0000
0000
0000
0000
0000
0000
0010
0000
0000
0000
0000
0000
0000
0000
0000
0000
0000
0000
0100
0000
0000
0000
0000
0000
0000
0000
0000
0000
0000
0000
,
0001
0010
0100
1000
0100
0010
0100
1000
0010
0100
0001
1000
0010
0100
0001
0010
,
0100
1000
0100
0010
0100
1000
0010
0100
0001
1000
0010
0100
0001
0010
0001
1000
,
0001
1000
0010
0100
0001
0010
0100
1000
0100
0010
0100
1000
0010
0100
0001
0010
,
0100
1000
0100
0010
0001
2000
0000
0000
0000
3000
0020
0000
0000
0000
0000
0000
,
0000
0000
0000
0000
0000
0000
0000
0000
0000
0000
0000
0000
2030
0000
0000
0000
0000
0000
0000
0000
0000
0000
3200
0000
0000
0000
0000
0000
0000
0300
0020
0000
,
0000
0000
0000
0000
0000
0030
0002
0000
0000
0000
0000
0000
0000
0000
0000
0003
2000
0000
0000
0000
0000
0000
3000
0000
0002
0000
0000
0000
0000
0000
0000
0000
,
0000
0000
0000
0000
0000
0000
0000
0000
0000
0000
0000
0000
0000
0000
0000
0000
0000
0000
0000
0000
0000
0000
0000
0003
0000
0000
1001
0000
0000
0000
1001
0000
,
0001
0010
0001
0010
0001
0010
0100
1000
0100
0010
0100
1000
0100
1000
0100
1000
0010
0100
0001
0100
0001
0100
0000
0000
,
1000
0110
0001
0010
0100
1010
0001
0010
,
0100
1100
0100
0010
0001
1010
0100
0010
,
0001
0110
0001
0010
0100
1100
0100
0010
,
0001
0000
0110
0000
0001
0000
0010
0000
0000
0000
0000
0000
0000
0110
0000
0011
,
0000
0000
0000
0000
0000
0000
0000
2000
0000
0000
0000
0000
0000
0000
3000
0002
,
0000
0000
0000
0000
0000
0000
0000
0000
0000
0000
0000
0000
2003
0000
0000
0000
0000
0000
0000
0000
3000
0002
0000
0000
0000
0000
0000
0000
0000
0003
2000
0000
,
0000
0000
0000
0000
0000
0000
0000
0000
0000
0000
0000
0000
0000
0000
0000
0000
0000
0000
0000
0000
0000
0000
0000
0000
3000
0000
0000
0000
0200
0000
0000
0000
0000
0000
0000
0000
0000
0000
0000
0000
0000
0000
0000
0000
0000
0000
0000
0000
0000
0000
0000
0000
0000
0000
0000
0000
0000
0300
0000
0000
0002
0000
0000
0000
,
0000
0000
0000
0000
0000
0000
0000
0000
0000
0000
0000
0000
0000
0000
0000
0000
0000
0000
0003
0000
0000
0000
0000
0000
1000
0000
0000
0000
0000
0000
0000
0000
0100
0000
0000
0000
0000
0000
0000
0000
1000
0000
0000
0000
0000
0000
0000
0000
0100
0000
0000
0000
0000
0000
0000
0000
1000
0000
0000
0000
0000
0000
0000
0000
0100
0000
0000
0000
0000
0000
0000
0000
1000
0000
0000
0000
0000
0000
0000
0000
0100
0000
0000
0000
0000
0000
0000
0000
1000
0000
0000
0000
0000
0000
0000
0000
0100
0000
0000
0000
0000
0000
0000
0000
1000
0000
0000
0000
0000
0000
0000
0000
0100
0000
0000
0000
0000
0000
0000
0000
0010
0000
0000
0000
0000
0000
0000
0000
0100
0000
0000
0000
0000
0000
0000
0000
0010
0000
0000
0000
0000
0000
0000
0000
0100
0000
0000
0000
0000
0000
0000
0000
0010
0000
0000
0000
0000
0000
0000
0000
0001
0000
0000
0000
0000
0000
0000
0000
0010
0000
0000
0000
0000
0000
0000
0000
0000
0000
0000
0000
0001
0000
0000
0000
0000
0000
0000
0000
0000
0000
0000
0000
,
0010
0100
1000
0100
0010
0001
0010
0100
1000
0010
0100
0001
1000
0010
0100
0001
,
0010
0001
0100
0001
1000
0001
0100
0001
1000
0001
1000
0100
0010
0001
0010
0100
,
1000
0010
0100
0001
1000
0010
0100
0001
1000
0010
0100
0001
0010
0100
1000
0001
,
0010
0100
1000
0100
0010
0001
0010
0100
1000
0001
0010
0100
1000
0010
0100
0001
,
0010
0100
1000
0001
0010
0100
1000
0100
0010
0100
1000
0010
0100
0001
1000
0010
,
0100
0001
0010
0100
1000
0100
0010
0100
1000
0010
0100
0001
1000
0001
1000
0010
,
1000
0001
1000
0001
1000
0001
0010
0001
1000
0001
0010
0100
1000
0100
0010
0001
,
0010
0000
0000
0100
0000
0000
1000
0000
0000
0010
0001
0000
0010
0000
0001
0000
0010
0000
0100
0000
1000
0000
0001
0000
0010
0000
0100
0000
1000
0000
0010
0000
0100
0000
0001
0000
1000
0000
0010
0000
0100
0000
0001
0000
0010
0000
0100
0000
,
1000
0001
0000
1000
0100
0010
0000
1001
1001
1001
0000
0001
0010
0100
0000
0011
,
0011
0011
0000
0001
0010
0100
0000
0101
0101
0101
0000
0010
1000
0100
0000
1100
,
1100
1100
0000
0010
0001
0010
0000
0110
0110
0110
0000
0010
1000
0010
0000
1010
,
1010
1010
0000
1000
0001
0100
0000
0011
0011
0011
0000
0010
0001
0100
0000
1010
,
1010
1010
0000
1000
0100
0010
0000
0011
0011
0011
0000
0001
1000
0100
0000
0110
,
0110
0110
0000
0001
1000
0100
0000
1100
0110
0011
0000
0001
0010
0100
0000
1100
,
0110
0011
0000
1000
0010
0100
0000
0101
0110
1010
0000
1000
0010
0100
0000
0101
,
0011
0000
0100
1000
0100
0010
0100
1000
0010
0100
0001
0010
0100
1000
0100
0010
0001
0010
0100
1000
0100
0010
0001
0020
,
0000
0000
0030
0000
0000
0000
0000
0000
0000
0000
0000
0000
;
