#TITLE:PARANOiA Escape;
#SUBTITLE:;
#ARTIST:EBB;
#TITLETRANSLIT:;
#SUBTITLETRANSLIT:;
#ARTISTTRANSLIT:;
#CREDIT:;
#BANNER:banner.png;
#BACKGROUND:bg.png;
#LYRICSPATH:;
#CDTITLE:../cdtitle.png;
#MUSIC:paraescape.mp3;
#OFFSET:-0.120;
#SAMPLESTART:13.400;
#SAMPLELENGTH:12.000;
#SELECTABLE:YES;
#DISPLAYBPM:90.000:240.000;
#BPMS:0.000=90.000,16.000=180.000,104.000=90.000,136.000=190.000,140.000=240.000,236.000=59.999;
#STOPS:;
#BGCHANGES:;
// cache tags:
#FIRSTBEAT:8.000;
#LASTBEAT:242.000;
#SONGFILENAME:Songs/Japanese Collaboration Mix/paraescape/paraescape.sm;
#HASMUSIC:1;
#HASBANNER:1;
#MUSICLENGTH:98.476;
// end cache tags

//---------------dance-single - ----------------
#NOTES:
     dance-single:
     :
     Hard:
     9:
     0.540,0.737,0.670,0.020,0.183,304.000,66.000,2.000,0.000,0.000:
0000
0000
0000
0000
,
0000
0000
0000
0000
,
1010
0110
0101
0000
0000
0000
0000
0000
,
1100
0110
0011
0000
0000
0000
0000
0000
,
0010
0100
0010
0000
0001
0010
0001
0100
,
0010
0001
0100
0010
1000
0000
0000
0000
,
0100
0010
0000
1001
0000
0000
0000
0000
,
0001
0100
1000
0100
0010
0001
0100
0000
,
0001
1000
0000
0110
0000
0000
0000
0000
,
1000
0010
0001
0100
0010
1000
0100
0000
,
0010
0100
0000
1001
0000
0000
0000
0000
,
1000
0010
0001
0010
0100
0001
0010
0000
,
1000
0001
0000
0110
0000
0000
0000
0000
,
0001
0000
0100
0000
1000
0000
0010
0000
0100
0000
0001
0000
0010
0100
0010
0100
,
0010
0000
0000
0010
0000
0000
0010
0000
0000
0000
0000
0000
1001
0000
0000
0000
,
0100
0000
0000
0100
0000
0000
0100
0000
0000
0000
0000
0000
0001
1000
0001
1000
,
0001
0000
0000
0001
0000
0000
0001
0000
0000
0000
0000
0000
0110
0000
0000
0000
,
1000
0000
0000
1000
0000
0000
1000
0000
0000
0000
0000
0000
1001
0000
0000
0000
,
0010
0100
0000
1001
0000
0000
0000
0000
,
1000
0010
0001
1000
0100
1000
0010
0000
,
1000
0001
0000
0110
0000
0000
0000
0000
,
0001
0010
1000
0010
0100
0001
0010
0000
,
0100
0010
0000
1001
0000
0000
0000
0000
,
0001
0010
1000
0001
0010
1000
0100
0000
,
0001
1000
0000
0110
0000
0000
0000
0000
,
1000
0100
0001
1000
0010
0001
0100
0000
,
1100
0000
0000
0110
0000
0000
0011
0000
0000
1001
0000
0000
0100
0010
0100
0000
,
0011
0000
0000
0110
0000
0000
1100
0000
0000
1001
0000
0000
0010
0100
0010
0000
,
1010
0000
0000
0011
0000
0000
0110
0000
0000
0011
0000
0000
0100
0001
0100
0000
,
0011
0000
0000
0101
0000
0000
1010
0000
0000
0110
0000
0000
1000
0010
1000
0000
,
0011
0000
0000
1010
0000
0000
1100
0000
0000
1001
0000
0000
0010
0100
0010
0000
,
1100
0000
0000
0110
0000
0000
0011
0000
0000
0101
0000
0000
0100
0010
0100
0000
,
0101
0000
0000
0101
0000
0000
0110
0000
0000
1100
0000
0000
0010
1000
0010
0000
,
1100
0000
0000
1010
0000
0000
0101
0000
0000
1100
0000
0000
0001
0100
0001
0000
,
2002
0000
0000
3003
,
0011
0100
0001
1000
,
1100
0001
1000
0001
,
1001
0100
0010
1000
,
0001
0010
0100
1000
,
1001
0100
0001
1000
,
1100
0010
0001
0100
,
0110
0010
1000
0001
,
0010
1000
0100
1000
,
1001
0100
0001
1000
,
1100
0010
0001
0100
,
0110
0010
1000
0100
,
0010
0001
1000
0001
,
0011
0100
1000
0001
,
1001
0010
0001
1000
,
1001
0100
0001
1000
,
0001
0010
0100
1000
,
1000
0001
0100
0000
0001
1000
0010
0000
,
0100
0001
1000
0000
0001
0100
0010
0000
,
1000
0010
0100
0000
0001
0100
0010
0000
,
0100
0001
0100
0000
0001
1000
0100
0000
,
1000
0100
1000
0100
1000
0001
1000
0001
,
0010
0001
0010
0001
0100
0001
0100
0001
,
0100
0010
0100
0010
1000
0001
1000
0001
,
0100
0010
1000
0010
0100
0001
0010
0000
,
1001
0000
0000
0000
0000
0000
0000
0000
0000
0000
0000
0010
0000
0000
0100
0000
1001
0000
0000
0000
0000
0000
0000
0000
0000
0000
0000
0000
0000
0000
0000
0000
,
0110
0000
0000
0000
0000
0000
0000
0000
0000
0000
0000
1000
0000
0000
0001
0000
0110
0000
0000
0000
0000
0000
0000
0000
0000
0000
0000
0000
0000
0000
0000
0000
;
