#TITLE:Girlfriend;
#SUBTITLE:;
#ARTIST:Robbie Rivera;
#TITLETRANSLIT:;
#SUBTITLETRANSLIT:;
#ARTISTTRANSLIT:;
#CREDIT:Estronawt;
#BANNER:Banner.PNG;
#BACKGROUND:BG.PNG;
#LYRICSPATH:;
#CDTITLE:Estro.PNG;
#MUSIC:Robbie Rivera - Girlfriend.mp3;
#OFFSET:-7.460;
#SAMPLESTART:47.000;
#SAMPLELENGTH:14.500;
#SELECTABLE:YES;
#BPMS:0.000=65.000,56.000=130.000;
#STOPS:;
#BGCHANGES:;
// cache tags:
#FIRSTBEAT:0.000;
#LASTBEAT:264.000;
#SONGFILENAME:Songs/keyboard/Girlfriend/Girlfriend.sm;
#HASMUSIC:1;
#HASBANNER:1;
#MUSICLENGTH:169.226;
// end cache tags

//---------------dance-single - ----------------
#NOTES:
     dance-single:
     :
     Hard:
     7:
     0.577,0.661,0.638,0.697,0.349,454.000,108.000,118.000,0.000,75.000:
1000
0000
0000
0001
0000
0000
0000
0000
0001
0000
0000
1000
0000
0000
0000
0000
,
0100
0000
0000
0010
0000
0000
0000
0000
0010
0000
0000
0100
0000
0000
0010
0000
,
0000
1100
0010
0001
0100
1000
0001
0000
0000
0110
1000
0100
0001
0010
1000
0000
,
0000
1000
0001
1100
0010
0100
0001
0000
0000
1000
0011
1000
0100
0010
1000
0000
,
0102
0000
0000
1103
0000
0000
0000
0000
0021
0000
0000
0131
0000
0000
0000
0000
,
2100
0000
0000
3101
0000
0000
0000
0000
0101
0000
1100
0010
0001
0010
0100
1000
,
0000
0000
0000
0000
0000
0220
0330
0000
0000
0000
0000
0022
0000
0000
0000
0000
0000
0000
0000
0000
0000
0033
0000
0000
,
2000
3000
0000
0022
0000
0000
0033
0000
0202
0303
0000
2200
0000
0000
0000
3300
,
0002
0000
0020
0000
0000
0000
2000
0003
0030
3000
0100
0010
1000
0010
0100
0001
,
2000
0000
0000
0000
0000
0000
0002
0000
0010
0000
0000
0100
0000
0000
0110
0000
,
3013
0000
0000
0011
0000
0000
0000
0000
1010
0000
0000
0101
0000
0000
0000
0000
,
0011
0000
0000
1010
0000
0000
0000
0000
0011
0000
0000
1010
0000
0000
0000
0000
,
2002
0020
0203
3002
2000
0030
0010
0320
,
0103
3001
2002
3100
0103
0001
0200
1331
,
1000
0100
1000
0100
2000
3000
0200
0300
0002
0003
0020
0030
0002
0003
0000
0000
,
0100
1000
0100
0010
0200
0300
0002
0003
2000
3000
0200
0300
0002
0003
0000
0000
,
0100
0010
0001
0010
0100
0010
0100
1000
0100
1000
0001
1000
0001
1000
0010
0100
,
0010
0001
0100
0001
1000
0001
1000
0001
0200
0300
0020
0030
0200
0300
0000
0000
,
0010
0100
0001
1000
0220
0000
0001
0330
2200
0000
0010
3300
0002
0000
0003
0000
,
0001
0010
0100
0010
2000
0000
0100
0000
0002
0000
3023
0000
1100
0000
0030
0000
,
0100
0010
0100
1000
0100
0010
0001
0010
0001
0100
0010
0001
0100
0010
0100
0000
,
0010
0100
1000
0100
0010
0100
0010
1000
0010
0100
0010
0001
0100
1000
0011
0000
,
0010
0001
0100
0010
0001
0010
0100
1000
0001
0010
0100
0010
0100
1000
0100
0001
,
0010
0100
0010
0001
0100
0010
1000
0100
0001
0010
0100
0010
0100
0001
1000
0000
,
0010
0100
1000
0010
1000
0100
0001
0010
0100
1000
0001
0010
0100
0010
0100
1000
,
0010
0000
0000
0100
2000
0000
3022
0000
2000
3030
0220
0000
2030
0000
0300
3003
,
2020
0000
0000
0000
0000
0000
0202
0000
3000
0030
0303
0000
0102
0000
0000
0000
,
0220
0000
0000
0000
0030
0000
2010
0000
0000
0300
0003
3000
0002
0000
0000
0000
,
2010
0000
0003
0000
0000
0000
0002
3000
0000
0000
0000
0000
2200
3003
0300
0000
,
0020
0000
0000
0000
0000
0000
2001
0030
0000
3000
0000
0000
1020
0000
0000
0030
,
0101
0000
2000
0000
0020
0000
0001
0000
0001
0030
0002
0000
0100
0003
3000
0000
,
0000
0000
0002
0000
0010
0000
2100
0000
0010
0000
0103
0000
0102
3000
0000
0003
,
0000
0000
0220
0000
1000
0000
0001
0000
2001
0000
0331
0000
0021
0030
0000
3000
,
0000
0000
2001
0000
0021
0000
0002
3000
0100
0030
1003
0000
2221
0030
0300
3000
,
0000
0000
0001
0010
0100
0000
1000
0000
0100
0000
0010
1000
0001
0000
0000
0000
,
0000
0001
0010
0100
0001
0010
0100
0000
,
0000
0000
1000
0001
0100
0000
0010
1000
0100
0000
0010
0100
0001
0000
0001
0000
,
0001
0000
0001
0100
0010
0001
0100
0010
0100
0000
0001
0000
0001
0000
0000
0000
,
0000
1001
0101
0011
0001
0101
0101
0000
,
0000
0101
0110
0101
1100
0110
1100
0000
,
0000
1002
0103
2010
3001
0102
1003
0000
,
0000
0000
0000
1000
0000
0000
0010
0000
0000
0100
0000
0000
0001
0000
0000
0100
0000
0000
0000
0000
0002
0000
0000
0000
,
0000
0000
0000
0000
,
1000
0000
0000
0000
0000
0000
0000
0000
0000
0010
0000
0000
0000
0000
0000
0000
0000
1003
0000
0000
0000
0000
0000
2000
,
0000
0000
0000
0000
3000
0000
0000
0000
0000
0000
0000
0000
0000
0000
0000
0000
0000
0000
0011
0000
0000
0000
0000
0000
0000
0000
0000
0000
0000
0000
0000
0000
0000
0000
0000
0000
0000
0000
0000
1100
0000
0000
0000
0000
0000
0000
0000
0000
,
0012
1000
0010
1003
2010
0001
0100
3010
,
0101
0000
0000
2020
0000
0000
0000
0001
0000
3000
0000
0000
,
0000
0000
0000
0000
0002
0000
0130
0000
0020
0000
0200
0000
2000
0303
0000
3030
,
0000
2200
0000
0000
0000
0000
0000
0000
0000
0000
0000
0000
0000
0000
0000
0000
0000
0000
0000
0000
0000
0000
0000
0000
0000
0000
0000
0000
0000
0000
0000
0000
0000
0000
0000
0000
0000
0000
0000
0000
0000
0000
0000
0000
0000
0000
0000
0000
,
3300
0001
0001
0001
0000
1000
1000
1000
,
1001
0000
2000
0000
0000
0002
0000
0000
,
0100
0000
0000
0010
0000
0000
0000
0000
,
0010
0000
0000
0110
0000
0000
0000
0000
,
3013
1000
0100
0010
0001
0010
0100
1000
,
0100
0001
0010
0100
0010
1000
0002
0000
0000
0000
0000
0000
0000
0000
0000
0000
,
2000
0000
0000
0010
3010
0010
0000
0010
,
0200
0000
0000
1000
1000
1000
0003
1000
,
0301
0001
0011
0101
0110
0101
1010
0110
,
0011
0000
0000
1111
1000
1000
1000
0000
,
0001
0010
0100
0010
0100
0000
1000
0000
0100
0000
0010
0000
0001
0000
0001
0000
,
0010
0100
0010
0100
0010
0000
1000
0000
0001
0000
0110
0000
1001
0000
0000
0000
,
0000
0000
0000
0010
0100
0000
2000
0000
0011
0000
0101
0000
3011
0000
0000
0000
,
0000
0000
0000
0100
0102
0000
2003
0000
3020
0000
2100
0000
3031
0000
0000
0000
,
0000
0000
0000
0110
2100
0000
3011
0000
0210
0000
1002
0000
1010
0300
0003
0000
,
0000
0000
0000
1100
0011
0000
1010
0000
0011
0000
1100
0000
0011
0000
0000
0000
,
0000
0000
0000
1002
0110
0000
1100
0003
1100
0000
0110
0000
1001
0000
0000
0000
;

//---------------dance-single - ----------------
#NOTES:
     dance-single:
     :
     Challenge:
     10:
     0.577,0.663,0.638,0.697,0.656,454.000,108.000,118.000,449.000,75.000:
1000
0000
0000
0001
0000
0000
0000
0000
0001
0000
0000
1000
0000
0000
0000
0000
,
0100
0000
0000
0010
0000
0000
0000
0000
0010
0000
0000
0100
0000
0000
0010
0000
,
0000
1100
0010
0001
0100
1000
0001
0000
0000
0110
1000
0100
0001
0010
1000
0000
,
0000
1000
0001
1100
0010
0100
0001
0000
0000
1000
0011
1000
0100
0010
1000
0000
,
0102
0000
0000
1103
0000
0000
0000
0000
0021
0000
0000
0131
0000
0000
0000
0000
,
2100
0000
0000
3101
0000
0000
0000
0000
0101
0000
1100
0010
0001
0010
0100
1000
,
0000
0000
0000
0000
0000
0220
0330
0000
0000
0000
0000
0022
0000
0000
0000
0000
0000
0000
0000
0000
0000
0033
0000
0000
,
2000
3000
MMMM
0022
0000
0000
0033
MMMM
0202
0303
MMMM
2200
0000
0000
0000
3300
,
MMM2
MMM0
MM20
MM00
MM00
MM00
2M00
0M03
0M3M
3MM0
M100
001M
1M00
0010
010M
0M01
,
2000
0000
0000
0000
0000
0000
0002
0000
0010
0000
0000
0100
0000
0000
0110
0000
,
3013
0000
MMMM
0000
0000
0000
0011
0000
0000
0000
MMMM
0000
MMMM
0000
0000
0000
1010
0000
0000
0MM0
0000
0000
0101
0000
0000
0000
MMMM
0000
MMMM
0000
0000
0000
,
0011
0000
0000
M00M
0000
0000
1010
0000
0000
0000
MMMM
0000
MMMM
0000
0000
0000
0011
0000
0000
0MM0
0000
0000
1010
0000
0000
0000
MMMM
0000
MMMM
0000
0000
0000
,
2002
0020
0203
3002
2000
0030
0010
0320
,
0103
3001
2002
3100
0103
0001
0200
1331
,
1000
0100
1000
0100
2000
3000
0200
0300
0002
0003
0020
0030
0002
0003
0000
0000
,
0100
1000
0100
0010
0200
0300
0002
0003
2000
3000
0200
0300
0002
0003
0000
0000
,
0100
0010
0001
0010
0100
0010
0100
1000
0100
1000
0001
1000
0001
1000
0010
0100
,
0010
0001
0100
0001
1000
0001
1000
0001
0200
0300
0020
0030
0200
0300
0000
0000
,
0010
0100
0001
1000
0220
0000
0001
0330
2200
0000
0010
3300
0002
0000
0003
0000
,
0001
0010
0100
0010
2000
0000
0100
0000
0002
0000
3023
0000
1100
0000
0030
0000
,
0100
0010
0100
1000
0100
0010
0001
0010
0001
0100
0010
0001
0100
0010
0100
0000
,
0010
0100
1000
0100
0010
0100
0010
1000
0010
0100
0010
0001
0100
1000
0011
0000
,
0010
M001
01M0
0M10
0001
M010
01M0
1000
0M01
0010
010M
M010
0100
100M
0100
M001
,
0010
010M
0010
0M01
0100
M010
1000
01M0
0001
M010
0100
001M
0100
0M01
1000
0MM0
,
0010
01MM
100M
0M10
1MM0
0100
0001
MM10
M100
10M0
0MM1
MM10
010M
0010
01MM
1MM0
,
0010
000M
000M
010M
200M
00MM
3022
0000
2000
3030
0220
M000
2030
0000
0300
3MM3
,
2020
0000
0M00
000M
0000
0000
0202
0000
3000
M030
03M3
MMMM
M102
0000
MM00
00M0
,
0220
M000
0000
0000
M030
00M0
2010
0000
00M0
0300
0M00
3MM3
MM02
0M00
0000
00M0
,
2M10
0000
0003
00MM
0000
0M00
00M2
3000
MMM0
0000
0M00
0000
22M0
3003
M30M
0M00
,
0020
M00M
0000
0M00
M00M
0M00
2001
003M
00MM
3MMM
MMMM
MMMM
1M2M
MM0M
MM0M
MM3M
,
M1M1
0000
2000
0000
0020
0000
0001
0000
0001
0030
0002
0000
0100
0003
300M
0000
,
MMMM
MMM0
MM02
M000
M010
M000
2100
0000
0010
0000
0103
00MM
0102
3000
M000
M003
,
MMMM
000M
022M
000M
100M
000M
0001
0000
2001
0000
0331
0MMM
0021
003M
00MM
30M0
,
MMMM
0000
2MM1
0000
0021
000M
0002
3000
M100
0030
1M03
000M
2221
003M
03M0
3M00
,
MMMM
0000
M001
0010
0100
000M
1000
00M0
0100
M000
0010
1000
0M01
0000
M00M
0000
,
00M0
0000
0M01
0000
M010
0000
01M0
0000
0M01
0000
0010
0000
010M
00M0
M000
0M00
,
000M
0000
10M0
0001
010M
0000
0010
1000
0100
0000
0010
0100
0001
0000
0001
0000
,
0001
0000
0001
0100
0010
0001
0100
0010
0100
0000
0001
0000
0001
0000
0000
0000
,
0000
1001
0101
0011
0001
0101
0101
0000
,
MMMM
0000
M1M1
0000
M11M
0000
M1M1
0000
11MM
0000
M11M
0000
11MM
0000
M0M0
0M0M
,
0000
0000
1MM2
00M0
01M3
MMM0
2010
0MMM
3M01
MMM0
01M2
00M0
10M3
00MM
MMM0
0M00
,
0M00
0000
0000
0M00
0000
0000
1M00
0000
0000
0000
0000
0000
001M
0000
0000
0000
0000
0000
01M0
0000
0000
0000
0000
0000
00M1
0000
0000
0000
0000
0000
M100
0000
0000
0000
0000
0000
0000
0000
0000
M000
0002
0000
0M00
0000
0000
M0M0
0000
0000
,
0M00
M0M0
0M00
M0M0
0M00
M0M0
0M00
M0M0
0M00
M0M0
0M00
M0M0
0M00
M0M0
0M00
M0M0
,
1M00
0000
0000
0000
0000
0000
0000
0000
0000
0000
0000
0000
M0M0
0000
0000
0000
0000
0000
0000
0000
0000
0000
0000
0000
0M00
0000
0000
0000
0000
0000
0000
0000
0000
0000
0000
0000
M0M0
0000
0000
0000
0000
0000
0000
0000
0000
0000
0000
0000
0M00
0000
0000
0000
0000
0000
0000
0000
0000
0000
0000
0000
M0M0
0000
0000
0000
0000
0000
0000
0000
0000
0000
0000
0000
0M10
0000
0000
0000
0000
0000
0000
0000
0000
0000
0000
0000
M0M0
0000
0000
0000
0000
0000
0000
0000
0000
0000
0000
0000
0M00
0000
0000
0000
0000
0000
0000
0000
0000
0000
0000
0000
M0M0
0000
0000
0000
0000
0000
0000
0000
0000
0000
0000
0000
0M00
0000
0000
0000
0000
0000
0000
0000
0000
0000
0000
0000
00M0
0000
0000
0000
1003
0000
0000
0000
0000
0000
0000
0000
000M
0000
0000
0000
0000
0000
0000
0000
0000
0000
0000
0000
0000
0000
0000
0000
0000
0000
0MM0
0000
0000
0000
0000
0000
0000
0000
0000
0000
0000
0000
0000
0000
0000
0000
0000
0000
000M
0000
0000
0000
2000
0000
0000
0000
0000
0000
0000
0000
,
0000
0000
0000
0000
3000
0000
0000
0000
0000
0000
0000
0000
0000
0000
0000
0000
0000
0000
0011
0000
0000
0000
0000
0000
0000
0000
0000
0000
0000
0000
0000
0000
0000
0000
0000
0000
0000
0000
0000
1100
0000
0000
0000
0000
0000
0000
0000
0000
,
0012
1000
0010
1003
2010
0001
0100
3010
,
0101
0000
0000
2020
0000
0000
0000
0001
0000
3000
0000
0000
,
0000
0000
0000
0000
0002
0000
0130
00M0
0020
0M00
0200
M000
2000
0303
0M0M
3030
,
00M0
2200
0000
0000
0000
0000
00MM
0000
0000
0000
0000
0000
00MM
0000
0000
0000
0000
0000
00MM
0000
0000
0000
0000
0000
00MM
0000
0000
0000
0000
0000
00MM
0000
0000
0000
0000
0000
00MM
0000
0000
0000
0000
0000
00MM
0000
0000
0000
0000
0000
,
3300
M001
0M01
M001
0000
100M
10M0
100M
,
1MM1
0000
2MMM
0MMM
0MMM
0002
0000
0000
,
01M0
0000
0000
0M10
0000
0000
0000
0000
,
0M10
0000
0000
0110
0000
0000
0000
0000
,
3013
MMMM
1000
0000
0100
0000
0010
0000
0001
0000
0010
0000
0100
0000
1000
0000
,
0100
0001
0010
0100
0010
1000
0002
0M00
0000
0M00
0000
0M00
0000
0M00
0000
0000
,
2000
0000
0000
0000
0000
0000
0010
0000
3010
M000
0010
0000
0000
0000
0010
0000
,
0200
0000
0000
0000
0000
0000
1000
0000
1000
0000
1000
0000
0003
000M
1000
0000
,
0301
MMMM
00M1
00MM
0011
00MM
01M1
00M0
M11M
M000
M101
M0MM
101M
0000
011M
00MM
,
0011
0000
0MM0
M00M
0MM0
0000
1111
0000
1000
0000
1000
0000
1000
0000
0000
0000
,
0001
0010
0100
0010
0100
0000
1000
0000
0100
0000
0010
0000
0001
0000
0001
0000
,
0010
0100
0010
0100
0010
0000
1000
0000
0001
0000
0110
0000
1001
0000
0000
0000
,
0000
0000
0000
0010
0100
0000
2000
0000
0011
0000
0101
0000
3011
0000
0000
0000
,
0000
0000
0000
0100
0102
0000
2003
0000
3020
0000
2100
0000
3031
0000
0000
0000
,
0000
0000
0000
0110
2100
0000
3011
0000
0210
0000
1002
0000
1010
0300
0003
0000
,
MMMM
0000
0000
1100
0011
0000
1010
0000
0011
0000
1100
0000
0011
0000
0000
0000
,
0000
0000
0000
1002
0110
0000
1100
0003
1100
0000
0110
0000
1001
0000
0000
0000
,
MMMM
0000
0000
0000
;
