#TITLE:Here We Go;
#SUBTITLE:;
#ARTIST:Renard;
#TITLETRANSLIT:;
#SUBTITLETRANSLIT:;
#ARTISTTRANSLIT:;
#CREDIT:;
#BANNER:../Jawn - ban.png;
#BACKGROUND:../Jawn - bg.png;
#LYRICSPATH:;
#CDTITLE:;
#MUSIC:Here We Go.OGG;
#OFFSET:0.276;
#SAMPLESTART:37.884;
#SAMPLELENGTH:18.000;
#SELECTABLE:YES;
#DISPLAYBPM:220.000;
#BPMS:0.000=220.500;
#STOPS:;
#BGCHANGES:;
// cache tags:
#FIRSTBEAT:4.000;
#LASTBEAT:316.500;
#SONGFILENAME:Songs/Jimmy Jawns/Here We Go - [Aoreo]/Here We Go.SM;
#HASMUSIC:1;
#HASBANNER:1;
#MUSICLENGTH:87.891;
// end cache tags

//---------------dance-single - J. Nero----------------
#NOTES:
     dance-single:
     J. Nero:
     Challenge:
     17:
     1.000,1.000,0.068,0.193,1.000,957.000,6.000,17.000,0.000,0.000:
0000
0000
0000
0000
,
1000
0010
1000
0001
0100
0001
1000
0100
0010
0001
1000
0001
0100
0010
0100
0001
,
0010
0100
1000
0001
1000
0010
0100
0010
1000
0001
0100
0010
1000
0100
1000
0010
,
1000
0001
0100
0001
1000
0100
0010
0001
1000
0010
0100
0001
1000
0010
1000
0100
,
0010
0001
1000
0001
0010
0100
1000
0001
1000
0100
1000
0010
0100
0001
0010
0001
,
1000
0001
0010
0100
1000
0001
0100
0001
1000
0010
0100
0010
1000
0001
0100
0001
,
0010
0100
0010
0001
1000
0001
0100
0010
0100
0010
1000
0001
0010
0100
1000
0010
,
1000
0000
0000
0000
,
1010
0000
0000
0000
0000
0000
0000
0000
0000
0000
0000
0000
0000
0000
0000
0000
0000
0000
0000
0000
0000
0000
0000
0000
0000
0000
0000
0000
0000
0000
0000
0000
0000
0000
0000
0000
0110
0000
0000
0000
0000
0000
0000
0000
0000
0000
0000
0000
0000
0000
0000
0000
0000
0000
0000
0000
0000
0000
0000
0000
0000
0000
0000
0000
0000
0000
0000
0000
0000
0000
0000
0000
0100
0000
0000
0000
0000
0000
0000
0000
0000
0000
0000
0000
0001
0000
0000
0000
0000
0000
0000
0000
0000
0000
0000
0000
1000
0000
0000
0000
0000
0000
0000
0000
0000
0000
0001
0000
0000
0000
0000
0000
0000
0000
0000
0010
0000
0000
0000
0000
0000
0000
0000
0000
0000
0100
0000
0000
0000
0000
0000
0000
0000
0000
1000
0000
0000
0000
0000
0000
0000
0000
0000
0000
0010
0000
0000
0000
0000
0000
0000
0000
0000
0000
0000
0000
0000
0000
0000
0000
0000
0000
0000
0000
0000
0000
0000
0000
0000
0000
0000
0000
0000
0000
0000
0000
0000
0000
0000
0000
0000
0000
0000
0000
0000
0000
0000
0000
0000
0000
0000
0000
,
1000
0010
1000
0001
0100
0001
1000
0100
0010
0001
1000
0001
0100
0010
1000
0100
,
0010
0001
1000
0001
0100
0010
0100
0001
1000
0001
0010
0001
0100
0010
1000
0100
,
0010
0001
1000
0001
0100
0010
0100
0001
1000
0100
0010
0001
1000
0001
0100
0001
,
0010
0100
1000
0001
0100
0001
1000
0010
1000
0100
0010
0001
0100
0010
1000
0100
,
0010
0001
1000
0001
0100
0010
0100
0001
1000
0001
0010
0100
1000
0001
0100
0001
,
1000
0010
0100
0010
1000
0001
0100
0001
1000
0100
0010
0001
1000
0001
0010
0001
,
0100
0000
0000
0000
,
0001
0000
0100
0000
0004
0003
0000
0000
0040
0030
0000
0000
0400
0300
0000
0000
4000
3000
0000
0000
0040
0030
0000
0000
0220
0000
0330
0000
0000
0000
0000
0000
,
0100
0001
1000
0001
0010
0100
1000
0001
0100
0010
0100
0001
1000
0100
1000
0010
,
0100
0010
1000
0100
0010
0100
1000
0010
0100
0010
1000
0100
0010
0100
1000
0010
,
0100
0001
1000
0100
0010
0001
0100
0010
0100
0001
1000
0001
0010
0100
1000
0001
,
0100
0010
1000
0010
0100
0001
0010
0100
0010
0001
0100
0010
0100
0001
0010
0100
,
1000
0010
0100
0010
1000
0001
0100
0001
0010
0100
1000
0001
1000
0010
0100
0001
,
0010
0100
1000
0001
0100
0010
1000
0001
0010
0100
1000
0010
0100
0001
0010
0100
,
1000
0010
1000
0100
1000
0001
0010
0001
0100
0010
1000
0100
0010
0001
0100
0010
,
0200
0000
0000
0300
0000
0000
0001
0000
0000
0000
0000
0000
0010
0000
0000
0000
0000
0000
0010
0000
0000
0000
0000
0000
0100
0000
1000
0000
0100
0000
1000
0000
0000
0000
0000
0000
0001
0000
1000
0000
0001
0000
1000
0000
0000
0000
0000
0000
,
0001
0100
0000
0010
1000
1000
0001
0100
,
0001
0000
0010
0000
0100
0000
1000
0001
1000
0000
0010
0000
0100
0000
0000
0000
,
0002
0003
0000
0000
0002
0003
0000
0000
1000
0000
0100
0000
0010
0000
0100
0000
,
1000
0000
0010
0000
0100
0000
0001
1000
0001
0010
0100
1000
0040
0030
0000
0000
,
1000
0100
1000
0010
0100
0100
0001
0010
,
0100
0000
1000
0000
0010
0000
0100
0001
0100
0000
0001
0000
0010
0000
0000
0000
,
0200
0300
0000
0000
0200
0300
0000
0000
1000
0000
0100
0000
0010
0000
0100
0000
,
1000
0000
0010
0000
0100
0000
0001
1000
0001
0010
0100
1000
0040
0030
0000
0000
,
2020
3030
0000
0000
0000
0000
0000
0000
,
1000
0100
1000
0010
1000
0001
0100
0001
0010
0001
0100
0010
1000
0000
0000
0000
,
0001
0100
0001
1000
0010
0100
0010
1000
0001
0100
0010
0100
0001
1000
0100
1000
,
0010
1000
0001
0100
0001
1000
0100
0010
0001
1000
0001
0010
0100
1000
0010
0100
,
0010
1000
0001
1000
0010
0100
0010
1000
0001
0010
0100
0010
0001
1000
0010
0100
,
0001
0010
0001
1000
0001
0100
0010
0100
0001
0010
0001
0100
0010
1000
0100
1000
,
0010
0100
0010
1000
0001
0100
0001
1000
0100
0010
0001
1000
0010
1000
0001
1000
,
0010
0100
0001
1000
0100
0010
0001
1000
0010
0100
0010
1000
0001
0010
0100
1000
,
0010
0000
0000
0000
,
1000
0000
0100
0000
4000
3000
0000
0000
0100
0000
0000
0000
0010
0000
0000
0000
0100
0000
0000
0000
1000
0000
0000
0000
2002
0000
3003
0000
0000
0000
0000
0000
,
1001
0000
0000
0000
,
0001
0100
0010
1000
0100
1000
0010
0100
0001
0010
0001
0100
0010
1000
0100
0010
,
0001
1000
0001
0100
0010
0100
0001
1000
0001
0010
0001
0100
0010
1000
0100
1000
,
0010
1000
0001
0100
0001
0010
0100
1000
0010
1000
0001
0100
0010
0100
0001
1000
,
0100
1000
0010
1000
0001
0100
0001
0010
0100
1000
0010
1000
0001
0010
0100
1000
,
0010
0100
0010
1000
0100
0010
0001
1000
0010
0100
0001
0010
0001
0100
0010
1000
,
0100
1000
0001
0100
0001
1000
0100
1000
0010
0100
0010
1000
0100
0010
0001
0100
,
0001
0010
0001
1000
0010
1000
0100
0010
0001
1000
0010
0100
0010
1000
0100
1000
,
0010
1000
0001
0010
0100
1000
0010
0100
0001
0100
0001
1000
0100
0010
0001
1000
,
0002
0000
0000
0000
0000
0000
0000
0000
1003
0100
1000
0001
0100
0001
0010
0100
,
1000
0010
0100
0001
0010
0100
1000
0001
0100
0010
0100
0001
1000
0100
1000
0010
,
0100
0001
1000
0100
1000
0010
0100
0001
0010
0100
1000
0010
1000
0001
0100
0010
,
0100
0001
0010
0001
0100
0010
0100
0001
1000
0100
0010
0001
1000
0010
1000
0010
,
0100
0001
0010
0100
1000
0010
1000
0001
0100
0010
1000
0100
1000
0010
0100
0001
,
0010
0100
0010
0100
1000
0010
1000
0100
1000
0001
0100
0001
0010
0001
1000
0100
,
0010
0100
1000
0010
0100
0010
1000
0100
0010
0001
0100
0001
0010
0100
1000
0010
,
0100
0001
1000
0100
0010
0001
1000
0010
0100
0010
1000
0001
0100
0001
0010
0100
,
1000
0001
0100
0010
0100
0001
0010
0100
1000
0010
0100
0000
0000
0000
0000
0000
,
0000
0000
0000
0000
,
0000
0000
0000
0000
0001
0100
0000
0010
,
1000
0000
1000
0000
0001
0000
0100
0000
0001
0000
0010
0000
0100
0000
1000
0001
,
1000
0000
0010
0000
0100
0000
0000
0000
0002
0003
0000
0000
0002
0003
0000
0000
,
1000
0000
0100
0000
0010
0000
0100
0000
1000
0000
0010
0000
0100
0000
0001
1000
,
0001
0010
0100
1000
0040
0030
0000
0000
1000
0000
0100
0000
1000
0000
0010
0000
,
0100
0000
0100
0000
0001
0000
0010
0000
0100
0000
1000
0000
0010
0000
0100
0001
,
0100
0000
0001
0000
0010
0000
0000
0000
0200
0300
0000
0000
0200
0300
0000
0000
,
1000
0000
0100
0000
0010
0000
0100
0000
1000
0000
0010
0000
0100
0000
0001
1000
,
0001
0010
0100
1000
0040
0030
0000
0000
0100
0001
1000
0001
0010
0100
1000
0001
,
0100
0010
0100
0001
1000
0100
1000
0010
0100
0010
1000
0100
0010
0100
1000
0010
,
0100
0010
1000
0100
0010
0100
1000
0010
0100
0001
1000
0100
0010
0001
0100
0010
,
0100
0001
1000
0001
0010
0100
1000
0001
0100
0010
1000
0010
0100
0001
0010
0100
,
0010
0001
0100
0010
0100
0001
0010
0100
1000
0010
0100
0010
1000
0001
0100
0001
,
0010
0100
1000
0001
1000
0010
0100
0001
0010
0100
1000
0001
0100
0010
1000
0001
,
0010
0100
1000
0010
0100
0001
0010
0100
1000
0010
1000
0100
1000
0001
0010
0001
,
0100
0010
1000
0100
0010
0001
0100
0010
1000
0000
0010
0000
0010
0000
1000
0000
,
0001
0100
0001
0100
0000
0000
0001
1000
0001
1000
0000
0000
0002
0000
0000
0000
0000
0000
0000
0000
0000
0000
0000
0000
,
0000
0003
0000
0000
0000
0000
0000
0000
;
