#TITLE:D Gang;
#SUBTITLE:;
#ARTIST:Banya;
#TITLETRANSLIT:;
#SUBTITLETRANSLIT:;
#ARTISTTRANSLIT:;
#CREDIT:;
#BANNER:dgang.png;
#BACKGROUND:dgang-bg.png;
#LYRICSPATH:;
#CDTITLE:seanhtitle.png;
#MUSIC:D Gang(150) (master).mp3;
#OFFSET:-0.055;
#SAMPLESTART:5.580;
#SAMPLELENGTH:11.580;
#SELECTABLE:YES;
#BPMS:0.000=150.000;
#STOPS:169.500=0.800
,183.500=0.800
;
#BGCHANGES:;
// cache tags:
#FIRSTBEAT:16.000;
#LASTBEAT:224.000;
#SONGFILENAME:Songs/Community Keyboard Megapack - Volume 2/(SeanH) D Gang/dgang.sm;
#HASMUSIC:1;
#HASBANNER:1;
#MUSICLENGTH:95.172;
// end cache tags

//---------------dance-single - ----------------
#NOTES:
     dance-single:
     :
     Hard:
     8:
     0.503,0.500,0.200,0.053,0.021,311.000,19.000,5.000,0.000,0.000:  // measure 1
0000
0000
0000
0000
,  // measure 2
0000
0000
0000
0000
,  // measure 3
0000
0000
0000
0000
,  // measure 4
0000
0000
0000
0000
,  // measure 5
1000
0001
1000
0010
0100
0001
0100
0010
,  // measure 6
1000
0100
0010
0001
1000
0001
0001
0000
,  // measure 7
0100
0010
0100
0001
1000
0010
1000
0001
,  // measure 8
0100
0010
1000
0001
0100
0010
0010
0000
,  // measure 9
0001
1000
0001
0100
0010
1000
0010
0100
,  // measure 10
0001
1000
0100
0010
0001
1000
1000
0000
,  // measure 11
0010
1000
0001
0100
0010
1000
0001
0100
,  // measure 12
0001
0100
0010
1000
0001
0100
0100
0000
,  // measure 13
1001
0000
1001
0000
1000
0001
1000
0000
,  // measure 14
0110
0000
0110
0000
0010
0100
0010
0000
,  // measure 15
1000
0100
0010
0001
1000
0100
0010
0001
,  // measure 16
1000
0010
0100
0001
1000
0001
0001
0000
,  // measure 17
1100
0000
0000
0011
0000
0000
0000
0000
,  // measure 18
1000
1000
1000
1000
1000
1000
1000
0000
,  // measure 19
0101
0000
0000
1010
0000
0000
0000
0000
,  // measure 20
0001
0001
0001
0001
0001
0001
0001
0000
,  // measure 21
0100
0100
0001
1000
0010
0100
0001
0000
,  // measure 22
0100
0100
0001
1000
0010
0000
0000
0000
,  // measure 23
0010
0010
1000
0001
0100
0010
1000
0000
,  // measure 24
0010
0010
1000
0001
0100
0000
0000
0000
,  // measure 25
2000
0000
0000
3000
,  // measure 26
0020
0000
0000
0030
,  // measure 27
1001
0000
0000
1100
0000
0000
1010
0000
,  // measure 28
0101
1010
1100
1001
,  // measure 29
0100
0001
0010
0001
1000
0100
0010
0100
,  // measure 30
1000
0001
0010
0100
1000
0001
0001
0001
,  // measure 31
1000
0010
0100
0001
1000
0100
1000
0001
,  // measure 32
0100
0010
1000
0001
0100
0010
0010
0000
,  // measure 33
1000
0010
0100
0010
1000
0001
0010
0001
,  // measure 34
0100
0010
1000
0001
0100
0010
0010
0010
,  // measure 35
0100
0001
1000
0010
0100
0001
1000
0010
,  // measure 36
1000
0001
0010
0100
1000
0001
0001
0000
,  // measure 37
0100
0010
1000
0100
1000
0001
0010
0100
,  // measure 38
0010
0100
1000
0001
0000
0000
0000
0000
,  // measure 39
1000
0001
1000
0001
0100
0010
0100
0001
,  // measure 40
1000
0001
1000
0010
0010
0000
0000
2002
,  // measure 41
0000
0000
0000
3003
,  // measure 42
1000
0010
1000
0010
0100
0001
0100
0001
,  // measure 43
1000
0100
0010
0001
0010
0100
0010
0100
,  // measure 44
0001
1000
0001
1000
0001
0010
0100
1000
,  // measure 45
0000
0000
0000
0000
1000
0010
1000
0010
,  // measure 46
0100
0001
0100
0001
1000
0100
0010
0001
,  // measure 47
0010
0100
0010
0100
0001
1000
0001
1000
,  // measure 48
0001
0010
0100
1000
0000
0000
0000
0000
,  // measure 49
1000
0001
0100
0010
1000
0010
0100
0000
,  // measure 50
0001
0010
0100
1000
0100
0000
0000
0000
,  // measure 51
0010
1000
0010
0100
0001
1000
0001
0100
,  // measure 52
0010
1000
0100
0010
0001
1000
1000
1000
,  // measure 53
2000
0000
0000
0000
,  // measure 54
0000
0000
0000
3000
,  // measure 55
1000
0000
0010
0000
0100
0000
0001
0000
0010
0000
0100
0000
,  // measure 56
1000
0000
1001
0000
0000
0110
0000
0000
,  // measure 57
1001
0000
0000
0000
;

//---------------dance-single - ----------------
#NOTES:
     dance-single:
     :
     Challenge:
     10:
     0.725,0.883,0.399,0.053,0.609,440.000,38.000,5.000,0.000,0.000:  // measure 1
0000
0000
0000
0000
,  // measure 2
0000
0000
0000
0000
,  // measure 3
0000
0000
0000
0000
,  // measure 4
0000
0000
0000
0000
,  // measure 5
1000
0000
0100
0000
0010
0001
0010
0000
0100
0000
1000
0000
0100
0010
0100
0000
,  // measure 6
1000
0000
0100
0000
1000
0001
1000
0000
0010
0000
0010
0000
1001
0000
0000
0000
,  // measure 7
0100
0000
0010
0000
0100
0001
0100
0000
1000
0000
0010
0100
0010
0100
0010
0000
,  // measure 8
1000
0000
0001
0000
1000
0010
1000
0000
0100
0000
0100
0000
1001
0000
0000
0000
,  // measure 9
0001
0000
1000
0000
0001
0100
0001
0000
0010
0000
1000
0000
0001
0100
0001
0000
,  // measure 10
1000
0000
0100
0000
1000
0100
1000
0000
0001
0000
0001
0000
1100
0000
0000
0000
,  // measure 11
0010
0000
1000
0000
0001
0100
0001
0000
1000
0000
0010
1000
0010
1000
0010
0000
,  // measure 12
0100
0000
0001
0000
0010
0001
0010
0000
0001
0000
0001
0000
1010
0000
0000
0000
,  // measure 13
1001
0000
0100
0010
1000
0001
0100
0000
1000
0000
0001
0000
1001
0000
0000
0000
,  // measure 14
0110
0000
1000
0001
0100
0010
1000
0000
0010
0000
0100
0000
0110
0000
0000
0000
,  // measure 15
1000
0010
0100
0010
1000
0001
0100
0010
1000
0100
0010
0001
1000
0010
0100
0001
,  // measure 16
1000
0100
1000
0100
0010
0001
0010
0001
1000
0000
1000
0000
0101
0000
0000
0000
,  // measure 17
1100
0000
0000
0011
0000
0000
0000
0000
,  // measure 18
1000
0001
1000
0010
1000
0100
1000
0001
1000
0010
1000
0100
1000
0000
0000
0000
,  // measure 19
0101
0000
0000
1010
0000
0000
0000
0000
,  // measure 20
0001
1000
0001
0100
0001
0010
0001
1000
0001
0100
0001
0010
0001
0000
0000
0000
,  // measure 21
0100
0100
0001
1000
0010
0100
0001
1000
,  // measure 22
0100
0100
0001
0100
1001
0000
0000
0000
,  // measure 23
0010
0010
1000
0001
0100
0010
1000
0001
,  // measure 24
0010
0010
1000
0010
1001
0000
0000
0000
,  // measure 25
2000
0001
0010
3001
,  // measure 26
0020
1000
0001
1030
,  // measure 27
1001
0000
0000
0000
0000
0000
1100
0000
0000
0000
0000
0000
1000
0100
1000
0000
,  // measure 28
0001
0010
0001
0000
1000
0100
1000
0100
1000
0000
0000
0000
1001
0000
0000
0000
,  // measure 29
0100
0010
0001
0000
1000
0100
0010
0000
0001
0000
0100
0000
0010
0100
0001
0000
,  // measure 30
1000
0100
0010
0000
0001
0100
0010
0000
1000
0000
0100
0000
0100
0000
0100
0000
,  // measure 31
1000
0001
1000
0000
0100
0010
0001
0000
1000
0000
0001
0010
0001
1000
0001
0000
,  // measure 32
0100
0010
1000
0000
1000
0010
0100
0000
0001
0000
0001
0000
0110
0000
0000
0000
,  // measure 33
1000
0001
0100
0000
0100
0001
1000
0000
0010
0000
0100
0000
0001
1000
0010
0000
,  // measure 34
0100
0001
1000
0000
1000
0100
0010
0000
0100
0000
0010
0000
0010
0000
0010
0000
,  // measure 35
1000
0010
0100
0000
0001
0100
0010
0000
1000
0000
0001
0100
0001
0010
0001
0000
,  // measure 36
1000
0100
0001
0000
1000
0010
0001
0000
0010
0000
0010
0000
0101
0000
0000
0000
,  // measure 37
0001
0000
0001
0000
1000
0100
0010
0000
0001
0000
0001
0000
0010
0100
1000
0000
,  // measure 38
0010
0100
1001
0110
0000
0000
0000
0000
,  // measure 39
1000
0010
1000
0010
0100
0001
0100
0001
1000
0001
1000
0001
0100
0010
0100
0010
,  // measure 40
1000
0100
0010
0001
1000
0000
0010
0000
0010
0000
0000
0000
0000
0000
2002
0000
,  // measure 41
0000
0000
0000
3003
,  // measure 42
1000
0000
0010
0000
1000
0010
1000
0000
0001
0100
0010
1000
0001
0100
0001
0000
,  // measure 43
1000
0000
0100
0000
0110
0000
1001
0000
0010
0000
0100
0000
0010
0100
0010
0000
,  // measure 44
1000
0100
0010
0100
1000
0001
1000
0000
0001
0000
0010
0000
0100
0000
1000
0000
,  // measure 45
0000
0000
0000
0000
0000
0000
0000
0000
0001
0000
1000
0000
0100
0010
0001
0000
,  // measure 46
0100
0010
1000
0001
1000
0010
0100
0000
1000
0000
0100
0000
0110
0000
1001
0000
,  // measure 47
0100
0000
0001
0000
0010
0100
1000
0000
0001
0010
0100
1000
0100
0010
0001
0000
,  // measure 48
0100
0010
0100
1001
0000
0000
0000
0000
,  // measure 49
1000
0000
1000
0000
0001
0010
0100
0010
0001
0000
0100
0000
0100
0000
0000
0000
,  // measure 50
0001
0000
0001
0000
1000
0100
0010
0100
1000
0000
0010
0000
0010
0000
0000
0000
,  // measure 51
0010
1000
0001
0100
0010
1000
0100
0010
0001
0100
0010
1000
0001
0100
0010
1000
,  // measure 52
0010
0100
0001
1000
0100
0010
0001
1000
0001
0000
1000
0000
1000
0000
1000
0000
,  // measure 53
2000
0000
0000
0000
,  // measure 54
0000
0000
0000
3000
,  // measure 55
1010
0000
0011
0000
0110
0000
0101
0000
1100
0000
0110
0000
,  // measure 56
1001
0000
1100
0000
0000
0110
0000
0000
,  // measure 57
1001
0000
0000
0000
;

//---------------dance-single - ----------------
#NOTES:
     dance-single:
     :
     Medium:
     7:
     0.405,0.441,0.158,0.053,0.021,250.000,15.000,5.000,0.000,0.000:  // measure 1
0000
0000
0000
0000
,  // measure 2
0000
0000
0000
0000
,  // measure 3
0000
0000
0000
0000
,  // measure 4
0000
0000
0000
0000
,  // measure 5
1000
0000
0001
0000
1000
0100
0010
0001
,  // measure 6
1000
0010
0100
0001
0000
0000
0000
0000
,  // measure 7
0100
0000
0010
0000
0100
0010
1000
0001
,  // measure 8
1000
0100
0010
0001
0000
0000
0000
0000
,  // measure 9
0001
1000
0001
0100
0010
0000
0010
0000
,  // measure 10
1000
0001
0100
0010
1000
0000
0000
0000
,  // measure 11
0001
0100
0010
1000
0100
0010
0001
0000
,  // measure 12
1000
0001
0100
0010
1000
0000
0000
0000
,  // measure 13
0100
1001
0010
1001
,  // measure 14
1000
0100
1000
0001
0000
0000
0000
0000
,  // measure 15
1000
0100
0010
0001
0010
0100
1000
0001
,  // measure 16
1000
0010
0100
0000
0000
0000
0000
0000
,  // measure 17
1100
0000
0000
0110
0000
0000
0000
0000
,  // measure 18
1000
1000
1000
1000
,  // measure 19
0101
0000
0000
1100
0000
0000
0000
0000
,  // measure 20
0001
0001
0001
0001
,  // measure 21
0100
0000
0001
0000
1000
0100
1000
0000
,  // measure 22
0001
0010
0001
1000
0001
0000
0000
0000
,  // measure 23
0010
0000
1000
0000
0001
0100
0001
0000
,  // measure 24
0010
1000
0010
0100
0010
0000
0000
0000
,  // measure 25
2000
0000
0000
3000
,  // measure 26
0020
0000
0000
0030
,  // measure 27
1001
0000
0000
0110
0000
0000
1001
0000
,  // measure 28
0100
0010
0110
0110
,  // measure 29
1000
0001
0010
0001
1000
0100
0010
0000
,  // measure 30
1000
0001
0010
0100
1000
0000
1000
0000
,  // measure 31
0001
0010
0100
0010
0001
0010
0100
0000
,  // measure 32
1000
0010
1000
0010
0100
0000
0000
0000
,  // measure 33
0100
0001
0100
0010
1000
0001
0010
0000
,  // measure 34
0001
0010
0001
1000
0100
0000
0100
0000
,  // measure 35
1000
0010
0100
0001
0100
0001
1000
0000
,  // measure 36
0001
0100
0010
1000
0001
0000
0000
0000
,  // measure 37
0100
0010
0100
0010
1000
0001
0010
0100
,  // measure 38
1000
0100
0010
0001
0000
0000
0000
0000
,  // measure 39
1000
0001
1000
0001
0100
0010
0100
0010
,  // measure 40
1000
0001
1000
0001
1000
0000
0000
2002
,  // measure 41
0000
0000
0000
3003
,  // measure 42
1000
0000
1000
0000
0001
0010
0001
0000
,  // measure 43
1000
0100
1000
0100
0001
0000
0001
0000
,  // measure 44
0100
0010
0100
0000
0001
0010
0100
1000
,  // measure 45
0000
0000
0100
0100
,  // measure 46
0001
0010
0001
0000
1000
0100
1000
0100
,  // measure 47
0001
0000
0010
0000
0100
0010
1000
0000
,  // measure 48
0001
0010
0100
1000
0000
0000
0000
0000
,  // measure 49
1000
0001
1000
0010
1000
0100
1000
0000
,  // measure 50
0001
0010
0001
0010
0000
0000
0000
0000
,  // measure 51
0001
1000
0001
0100
0001
0010
0001
0000
,  // measure 52
1000
0100
0010
0001
1000
0000
1000
0000
,  // measure 53
2000
0000
0000
0000
,  // measure 54
0000
0000
0000
3000
,  // measure 55
1000
0000
0010
0000
0100
0000
0001
0000
0010
0000
0100
0000
,  // measure 56
1000
0000
1001
0000
0000
0110
0000
0000
,  // measure 57
1001
0000
0000
0000
;

//---------------dance-single - ----------------
#NOTES:
     dance-single:
     :
     Easy:
     4:
     0.267,0.294,0.095,0.053,0.000,164.000,9.000,5.000,0.000,0.000:  // measure 1
0000
0000
0000
0000
,  // measure 2
0000
0000
0000
0000
,  // measure 3
0000
0000
0000
0000
,  // measure 4
0000
0000
0000
0000
,  // measure 5
1000
0010
0100
0001
,  // measure 6
1000
0001
1000
0000
,  // measure 7
0100
0010
0100
0010
,  // measure 8
1000
0010
1000
0000
,  // measure 9
0001
1000
0010
0100
,  // measure 10
0001
0100
1000
0000
,  // measure 11
0001
0010
1000
0010
,  // measure 12
0001
1000
0001
0000
,  // measure 13
0100
0100
0010
0010
,  // measure 14
1000
0001
1000
0000
,  // measure 15
1000
0100
0010
0001
,  // measure 16
1000
0010
1000
0000
,  // measure 17
0100
0000
0000
0110
0000
0000
0000
0000
,  // measure 18
1000
0000
0000
0000
,  // measure 19
0001
0000
0000
1001
0000
0000
0000
0000
,  // measure 20
0001
0000
0000
0000
,  // measure 21
0100
0001
1000
0010
,  // measure 22
0100
0001
1000
0000
,  // measure 23
0010
1000
0001
0010
,  // measure 24
0001
1000
0010
0000
,  // measure 25
2000
0000
0000
3000
,  // measure 26
0020
0000
0000
0030
,  // measure 27
1001
0000
0000
1001
,  // measure 28
0110
0000
0000
0000
,  // measure 29
1000
0010
1000
0010
,  // measure 30
1000
0000
0001
0000
1000
0001
1000
0000
,  // measure 31
0001
0100
0001
0100
,  // measure 32
0001
1000
0001
0000
,  // measure 33
0100
0010
0100
0010
,  // measure 34
0100
0000
0001
0000
1000
0001
1000
0000
,  // measure 35
0100
0001
0100
0001
,  // measure 36
0100
0010
1000
0000
,  // measure 37
0100
0100
0001
0001
,  // measure 38
1000
1000
1000
0000
,  // measure 39
1000
0100
1000
0010
,  // measure 40
1000
0000
0001
0000
1000
0000
0000
2002
,  // measure 41
0000
0000
0000
3003
,  // measure 42
1000
1000
0001
0001
,  // measure 43
1000
0000
0100
1000
0001
0000
0001
0000
,  // measure 44
0010
0010
0001
0100
,  // measure 45
1000
0000
0100
0100
,  // measure 46
0001
0000
0001
0000
1000
0000
1000
0100
,  // measure 47
0001
0001
1000
1000
,  // measure 48
0001
0100
1000
0000
,  // measure 49
0010
0001
0010
0001
,  // measure 50
0010
0001
1000
0000
,  // measure 51
0001
1000
0001
1000
,  // measure 52
0100
0010
0001
1000
,  // measure 53
2000
0000
0000
0000
,  // measure 54
0000
0000
0000
3000
,  // measure 55
1000
0000
0001
0000
,  // measure 56
1000
0000
1001
0000
0000
0110
0000
0000
,  // measure 57
1001
0000
0000
0000
;
