#TITLE:猫鍋;
#SUBTITLE:;
#ARTIST:再生ハイパーべるーヴ;
#TITLETRANSLIT:Nekonabe;
#SUBTITLETRANSLIT:;
#ARTISTTRANSLIT:saisei hyperberoove;
#CREDIT:;
#BANNER:nekonabe.png;
#BACKGROUND:nekonabe-bg.png;
#LYRICSPATH:nekonabe.lrc;
#CDTITLE:cdtitle.png;
#MUSIC:nekonabe.mp3;
#OFFSET:-0.060;
#SAMPLESTART:27.420;
#SAMPLELENGTH:12.000;
#SELECTABLE:YES;
#BPMS:0.000=140.000;
#STOPS:;
#BGCHANGES:;
// cache tags:
#FIRSTBEAT:0.063;
#LASTBEAT:280.625;
#SONGFILENAME:Songs/Japanese Collaboration Mix/nekonabe/nekonabe.sm;
#HASMUSIC:1;
#HASBANNER:1;
#MUSICLENGTH:123.585;
// end cache tags

//---------------dance-single - ----------------
#NOTES:
     dance-single:
     :
     Challenge:
     15:
     1.000,1.000,1.000,1.000,1.000,539.000,139.000,200.000,1358.000,0.000:
0000
1010
0000
0000
0000
0000
0000
0000
0000
0000
0000
0000
0000
0000
0000
0000
0000
1010
0000
0000
0000
0000
0000
0000
0000
0000
0000
0000
0000
0000
0000
0000
0000
0101
0000
0000
0000
0000
0000
0000
0000
0000
0000
0000
0000
0000
0000
0000
0000
0101
0000
0000
0000
0000
0000
0000
0000
0000
0000
0000
0000
0000
0000
0000
,
0000
1010
0000
0000
0000
0000
0000
0000
0000
0000
0000
0000
0000
0000
0000
0000
0000
1010
0000
0000
0000
0000
0000
0000
0000
0000
0000
0000
0000
0000
0000
0000
0000
0101
0000
0000
0000
0000
0000
0000
0000
0000
0000
0000
0000
0000
0000
0000
0000
0101
0000
0000
0000
0000
0000
0000
0000
0000
0000
0000
0000
0000
0000
0000
,
0000
1010
0000
0000
0000
0000
0000
0000
0000
0100
0000
0000
0000
0000
0000
0000
0000
1010
0000
0000
0000
0000
0000
0000
0000
0000
0000
0000
0000
0000
0000
0000
0000
0101
0000
0000
0000
0000
0000
0000
0000
0010
0000
0000
0000
0000
0000
0000
0000
0101
0000
0000
0000
0000
0000
0000
0000
0000
0000
0000
0000
0000
0000
0000
,
0000
1010
0000
0000
0000
0000
0000
0000
0000
0100
0000
0000
0000
0000
0000
0000
0000
1010
0000
0000
0000
0000
0000
0000
0000
0000
0000
0000
0000
0000
0000
0000
0000
0101
0000
0000
0000
0000
0000
0000
0000
0010
0000
0000
0000
0000
0000
0000
0000
0101
0000
0000
0000
0000
0000
0000
0000
0000
0000
0000
0000
0000
0000
0000
,
2000
3000
0000
0000
0000
0000
0000
0000
0220
0330
0000
0000
0000
0000
0000
0000
0002
0003
0000
0000
0000
0000
0000
0000
0220
0330
0000
0000
0000
0000
0000
0000
2000
3000
0000
0000
0000
0000
0000
0000
0220
0330
0000
0000
0000
0000
0000
0000
0002
0003
0000
0000
0000
0000
0000
0000
0220
0330
0000
0000
0000
0000
0000
0000
,
2000
3000
0000
0000
0000
0000
0000
0000
0022
0033
0000
0000
0000
0000
0000
0000
0200
0300
0000
0000
0000
0000
0000
0000
0022
0033
0000
0000
0000
0000
0000
0000
2000
3000
0000
0000
0000
0000
0000
0000
0022
0033
0000
0000
0000
0000
0000
0000
0200
0300
0000
0000
0000
0000
0000
0000
0022
0033
0000
0000
0000
0000
0000
0000
,
2000
3000
0000
0000
0000
0000
0000
0000
0202
0303
0000
0000
0000
0000
0000
0000
0020
0030
0000
0000
0000
0000
0000
0000
0202
0303
0000
0000
0000
0000
0000
0000
2000
3000
0000
0000
0000
0000
0000
0000
0202
0303
0000
0000
0000
0000
0000
0000
0020
0030
0000
0000
0000
0000
0000
0000
0202
0303
0000
0000
0000
0000
0000
0000
,
2020
3030
0000
0000
0000
0000
0000
0000
0200
0300
0000
0000
0000
0000
0000
0000
2020
3030
0000
0000
0000
0000
0000
0000
0200
0300
0000
0000
0000
0000
0000
0000
M11M
0000
0000
0000
0000
0000
0000
0000
0000
0000
0000
0000
0000
0000
0000
0000
1MM1
0000
0000
0000
0000
0000
0000
0000
0000
0000
0000
0000
0000
0000
0000
0000
,
0000
M010
0000
0000
0000
0000
0000
0000
0000
010M
0000
0000
0000
0000
0000
0000
0000
10M0
0000
0000
0000
0000
0000
0000
0000
010M
0000
0000
0000
0000
0000
0000
0000
M010
0000
0000
0000
0000
0000
0000
0000
0M01
0000
0000
0000
0000
0000
0000
0000
M010
0000
0000
0000
0000
0000
0000
0000
010M
0000
0000
0000
0000
0000
0000
,
0000
10M0
0000
0000
0000
0000
0000
0000
0000
010M
0000
0000
0000
0000
0000
0000
0000
M010
0000
0000
0000
0000
0000
0000
0000
0M01
0000
0000
0000
0000
0000
0000
0000
M010
0000
0000
0000
0000
0000
0000
0000
010M
0000
0000
0000
0000
0000
0000
0000
10M0
0000
0000
0000
0000
0000
0000
0000
010M
0000
0000
0000
0000
0000
0000
,
0000
M010
0000
0000
0000
0000
0000
0000
0000
0M01
0000
0000
0000
0000
0000
0000
0000
10M0
0000
0000
0000
0000
0000
0000
0000
010M
0000
0000
0000
0000
0000
0000
0000
10M0
0000
0000
0000
0000
0000
0000
0000
010M
0000
0000
0000
0000
0000
0000
0000
M010
0000
0000
0000
0000
0000
0000
0000
010M
0000
0000
0000
0000
0000
0000
,
0000
10M0
0000
0000
0000
0000
0000
0000
0000
0M01
0000
0000
0000
0000
0000
0000
0000
M010
0000
0000
0000
0000
0000
0000
0000
0M01
0000
0000
0000
0000
0000
0000
0000
M010
0000
0000
0000
0000
0000
0000
0000
0M01
0000
0000
0000
0000
0000
0000
0000
M010
0000
0000
0000
0000
0000
0000
0000
010M
0000
0000
0000
0000
0000
0000
,
0000
M010
0000
0000
0000
0000
0000
0000
0000
0M01
0000
0000
0000
0000
0000
0000
0000
M010
0000
0000
0000
0000
0000
0000
0000
0M01
0000
0000
0000
0000
0000
0000
0000
10M0
0000
0000
0000
0000
0000
0000
0000
010M
0000
0000
0000
0000
0000
0000
0000
10M0
0000
0000
0000
0000
0000
0000
0000
010M
0000
0000
0000
0000
0000
0000
,
0000
M010
0000
0000
0000
0000
0000
0000
0000
010M
0000
0000
0000
0000
0000
0000
0000
M010
0000
0000
0000
0000
0000
0000
0000
010M
0000
0000
0000
0000
0000
0000
0000
10M0
0000
0000
0000
0000
0000
0000
0000
0M01
0000
0000
0000
0000
0000
0000
0000
10M0
0000
0000
0000
0000
0000
0000
0000
0M01
0000
0000
0000
0000
0000
0000
,
0000
1010
0000
0000
0000
0000
0000
0000
0000
010M
0000
0000
0000
0000
0000
0000
0000
1010
0000
0000
0000
0000
0000
0000
0000
0M01
0000
0000
0000
0000
0000
0000
0000
1010
0000
0000
0000
0000
0000
0000
0000
010M
0000
0000
0000
0000
0000
0000
0000
1010
0000
0000
0000
0000
0000
0000
0000
0M01
0000
0000
0000
0000
0000
0000
,
1020
0030
0000
0000
0000
0000
0000
0000
0201
0300
0000
0000
0000
0000
0000
0000
2010
3000
0000
0000
0000
0000
0000
0000
0102
0003
0000
0000
0000
0000
0000
0000
1020
0030
0000
0000
0000
0000
0000
0000
0201
0300
0000
0000
0000
0000
0000
0000
2010
3000
0000
0000
0000
0000
0000
0000
0102
0003
0000
0000
0000
0000
0000
0000
,
0M20
010M
0M01
M100
1M00
010M
0M01
M100
,
1M00
M100
1M00
010M
0M01
M100
1030
0000
,
2002
3003
0000
0000
0000
0000
0000
0000
2002
3003
0000
0000
0000
0000
0000
0000
2M02
3003
0000
0000
0000
0000
0000
0000
20M2
3003
0000
0000
0000
0000
0000
0000
2002
3003
0000
0000
0000
0000
0000
0000
2002
3003
0000
0000
0000
0000
0000
0000
2002
3003
0000
0000
0000
0000
0000
0000
0000
0000
0000
0000
0000
0000
0000
0000
,
2MM2
3003
0000
0000
0000
0000
0000
0000
2000
3000
0000
0000
0000
0000
0000
0000
2000
3000
0000
0000
0000
0000
0000
0000
2M2M
3030
0000
0000
0000
0000
0000
0000
2000
3000
0000
0000
0000
0000
0000
0000
2000
3000
0000
0000
0000
0000
0000
0000
22MM
3300
0000
0000
0000
0000
0000
0000
0000
0000
0000
0000
0000
0000
0000
0000
,
0M20
010M
0M01
M100
1M00
010M
0M01
M100
,
1M00
M100
1M00
010M
0M01
M100
1030
0000
,
2002
3003
0000
0000
0000
0000
0000
0000
2020
3030
0000
0000
0000
0000
0000
0000
2200
3300
0000
0000
0000
0000
0000
0000
2020
3030
0000
0000
0000
0000
0000
0000
2002
3003
0000
0000
0000
0000
0000
0000
2002
3003
0000
0000
0000
0000
0000
0000
2002
3003
0000
0000
0000
0000
0000
0000
0000
0000
0000
0000
0000
0000
0000
0000
,
0220
0330
0000
0000
0000
0000
0000
0000
2002
3003
0000
0000
0000
0000
0000
0000
2002
3003
0000
0000
0000
0000
0000
0000
2002
3003
0000
0000
0000
0000
0000
0000
2002
3003
0000
0000
0000
0000
0000
0000
2002
3003
0000
0000
0000
0000
0000
0000
0220
0330
0000
0000
0000
0000
0000
0000
0000
0000
0000
0000
0000
0000
0000
0000
,
0M20
010M
0M01
M100
1M00
010M
0M01
M100
,
1M00
M100
1M00
010M
0M01
M100
1030
0000
,
2002
3003
0000
0000
0000
0000
0000
0000
2002
3003
0000
0000
0000
0000
0000
0000
2M02
3003
0000
0000
0000
0000
0000
0000
20M2
3003
0000
0000
0000
0000
0000
0000
2002
3003
0000
0000
0000
0000
0000
0000
2002
3003
0000
0000
0000
0000
0000
0000
2002
3003
0000
0000
0000
0000
0000
0000
0000
0000
0000
0000
0000
0000
0000
0000
,
0220
0330
0000
0000
0000
0000
0000
0000
2002
3003
0000
0000
0000
0000
0000
0000
2002
3003
0000
0000
0000
0000
0000
0000
2MM2
3003
0000
0000
0000
0000
0000
0000
2002
3003
0000
0000
0000
0000
0000
0000
2002
3003
0000
0000
0000
0000
0000
0000
2002
3003
0000
0000
0000
0000
0000
0000
0000
0000
0000
0000
0000
0000
0000
0000
,
02M0
M010
10M0
M01M
00M1
M01M
10M0
M01M
,
00M1
001M
00M1
M01M
10M0
M01M
03M1
0000
,
22M0
3300
0000
0000
0000
0000
0000
0000
2002
3003
0000
0000
0000
0000
0000
0000
2002
3003
0000
0000
0000
0000
0000
0000
2M20
3030
0000
0000
0000
0000
0000
0000
2002
3003
0000
0000
0000
0000
0000
0000
2002
3003
0000
0000
0000
0000
0000
0000
22M0
3300
0000
0000
0000
0000
0000
0000
0000
0000
0000
0000
0000
0000
0000
0000
,
2MM2
3003
0000
0000
0000
0000
0000
0000
2000
3000
0000
0000
0000
0000
0000
0000
2000
3000
0000
0000
0000
0000
0000
0000
2M2M
3030
0000
0000
0000
0000
0000
0000
2000
3000
0000
0000
0000
0000
0000
0000
2000
3000
0000
0000
0000
0000
0000
0000
22MM
3300
0000
0000
0000
0000
0000
0000
0000
0000
0000
0000
0000
0000
0000
0000
,
0000
0010
0000
0000
0000
0000
0000
0000
M000
0001
0000
0000
0000
0000
0000
0000
0000
0100
0000
0000
0000
0000
0000
0000
0000
0010
0000
0000
0000
0000
0000
0000
000M
1000
0000
0000
0000
0000
0000
0000
0000
0100
0000
0000
0000
0000
0000
0000
0000
0010
0000
0000
0000
0000
0000
0000
M000
0001
0000
0000
0000
0000
0000
0000
,
0000
0100
0000
0000
0000
0000
0000
0000
0000
0010
0000
0000
0000
0000
0000
0000
000M
1000
0000
0000
0000
0000
0000
0000
0000
0100
0000
0000
0000
0000
0000
0000
0000
0010
0000
0000
0000
0000
0000
0000
M000
0001
0000
0000
0000
0000
0000
0000
0000
0100
0000
0000
0000
0000
0000
0000
0000
0010
0000
0000
0000
0000
0000
0000
,
1M02
0M00
0M00
0M00
0M00
0M00
0M00
0M00
1MM0
0MM0
0MM0
0MM0
0MM0
0MM0
0MM0
0MM0
1MM0
0MM0
0MM0
0MM0
0MM0
0MM0
0MM0
0MM0
1MM0
0MM0
0MM0
0MM0
0MM0
0MM0
0MM0
0MM0
1MM0
0MM0
0MM0
0MM0
0MM0
0MM0
0MM0
0MM0
1MM0
0MM0
0MM0
0MM0
0MM0
0MM0
0MM0
0MM0
1MM0
0MM0
0MM0
0MM0
0MM0
0MM0
0MM0
0MM0
1MM0
0MM0
0MM0
0MM0
0MM0
0MM0
0MM0
0MM0
,
1MM0
0MM0
0MM0
0MM0
0MM0
0MM0
0MM0
0MM0
1MM0
0MM0
0MM0
0MM0
0MM0
0MM0
0MM0
0MM0
1MM0
0MM0
0MM0
0MM0
0MM0
0MM0
0MM0
0MM0
1MM0
0MM0
0MM0
0MM0
0MM0
0MM0
0MM0
0MM0
1MM0
0MM0
0MM0
0MM0
0MM0
0MM0
0MM0
0MM0
1MM0
0M00
0M00
0M00
0M00
0M00
0M00
0M00
1M03
0000
0000
0000
0000
0000
0000
0000
101M
0000
0000
0000
0000
0000
0000
0000
,
0000
0000
0000
0100
0000
0000
0000
0000
0000
0000
0000
0000
0000
0000
0000
0000
0000
0000
0000
0000
0000
0000
0000
0000
0000
0000
0000
0100
0000
0000
0000
0000
0000
0000
0000
0000
0000
0000
0000
0000
0000
0000
0000
0000
0000
0000
0000
0000
0000
0000
0000
0100
0000
0000
0000
0000
0000
0000
0000
0000
0000
0000
0000
0000
0000
0000
0000
0000
0000
0000
0000
0000
0000
0000
0000
0100
0000
0000
0000
0000
0000
0000
0000
0000
0000
0000
0000
0000
0000
0000
0000
0000
0000
0000
0000
0000
0000
0000
0000
0100
0000
0000
0000
0000
0000
0000
0000
0000
0000
0000
0000
0000
M0MM
0000
0000
0000
0000
0000
0000
0000
0000
0000
0000
0100
0000
0000
0000
0000
0000
0000
0000
0000
0000
0000
0000
0000
0000
0000
0000
0000
0000
0000
0000
0000
0000
0000
0000
0100
0000
0000
0000
0000
0000
0000
0000
0000
0000
0000
0000
0000
0000
0000
0000
0000
0000
0000
0000
0000
0M00
0000
0000
10MM
0000
0000
0000
0000
0000
0000
0000
0000
0000
0000
0000
0000
0000
0000
0000
0000
0000
0000
0000
0000
,
0000
0000
0000
0100
0000
0000
0000
0000
0000
0000
0000
0000
0000
0000
0000
0000
0000
0000
0000
0000
0000
0000
0000
0000
0000
0000
0000
0100
0000
0000
0000
0000
0000
0000
0000
0000
0000
0000
0000
0000
0000
0000
0000
0000
0000
0000
0000
0000
0000
0000
0000
0100
0000
0000
0000
0000
0000
0000
0000
0000
0000
0000
0000
0000
0000
0000
0000
0000
0000
0000
0000
0000
0000
0000
0000
0100
0000
0000
0000
0000
0000
0000
0000
0000
0000
0000
0000
0000
0000
0000
0000
0000
0000
0000
0000
0000
0000
0000
0000
0100
0000
0000
0000
0000
0000
0000
0000
0000
0000
0000
0000
0000
M0MM
0000
0000
0000
0000
0000
0000
0000
0000
0000
0000
0100
0000
0000
0000
0000
0000
0000
0000
0000
0000
0000
0000
0000
0000
0000
0000
0000
0000
0000
0000
0000
0000
0000
0000
0100
0000
0000
0000
0000
0000
0000
0000
0000
0000
0000
0000
0000
0000
0000
0000
0000
0000
0000
0000
0000
0M00
0000
0000
M01M
0000
0000
0000
0000
0000
0000
0000
0000
0000
0000
0000
0000
0000
0000
0000
0000
0000
0000
0000
0000
,
0000
0000
0000
0100
0000
0000
0000
0000
0000
0000
0000
0000
0000
0000
0000
0000
0000
0000
0000
0000
0000
0000
0000
0000
0000
0000
0000
0100
0000
0000
0000
0000
0000
0000
0000
0000
0000
0000
0000
0000
0000
0000
0000
0000
0000
0000
0000
0000
0000
0000
0000
0100
0000
0000
0000
0000
0000
0000
0000
0000
0000
0000
0000
0000
0000
0000
0000
0000
0000
0000
0000
0000
0000
0000
0000
0100
0000
0000
0000
0000
0000
0000
0000
0000
0000
0000
0000
0000
0000
0000
0000
0000
0000
0000
0000
0000
0000
0000
0000
0100
0000
0000
0000
0000
0000
0000
0000
0000
0000
0000
0000
0000
M0MM
0000
0000
0000
0000
0000
0000
0000
0000
0000
0000
0100
0000
0000
0000
0000
0000
0000
0000
0000
0000
0000
0000
0000
0000
0000
0000
0000
0000
0000
0000
0000
0000
0000
0000
0100
0000
0000
0000
0000
0000
0000
0000
0000
0000
0000
0000
0000
0000
0000
0000
0000
0000
0000
0000
0000
0M00
0000
0000
M0M1
0000
0000
0000
0000
0000
0000
0000
0000
0000
0000
0000
0000
0000
0000
0000
0000
0000
0000
0000
0000
,
0000
0000
0000
0100
0000
0000
0000
0000
0000
0000
0000
0000
0000
0000
0000
0000
0000
0000
0000
0000
0000
0000
0000
0000
0000
0000
0000
0100
0000
0000
0000
0000
0000
0000
0000
0000
0000
0000
0000
0000
0000
0000
0000
0000
0000
0000
0000
0000
0000
0000
0000
0100
0000
0000
0000
0000
0000
0000
0000
0000
0000
0000
0000
0000
0000
0000
0000
0000
0000
0000
0000
0000
0000
0000
0000
0100
0000
0000
0000
0000
0000
0000
0000
0000
0000
0000
0000
0000
0000
0000
0000
0000
0000
0000
0000
0000
0000
0000
0000
0100
0000
0000
0000
0000
0000
0000
0000
0000
0000
0000
0000
0000
M0MM
0000
0000
0000
0000
0000
0000
0000
0000
0000
0000
0100
0000
0000
0000
0000
0000
0000
0000
0000
0000
0000
0000
0000
0000
0000
0000
0000
0000
0000
0000
0000
0000
0000
0000
0100
0000
0000
0000
0000
0000
0000
0000
0000
0000
0000
0000
0000
0000
0000
0000
0000
0000
0000
0000
0000
0M00
0000
0000
M01M
0000
0000
0000
0000
0000
0000
0000
0000
0000
0000
0000
0000
0000
0000
0000
0000
0000
0000
0000
0000
,
0000
0000
0000
0100
0000
0000
0000
0000
0000
0000
0000
0000
0000
0000
0000
0000
0000
0000
0000
0000
0000
0000
0000
0000
0000
0000
0000
0100
0000
0000
0000
0000
0000
0000
0000
0000
0000
0000
0000
0000
0000
0000
0000
0000
0000
0000
0000
0000
0000
0000
0000
0100
0000
0000
0000
0000
0000
0000
0000
0000
0000
0000
0000
0000
0000
0000
0000
0000
0000
0000
0000
0000
0000
0000
0000
0100
0000
0000
0000
0000
0000
0000
0000
0000
0000
0000
0000
0000
0000
0000
0000
0000
0000
0000
0000
0000
0000
0000
0000
0100
0000
0000
0000
0000
M0MM
0000
0000
0000
0000
0000
0000
0000
0000
0000
0000
0000
0000
0000
0000
0000
0000
0000
0000
0100
0000
0000
0000
0000
0000
0000
0000
0000
0000
0000
0000
0000
0000
0000
0000
0000
0000
0000
0000
0000
0000
0000
0000
1M1M
0000
0000
0000
0000
0000
0000
0000
0000
0000
0000
0000
0000
0000
0000
0000
0000
0000
0000
0000
0000
0000
0000
0000
0100
0000
0000
0000
0000
0000
0000
0000
0000
0000
0000
0000
0000
0000
0000
0000
0000
0000
0000
0000
0000
,
0000
0000
0000
0100
0000
0000
0000
0000
0000
0000
0000
0000
0000
0000
0000
0000
0000
0000
0000
0000
0000
0000
0000
0000
0000
0000
0000
0100
0000
0000
0000
0000
0000
0000
0000
0000
0000
0000
0000
0000
0000
0000
0000
0000
0000
0000
0000
0000
0000
0000
0000
0100
0000
0000
0000
0000
0000
0000
0000
0000
0000
0000
0000
0000
0000
0000
0000
0000
0000
0000
0000
0000
0000
0000
0000
0100
0000
0000
0000
0000
0000
0000
0000
0000
0000
0000
0000
0000
0000
0000
0000
0000
0000
0000
0000
0000
0000
0000
0000
0100
0000
0000
0000
0000
M0MM
0000
0000
0000
0000
0000
0000
0000
0000
0000
0000
0000
0000
0000
0000
0000
0000
0000
0000
0100
0000
0000
0000
0000
0000
0000
0000
0000
0000
0000
0000
0000
0000
0000
0000
0000
0000
0000
0000
0000
0000
0000
0000
MM11
0000
0000
0000
0000
0000
0000
0000
0000
0000
0000
0000
0000
0000
0000
0000
0000
0000
0000
0000
0000
0000
0000
0000
0100
0000
0000
0000
0000
0000
0000
0000
0000
0000
0000
0000
0000
0000
0000
0000
0000
0000
0000
0000
0000
,
0000
0000
0000
0100
0000
0000
0000
0000
0000
0000
0000
0000
0000
0000
0000
0000
0000
0000
0000
0000
0000
0000
0000
0000
0000
0000
0000
0100
0000
0000
0000
0000
M0MM
0000
0000
0000
0000
0000
0000
0000
0000
0000
0000
0000
0000
0000
0000
0000
0000
0000
0000
0100
0000
0000
0000
0000
0000
0000
0000
0000
0000
0000
0000
0000
0000
0000
0000
0000
0000
0000
0000
0000
0000
0000
0000
1M1M
0000
0000
0000
0000
0000
0000
0000
0000
0000
0000
0000
0000
0000
0000
0000
0000
0000
0000
0000
0000
0000
0000
0000
0100
0000
0000
0000
0000
0000
0000
0000
0000
0000
0000
0000
0000
0000
0000
0000
0000
0000
0000
0000
0000
0000
0000
0000
0100
0000
0000
0000
0000
M0MM
0000
0000
0000
0000
0000
0000
0000
0000
0000
0000
0000
0000
0000
0000
0000
0000
0000
0000
0100
0000
0000
0000
0000
0000
0000
0000
0000
0000
0000
0000
0000
0000
0000
0000
0000
0000
0000
0000
0000
0000
0000
0000
MM11
0000
0000
0000
0000
0000
0000
0000
0000
0000
0000
0000
0000
0000
0000
0000
0000
0000
0000
0000
0000
,
0000
0110
0000
0000
0000
0000
0000
0000
M00M
M1MM
M00M
M00M
M00M
M00M
M00M
M00M
M00M
M11M
M00M
M00M
M00M
M00M
M00M
M00M
M00M
MM1M
M00M
M00M
M00M
M00M
M00M
M00M
M00M
M11M
M00M
M00M
M00M
M00M
0000
0000
0000
0110
0000
0000
0000
0000
0000
0000
0MM0
2MM2
0MM0
0MM0
0MM0
0000
0000
3003
0000
0000
0000
0000
0000
0000
0000
0000
,
M11M
M00M
M000
M000
0000
0000
0000
0000
0000
0000
0000
0000
0001
0000
0000
0000
1MM0
0000
0000
0000
0000
0000
0000
0000
0000
0000
0000
0000
1000
0000
0000
0000
0M1M
0000
0000
0000
0000
0000
0000
0000
0000
0000
0000
0000
0010
0000
0000
0000
M10M
0000
0000
0000
0000
0000
0000
0000
0000
0000
0000
0000
0100
0000
0000
0000
,
M01M
0000
0000
0010
1M0M
0000
0000
1000
0MM1
0000
0000
0001
10M0
0100
000M
0100
,
20M0
3000
0000
0000
0000
0000
0000
0000
020M
0300
0000
0000
0000
0000
0000
0000
M020
0030
0000
0000
0000
0000
0000
0000
0M02
0003
0000
0000
0000
0000
0000
0000
20M0
3000
0000
0000
0000
0000
0000
0000
020M
0300
0000
0000
0000
0000
0000
0000
M020
0030
0000
0000
0000
0000
0000
0000
0M02
0003
0000
0000
0000
0000
0000
0000
,
20M0
3000
0000
0000
0000
0000
0000
0000
020M
0300
0000
0000
0000
0000
0000
0000
M020
0030
0000
0000
0000
0000
0000
0000
0M02
0003
0000
0000
0000
0000
0000
0000
20M0
3000
0000
0000
0000
0000
0000
0000
020M
0300
0000
0000
0000
0000
0000
0000
M020
0030
0000
0000
0000
0000
0000
0000
0M02
0003
0000
0000
0000
0000
0000
0000
,
20M0
3000
0000
0000
0000
0000
0000
0000
0000
0000
0000
0000
1000
0000
0000
0000
01MM
0000
0000
0000
0000
0000
0000
0000
M000
0000
0000
0000
0100
0000
0000
0000
001M
0000
0000
0000
0000
0000
0000
0000
0M00
0000
0000
0000
0010
0000
0000
0000
M001
0000
0000
0000
0000
0000
0000
0000
00M0
0000
0000
0000
0001
0000
0000
0000
,
1000
0000
0M00
1000
00M1
0000
M000
0010
010M
0000
00M0
1000
0M01
0010
M000
0010
,
0M02
0003
0000
0000
0000
0000
0000
0000
M020
0030
0000
0000
0000
0000
0000
0000
021M
0300
0000
0000
0000
0000
0000
0000
2000
3000
0000
0000
00M0
0000
0000
0000
1M02
0003
0000
0000
0000
0000
0000
0000
0020
0030
0000
0000
M000
0000
0000
0000
021M
0300
0000
0000
0000
0000
0000
0000
2000
3000
0000
0000
00M0
0000
0000
0000
,
1M02
0000
0000
0003
0000
0000
0000
0000
0000
0000
0000
0000
0000
0000
0000
0000
0000
0000
0000
0000
0000
0000
0000
0000
0020
0000
0000
0030
0000
0000
0000
0000
0000
0000
0000
0000
M000
0000
0000
0000
0000
0000
0000
0000
0000
0000
0000
0000
021M
0000
0000
0300
0000
0000
0000
0000
0000
0000
0000
0000
0000
0000
0000
0000
0000
0000
0000
0000
0000
0000
0000
0000
2000
0000
0000
3000
0000
0000
0000
0000
0000
0000
0000
0000
00M0
0000
0000
0000
0000
0000
0000
0000
0000
0000
0000
0000
1M02
0000
0000
0003
0000
0000
0000
0000
0000
0000
0000
0000
0000
0000
0000
0000
0000
0000
0000
0000
0000
0000
0000
0000
0020
0000
0000
0030
0000
0000
0000
0000
0000
0000
0000
0000
M000
0000
0000
0000
0000
0000
0000
0000
0000
0000
0000
0000
021M
0000
0000
0300
0000
0000
0000
0000
0000
0000
0000
0000
0000
0000
0000
0000
0000
0000
0000
0000
0000
0000
0000
0000
2000
0000
0000
3000
0000
0000
0000
0000
00M0
0000
0000
0000
0M00
0000
0000
0000
0000
0000
0000
0000
0000
0000
0000
0000
,
0001
0000
0M10
M000
0001
0000
0110
0000
0000
0110
0000
0000
100M
0000
01M0
0000
1000
0000
011M
0000
0000
0110
0000
0000
,
M001
0000
0M10
0000
0001
0000
M110
0000
0000
0110
0000
0000
100M
0000
01M0
0000
1000
0000
011M
0000
0000
0110
0000
0000
,
M011
0000
0010
0100
10MM
0100
0010
0000
M11M
0000
0100
0010
MM01
0010
0100
0000
,
11MM
0000
1000
0100
M01M
0100
1000
0000
11MM
0000
0100
M010
0M01
0010
MM0M
0000
,
M1MM
0000
0000
0100
M01M
0000
0M10
M000
0001
0M10
M001
0010
010M
10M0
0000
1000
,
0M1M
0000
M000
0M01
0010
M000
010M
0000
10M0
0000
010M
0000
M1M0
0000
010M
0000
,
0110
0000
0001
0000
1MM0
0000
0001
M000
0110
000M
1000
0000
0MM1
0000
1000
000M
,
0110
M000
0001
0000
1MM0
0000
0001
M000
0110
0000
1000
0010
1M0M
0010
1000
00M0
,
000M
0100
0000
0000
0000
0000
0000
0000
00M0
1000
0000
0000
0000
0000
0000
0000
0M00
0001
0000
0000
0000
0000
0000
0000
M000
0010
0000
0000
0000
0000
0000
0000
000M
0100
0000
0000
0010
0000
0000
0000
M000
0100
0000
0000
0000
0000
0000
0000
00M0
0001
0000
0000
0000
0000
0000
0000
0M00
1000
0000
0000
0000
0000
0000
0000
,
000M
0010
0000
0000
0100
0000
0000
0000
M000
0010
0000
0000
0000
0000
0000
0000
000M
0100
0000
0000
0010
0000
0000
0000
0000
0100
0000
0000
0000
0000
0000
0000
00M0
1000
0000
0000
0000
0000
0000
0000
0M00
0001
0000
0000
0000
0000
0000
0000
M000
0010
0000
0000
0100
0000
0000
0000
0000
0010
0000
0000
0000
0000
0000
0000
,
M201
00M0
0001
0000
M001
00M0
0301
0000
1M2M
0000
1000
0000
1M0M
0000
1030
0000
,
M1M2
0100
M1M0
0103
2M1M
0010
0M1M
30M0
,
M1MM
0000
0000
M0MM
0000
0000
M0MM
0000
0000
M0MM
0000
0000
M0MM
0000
0000
M0MM
00M0
0000
M0MM
0000
0000
M0MM
0000
0000
M1MM
0000
0000
M0MM
0000
0000
M0MM
0000
0000
M0MM
0000
0000
M0MM
0000
0000
M0MM
0000
0000
M0MM
0000
0000
M0MM
0000
0000
M1MM
0000
0000
M0MM
0000
0000
M0MM
0000
0000
M0MM
0000
0000
M0MM
0000
0000
M0MM
0100
0000
M0MM
0000
0000
M0MM
0000
0000
M0MM
0000
0000
M0MM
0000
0000
M0MM
0000
0100
M0MM
0000
0000
M0MM
0000
0000
M0MM
0000
0000
M0MM
0000
0000
M0MM
0000
0000
M1MM
0000
0000
M0MM
0000
0000
M0MM
0000
0000
M0MM
0000
0000
M0MM
0000
0000
M0MM
0100
0000
M0MM
0000
0000
M0MM
0000
0000
M0MM
0000
0000
M0MM
0000
0000
M0MM
0000
0100
M0MM
0000
0000
M0MM
0000
0000
M0MM
0000
0000
M0MM
0000
0000
M0MM
0000
0000
M1MM
0000
0000
M0MM
0000
0000
M0MM
0000
0000
M0MM
0000
0000
M0MM
0000
0000
M0MM
0000
0000
M0MM
0000
0000
M0MM
0000
0000
M1MM
0000
0000
M0MM
0000
0000
M0MM
0000
0000
M0MM
0000
0000
M0MM
0000
0000
M00M
0000
0000
M00M
0000
0000
M00M
0000
0000
,
MM0M
0000
0000
MM0M
0000
0000
MM0M
0000
0000
MM0M
0000
0000
MM0M
0000
0000
MM0M
0000
0000
MM0M
0000
0000
MM0M
0000
0000
MM1M
0000
0000
MM0M
0000
0000
MM0M
0000
0000
MM0M
0000
0000
MM0M
0000
0000
MM0M
0000
0000
MM0M
0000
0000
MM0M
0000
0000
MM1M
0000
0000
MM0M
0000
0000
MM0M
0000
0000
MM0M
0000
0000
MM0M
0000
0000
MM0M
0010
0000
MM0M
0000
0000
MM0M
0000
0000
MM0M
0000
0000
MM0M
0000
0000
MM0M
0000
0010
MM0M
0000
0000
MM0M
0000
0000
MM0M
0000
0000
MM0M
0000
0000
MM0M
0000
0000
MM1M
0000
0000
MM0M
0000
0000
MM0M
0000
0000
MM0M
0000
0000
MM0M
0000
0000
MM0M
0010
0000
MM0M
0000
0000
MM0M
0000
0000
MM0M
0000
0000
MM0M
0000
0000
MM0M
0000
0010
MM0M
0000
0000
MM0M
0000
0000
MM0M
0000
0000
MM0M
0000
0000
MM0M
0000
0000
MM1M
0000
0000
0000
0000
0000
0000
0000
0000
0000
0000
0000
0000
0000
0000
0000
0000
0000
0000
0000
0000
0000
0000
0000
0010
0000
0000
0000
0000
0000
0000
0000
0000
0000
0000
0000
0000
0000
0000
0000
0000
0000
0000
0000
0000
0000
0000
0000
,
11MM
0100
M1M1
0010
M11M
0010
MM11
0010
,
1M1M
0000
0000
0000
0000
0000
0000
0000
0010
0000
0000
0000
0000
0000
0000
0000
M11M
0000
0000
0000
0000
0000
0000
0000
0010
0000
0000
0000
0000
0000
0000
0000
1MM1
0000
0000
0000
0000
0000
0000
0000
0000
0000
0000
0000
0000
0000
0000
0000
MMMM
MMMM
MMMM
MMMM
MMMM
MMMM
MMMM
MMMM
MMMM
MMMM
MMMM
MMMM
MMMM
MMMM
MMMM
MMMM
,
MMMM
MMMM
MMMM
M00M
M00M
M00M
M00M
M00M
M00M
M00M
M00M
M00M
M00M
M00M
M00M
M00M
M22M
M00M
M00M
M00M
M00M
M00M
M00M
M00M
M00M
M00M
M00M
M00M
M00M
M00M
M00M
M00M
M00M
M00M
M00M
M00M
M00M
M00M
M00M
M00M
M00M
M00M
M00M
M00M
M00M
M00M
M00M
M00M
M00M
M00M
M00M
M00M
M00M
M00M
M00M
M00M
M00M
M00M
M00M
M00M
M00M
M00M
M00M
M00M
,
M00M
M00M
M00M
M00M
M00M
M00M
M00M
M00M
M00M
M00M
M00M
M00M
M00M
M00M
M00M
M00M
M00M
M00M
M00M
M00M
M00M
M00M
M00M
M00M
M00M
M00M
M00M
M00M
M00M
M00M
M00M
M00M
M00M
M00M
M00M
M00M
M00M
M00M
M00M
M00M
M00M
M00M
M00M
M00M
M00M
M00M
M00M
M00M
M00M
M00M
M00M
M00M
M00M
M00M
M00M
M00M
M00M
M00M
M00M
M00M
M00M
M00M
M33M
MMMM
,
MMMM
MMMM
MMMM
MMMM
MMMM
MMMM
MMMM
MMMM
MMMM
MMMM
MMMM
0000
0000
0000
0000
0000
0000
0000
0000
0000
0000
0000
0000
0000
0000
0000
0000
0000
0000
0000
0000
0000
0000
0000
0000
0000
0000
0000
0000
0000
0000
0000
0000
0000
0000
0000
0000
0000
0000
0000
0000
0000
0000
0000
0000
0000
0000
0000
0000
0000
0000
0000
0000
0000
;
