#TITLE:Hellbounds On My Trail;
#SUBTITLE:By Sakasu;
#ARTIST:Children of Bodom;
#TITLETRANSLIT:;
#SUBTITLETRANSLIT:;
#ARTISTTRANSLIT:;
#CREDIT:;
#BANNER:hellbounds-bn.jpg;
#BACKGROUND:hellbounds-bg.jpg;
#LYRICSPATH:;
#CDTITLE:;
#MUSIC:hellbounds.mp3;
#OFFSET:-0.380;
#SAMPLESTART:213.159;
#SAMPLELENGTH:16.880;
#SELECTABLE:YES;
#BPMS:0.000=206.030;
#STOPS:;
#BGCHANGES:;
// cache tags:
#FIRSTBEAT:0.000;
#LASTBEAT:809.000;
#SONGFILENAME:Songs/toune 5/hellbounds/hellbounds.sm;
#HASMUSIC:1;
#HASBANNER:1;
#MUSICLENGTH:240.039;
// end cache tags

//---------------dance-single - Blank----------------
#NOTES:
     dance-single:
     Blank:
     Hard:
     10:
     1.000,1.000,1.000,1.000,0.658,1720.000,472.000,594.000,0.000,4.000:


0020
0030
0020
0030
0020
0030
0020
0030
,
2002
0000
3003
0000
1000
0100
0010
0001
2002
0000
3003
0000
2200
0000
3300
0000
,
0101
1000
0100
0010
0001
1000
0100
0010
0001
1000
0100
0010
0001
0000
1001
0000
,
1001
1000
0001
1000
0001
0000
1100
0000
1100
1000
0100
1000
0100
0000
0011
0000
,
0011
1000
0010
0100
0001
1000
0010
0100
0001
1000
0010
0100
0001
0000
1001
0000
,
1100
1000
0100
0010
0001
0000
0110
0000
0101
0001
0010
0100
1000
0000
0110
0000
,
0101
0001
0100
0010
1000
0001
1000
0100
0010
0001
0100
0010
1000
0100
0010
0100
,
1000
0001
0010
0100
0010
0001
0100
0010
1000
0100
0010
0001
0100
0010
1000
0100
,
0010
0001
0100
0010
1000
0100
0010
0001
0100
0010
1000
0100
0010
0100
1000
0010
,
0220
0330
2002
3003
2200
3300
0022
0033
,
1001
0000
1000
0000
0100
1000
0010
0000
0110
0000
0101
0000
0001
0010
0100
0000
,
0101
0000
1010
0000
0010
1000
0100
0000
0100
1000
0010
0100
0001
0010
0100
1000
,
1001
0000
1100
0000
0010
0100
0001
0000
0011
0000
1100
0000
0010
0100
1000
0000
,
1001
0000
0101
0000
0001
0010
0100
0000
0100
1000
0100
0000
0010
0001
0010
0000
,
1100
0000
1010
0000
1000
0010
0100
0000
0101
0000
0011
0000
0001
0010
0100
0000
,
0110
0000
1001
0000
0010
0100
1000
0000
0100
0010
1000
0100
0010
0001
0100
0010
,
1001
0000
1100
0000
0100
1000
0100
0000
1001
0000
0101
0000
0100
0001
0100
0000
,
2002
3003
2200
3300
0220
0330
0202
0303
,
1001
0000
1100
0000
1000
0010
0100
0000
0011
0000
1100
0000
0010
1000
0100
0000
,
1100
0000
0110
0000
0010
0100
0001
0000
0001
0010
0100
1000
0010
0100
0001
1000
,
1010
0000
0101
0000
0001
0100
0010
0000
0110
0000
1001
0000
1000
0001
0100
0000
,
0101
0000
0101
0000
1000
0001
0100
0000
0010
1000
0100
0000
0010
0001
0100
0000
,
1001
0000
0110
0000
0100
1000
0100
0000
1010
0000
0101
0000
0100
0001
0010
0000
,
0011
0000
1100
0000
0100
1000
0100
0000
1000
0010
0100
0001
0010
0100
1000
0010
,
1010
0000
0101
0000
0100
0010
0100
0000
0110
0000
1001
0000
0010
0100
0001
0000
,
2000
3000
0200
0300
0020
0030
0002
0003
0200
0300
0020
0030
2000
3000
0200
0300
,
1001
1001
1001
1001
2200
3300
0110
0110
,
0110
0110
2002
3003
0101
0101
0022
0033
,
0010
1000
0100
0000
2200
3300
0010
0100
,
0001
0000
0022
0033
0010
1000
0002
0003
,
1100
1010
0011
0101
2200
3300
0011
0101
,
1100
1010
0022
0033
0110
1001
0220
0330
,
0010
1000
0100
0000
2200
3300
0010
0100
,
0002
0003
0020
0030
0200
0300
2000
3000
0020
0030
0200
0300
0002
0003
0020
0030
,
1100
1100
1100
1100
2020
3030
0101
0101
,
0101
0101
0022
0033
0110
1001
2200
3300
,
0010
1000
0100
0000
0202
0303
0001
0010
,
0100
0000
2200
3300
0001
1000
0202
0303
,
1010
1100
1010
1100
0022
0033
0011
0101
,
0011
0101
2020
3030
0010
1000
0200
0300
,
1000
0100
0010
0001
0100
0010
1000
0100
,
0100
1000
0100
1000
0001
1000
0001
1000
0001
0010
0001
0010
0001
0100
0001
0100
,
1001
0000
1100
0000
1000
0100
1000
0000
1001
0000
0101
0000
0001
0010
0100
0000
,
0011
0000
1100
0000
1000
0010
0100
0000
0001
0100
0010
1000
0100
0010
0001
0100
,
0101
0000
0101
0000
0001
0100
0001
0000
1100
0000
1100
0000
1000
0100
1000
0000
,
1001
0000
1001
0000
1100
0000
0001
1000
0001
0100
0001
0000
0010
0100
0001
1000
,
0110
0000
0110
0000
0010
0100
0001
0000
0101
0000
0011
0000
0001
0010
0100
0000
,
1100
0000
0011
0000
0100
1000
0010
0000
0001
0010
0100
1000
0010
0100
0001
0010
,
1100
0000
1010
0000
1000
0001
0100
0000
0101
0000
0101
0000
0001
0010
0100
0000
,
2000
0000
3200
0000
0320
0000
0032
0003
0100
0001
0010
0100
1000
0010
0100
0001
,
1100
0000
1100
0000
0010
0100
0001
0000
0101
0000
0011
0000
0001
1000
0100
0000
,
1100
0000
0011
0000
0001
0100
0010
0000
0001
0010
0100
1000
0100
0010
0001
0010
,
0011
0000
1100
0000
0010
0100
1000
0000
1100
0000
1100
0000
0100
1000
0001
0000
,
1100
0000
1100
0000
0001
0010
0200
0000
0302
0000
0003
0000
0022
0033
2200
3300
,
1010
0000
0101
0000
0001
0100
1000
0000
1100
0000
1010
0000
1000
0010
0001
0000
,
0011
0000
0101
0000
0001
0100
1000
0000
0001
1000
0100
1000
0001
1000
0010
1000
,
1001
0000
1100
0000
0010
1000
0010
0000
0110
0000
0101
0000
0001
0100
0010
0000
,
2000
3020
0230
0302
0023
0230
2300
3020
0230
0302
0023
0230
,
1300
0010
0100
0202
0303
0001
0010
2200
,
3300
0100
1000
2020
3030
0100
0001
0022
,
0033
0000
2000
3000
0200
0300
0020
0030
0002
0003
0200
0300
0020
0030
2000
3000
,
2000
3000
0020
0030
0200
0300
0002
0003
0020
0030
0200
0300
2000
3000
0020
0030
,
0100
0001
0010
2200
3300
0010
0100
0202
,
0303
0001
0010
0022
0033
0100
1000
2020
,
3030
0000
0020
0030
0200
0300
2000
3000
0020
0030
0200
0300
0002
0003
0010
0100
,
0020
0030
0200
0300
2000
3000
0020
0030
0200
0300
0002
0003
0020
0030
0200
0300
,
1000
0010
0100
0202
0303
0001
0010
2200
,
3300
0010
0100
2020
3030
0100
0010
0202
,
0303
0000
2000
3000
0020
0030
0200
0300
0002
0003
0020
0030
2000
3000
0200
0300
,
0200
0300
0020
0030
0002
0003
0200
0300
0020
0030
2000
3000
0200
0300
0020
0030
,
0001
0010
0100
2200
3300
0010
0100
0202
,
0303
0001
0010
0022
0033
0001
1000
2002
,
3003
0000
2000
3000
0200
0300
0020
0030
0002
0003
0020
0030
0200
0300
2000
3000
,
2200
0000
3320
0030
0200
0300
0002
0003
0020
0030
0200
0300
2000
3000
0020
0030
,
0101
0101
0101
0101
0022
0033
1100
1100
,
1100
1100
2020
3030
1001
0110
2002
3003
,
1000
0010
0100
0000
0202
0303
0001
0100
,
0010
0000
2020
3030
0010
0100
1000
0000
,
1010
1100
0011
0101
2002
3003
1100
1010
,
0101
0011
0220
0330
1100
1100
2200
3300
,
1000
0001
0100
0000
0202
0303
0101
0101
,
0002
0003
0020
0030
0200
0300
2000
3000
0020
0030
0200
0300
0002
0003
0020
0030
,
1100
1100
1100
1100
0202
0303
0101
0101
,
0101
0101
2200
3300
1001
1001
0220
0330
,
1000
0001
0100
0000
0202
0303
0001
0010
,
0100
0000
2200
3300
0010
0100
0220
0330
,
1100
1010
0011
0101
2200
3300
0011
0101
,
1100
1010
0022
0033
0110
0110
0202
0303
,
1000
0100
0010
0001
1000
0100
0010
0001
,
2000
3000
2000
3000
0200
0300
0020
0030
0002
0003
0200
0300
0020
0030
0000
0000
,
2002
3003
1000
1000
0100
0100
0010
0010
,
0001
0001
0100
0100
0010
0010
1000
1000
,
0100
0000
0100
0000
0010
0000
0010
0000
2002
3003
2002
3003
0202
0303
0202
0303
,
0001
0000
0001
0000
0010
0000
0010
0000
0220
0330
0220
0330
2020
3030
2020
3030
,
0001
0001
0010
0010
0100
0100
1000
1000
,
0100
0100
0010
0010
0001
0001
0100
0100
,
0010
0000
0010
0000
1000
0000
1000
0000
2002
3003
2002
3003
2200
3300
2200
3300
,
1000
0000
1000
0000
0001
0000
0001
0000
0202
0303
0202
0303
0022
0033
0022
0033
,
1001
1001
1100
1100
0011
0011
0101
0101
,
0001
0001
0100
0100
1000
1000
0010
0010
,
0001
0000
0001
0000
0010
0000
0010
0000
2200
3300
2200
3300
2002
3003
2002
3003
,
0001
0000
0001
0000
0010
0000
0010
0000
2200
3300
2200
3300
2002
3003
2002
3003
,
1000
1000
0100
0100
0010
0010
0100
0100
,
1000
1000
0010
0010
0100
0100
0001
0001
,
1000
0100
0010
0001
1100
1100
0101
0101
,
1010
1010
1010
1010
0011
0011
0011
0011
,
2002
0000
0000
0000
3003
0000
0000
0000
2200
3300
2002
0000
3003
0000
1000
0000
,
0100
0010
0001
0100
0010
1000
0001
0100
,
2002
0000
0000
0000
,
0000
0000
0000
0000
,
0000
0000
0000
0000
0000
0000
0000
0000
0000
0000
0000
0000
0000
0000
0000
3003
0000
0000
0000
0000
0000
0000
0000
0000
0000
0000
0000
0000
1000
0000
0000
0000
0100
0000
0000
0000
0010
0000
0000
0000
0001
0000
0000
0000
1000
0000
0000
0000
,
0100
0010
0001
1000
0100
0022
0000
0000
0033
0000
0000
0000
,
0000
0000
0000
0000
0000
0000
1000
0000
0000
0000
0000
0000
0100
0000
0000
0000
0000
0000
1000
0000
0000
0000
0000
0000
0000
0000
0000
0000
0000
0000
0010
0000
0000
0000
0000
0000
0000
0000
0000
0000
0000
0000
0100
0000
0000
0000
0000
0000
0000
0000
0000
0000
0000
0000
0100
0000
0000
0000
0000
0000
0000
0000
0000
0000
0000
0000
0001
0000
0000
0000
0000
0000
0000
0000
0000
0000
0000
0000
0000
0000
0000
0000
0000
0000
0010
0000
0000
0000
0000
0000
0000
0000
0000
0000
0000
0000
0100
0000
0000
0000
0000
0000
0000
0000
1000
0000
0000
0000
0000
0000
0000
0000
0010
0000
0000
0000
0000
0000
0000
0000
0100
0000
0000
0000
0000
0000
0000
0000
0001
0000
0000
0000
0000
0000
0000
0000
0010
0000
0000
0000
0000
0000
0000
0000
0100
0000
0000
0000
0000
0000
0000
0000
1000
0000
0000
0000
0000
0000
0000
0000
0010
0000
0000
0000
0000
0000
0000
0000
0100
0000
0000
0000
0000
0000
0000
0000
0001
0000
0000
0000
0000
0000
0000
0000
0010
0000
0000
0000
0000
0000
0000
0000
,
0100
0000
0010
0000
0001
0000
0100
0000
0010
0000
1000
0000
0100
0000
0010
0000
0001
0000
0100
0000
0010
0000
1000
0000
0100
0000
0010
0000
0001
0100
0010
1000
0000
0000
0100
0000
0010
0000
0001
0000
0010
0000
0000
0000
0100
0000
1000
0000
,
0100
0010
0001
0100
0010
1000
0000
0100
0010
0001
0100
0010
1000
0100
0010
0001
0010
0100
1000
0100
1000
0100
0000
0000
,
1000
0100
0010
0001
0022
0033
0001
0010
,
0100
0000
1000
0000
2200
0000
3300
0000
0000
0100
1000
0001
1000
0001
1000
0001
,
1000
0000
0000
0100
0000
0000
1000
0000
0000
0001
0000
0000
1000
0000
0000
0001
0000
0000
1000
0000
0000
0001
0000
0000
1000
0000
0001
0000
0100
0000
0010
0000
0001
0000
0100
0000
0010
0000
0001
0000
0100
0000
0010
0000
0001
0000
0100
0000
,
0010
0000
0100
0000
1000
0000
0010
0000
0100
0000
1000
0000
0010
0000
0100
0000
1000
0000
0010
0000
0100
0000
1000
0000
0010
0000
0000
0100
0000
0000
0001
0000
0000
0010
0000
0000
0100
0000
0000
1000
0000
0000
0100
0000
0000
0010
0000
0000
,
0001
0100
0001
0010
0100
1000
0100
0010
0001
0100
0001
0010
0001
0100
0001
1000
,
0001
0010
0001
0100
0010
1000
0100
0010
0001
1000
0010
0100
0001
0010
0100
1000
,
0100
0010
0001
0100
0010
1000
0100
0010
0001
1000
0010
0100
0001
1000
0010
0100
,
0001
1000
0001
0010
0100
1000
0001
0010
0100
1000
0100
0010
0001
1000
0100
0010
,
0001
1000
0100
0010
0001
1000
0100
0000
1000
0000
0100
0000
0010
0000
0001
0000
,
0022
0033
0001
0100
0010
1000
2200
3300
,
1100
1000
0010
0100
0002
0003
0101
0001
,
0010
0100
0020
0030
1100
1000
0100
0010
,
0002
0003
1001
0001
0100
0010
2000
3000
,
1001
1001
1000
0100
0010
0001
0200
0300
,
1100
1000
0100
0010
0002
0003
1001
1000
,
0001
1000
0002
0003
0101
1000
0010
0100
,
0002
0003
0110
0010
0100
0001
2000
3000
,
0022
0033
0022
0033
0022
0033
0022
0033
0202
0303
0202
0303
0001
0000
0001
0000
,
1100
0100
1000
0010
0200
0300
0101
0001
,
0010
0100
2000
3000
1010
0010
0100
0001
,
0020
0030
1001
0010
0100
0001
2000
3000
,
1100
1100
0010
0100
0001
0010
0200
0300
,
1100
1000
0100
0010
0002
0003
0101
0001
,
0100
0010
2000
3000
0101
0100
0010
1000
,
0002
0003
0110
0010
0100
1000
0020
0030
,
2020
3030
2020
3030
2020
3030
2020
3030
2200
3300
2200
3300
0100
0000
0100
0000
,
2000
0010
3001
0010
0200
0000
0310
0100
,
2000
0001
3100
0000
0020
0100
1030
0100
,
0002
0000
0013
0100
2000
0010
3100
0000
,
0022
0033
0001
0000
0100
0000
0001
0000
0020
0000
0200
0000
0330
0000
0000
0000
,
0002
0100
0013
1000
0002
0000
1003
0010
,
0200
0000
0001
0000
1300
0000
0000
0000
0002
0003
2000
3000
0002
0003
2000
3000
,
2200
0000
3300
0000
0200
0300
2000
3000
0200
0300
2000
3000
2002
0000
3003
0000
,
0202
0303
0001
0001
0010
0100
2000
3000
,
0101
0101
0101
0101
2200
3300
1010
1010
,
1010
1010
0202
0303
1001
1001
0220
0330
,
1000
0000
0001
0000
0100
0000
0000
0000
0101
0000
2000
3000
0020
0030
0200
0300
,
0002
0003
0000
0000
0202
0000
0303
0000
0001
0000
1000
0000
2200
0000
3300
0000
,
0110
0110
0110
0110
2200
3300
0101
0101
,
0101
0101
0022
0033
1001
1001
0220
0330
,
1001
0000
1000
0000
0100
0000
1000
0000
2200
0000
3300
0000
0002
0003
0200
0300
,
0002
0003
0020
0030
0002
0003
0020
0030
0002
0003
2000
3000
0200
0300
0020
0030
,
1001
1100
1001
0101
0220
0330
1001
0101
,
1001
1100
0220
0330
1100
0101
2002
3003
,
1000
0001
0100
0001
0202
0303
0001
1000
,
0100
0000
2200
3300
1000
0100
0022
0033
,
1100
1100
1100
1100
2020
3030
0011
0011
,
0011
0011
0202
0303
1001
1001
2200
3300
,
0001
1000
0100
0010
0001
1000
0100
0010
0002
0000
0003
0000
0001
0000
0001
1000
,
0001
1000
0100
0010
0001
1000
0010
0100
0001
0010
0100
1000
0100
0010
0001
0100
,
1100
0000
1001
0000
0001
0010
0100
0000
0101
0000
0011
0000
0001
0010
0001
0000
,
0011
0000
1100
0000
0100
1000
0100
0000
0002
0003
0200
0300
0020
0030
2000
3000
,
1001
0000
1010
0000
1000
0010
0100
0000
0110
0000
0101
0000
0001
0100
0010
0000
,
1010
0000
0101
0000
0001
0010
2200
3300
2020
3030
0000
0000
0202
0303
0022
0033
,
1001
0000
0101
0000
0001
0100
0010
0000
1010
0000
1100
0000
0010
0100
0001
0000
,
0011
0000
1100
0000
0100
0010
0100
0000
1000
0100
0010
0001
0100
0010
1000
0100
,
0011
0000
0101
0000
0001
0100
0001
0000
1100
0000
1100
0000
1000
0100
0020
0000
,
0032
2003
3020
0230
0302
0203
0320
2030
,
3101
0000
0011
0000
0001
0010
0100
0000
0110
0000
0101
0000
0010
1000
0100
0000
,
1010
0000
0101
0000
0001
0100
0002
0000
2003
0000
3200
0000
0320
0000
0032
0000
,
1103
0000
0110
0000
0010
0100
0001
0000
0101
0000
0011
0000
0010
0001
0100
0000
,
0101
0000
1001
0000
1000
0010
0200
0300
0220
0330
0000
0000
0202
0303
0202
0303
,
0110
0000
1100
0000
0010
0100
0001
0000
0101
0000
0011
0000
0010
0100
1000
0000
,
1010
0101
0001
2000
3200
0320
0032
0203
,
1301
0000
1010
0000
0010
0100
0001
0000
0101
0000
0110
0000
0100
0001
1000
0000
,
1000
0100
0010
0001
0100
0010
1000
0100
0010
0001
0010
0100
,
1000
0010
0100
0202
0303
0001
0010
2200
,
3300
0100
0010
0022
0033
0001
0100
2020
,
3030
0000
2000
3000
0020
0030
0200
0300
0002
0003
0020
0030
0200
0300
2000
3000
,
2000
3000
0200
0300
0020
0030
0200
0300
2000
3000
0020
0030
0200
0300
0002
0003
,
0010
0100
1000
2200
3300
0001
0100
0202
,
0303
0001
0010
2200
3300
0010
0100
0022
,
0033
0000
2000
3000
0200
0300
0020
0030
0200
0300
2000
3000
0020
0030
0200
0300
,
0200
0300
0002
0003
0020
0030
0200
0300
2000
3000
0020
0030
0200
0300
0002
0003
,
0010
0100
1000
2020
3030
0010
0100
0022
,
0033
0001
0100
2002
3003
1000
0010
0220
,
0330
0000
0002
0003
0020
0030
0002
0003
0200
0300
0002
0003
2000
3000
0020
0030
,
0020
0030
0200
0300
0002
0003
0020
0030
0200
0300
2000
3000
0200
0300
0020
0030
,
0001
0100
0010
2020
3030
0100
0010
0202
,
0303
0001
0010
0220
0330
0100
0010
0022
,
0033
0000
0002
0003
0020
0030
0200
0300
2000
3000
0200
0300
0020
0030
0002
0003
,
0002
0003
0200
0300
0020
0030
2000
3000
0200
0300
0020
0030
0002
0003
0200
0300
,
0200
0300
2000
3000
0200
0300
0020
0030
0200
0300
0020
0030
0002
0003
0200
0300
,
0200
0300
0020
0030
2000
3000
0200
0300
0020
0030
0002
0003
0200
0300
0002
0003
,
0202
0000
0303
0000
0000
0000
0000
0000
2002
3003
0202
0303
0000
0000
0000
0000
,
1000
0100
0010
0001
2002
3003
2200
3300
,
2002
0000
3003
0000
0202
0000
0303
0000
1001
0000
0000
0000
1000
0100
0010
0001
,
2002
3003
0000
0000
;
