#TITLE:BB Revenge;
#SUBTITLE:;
#ARTIST:AKHT;
#TITLETRANSLIT:;
#SUBTITLETRANSLIT:;
#ARTISTTRANSLIT:;
#CREDIT:;
#BANNER:../bn.png;
#BACKGROUND:../veyron.png;
#LYRICSPATH:;
#CDTITLE:;
#MUSIC:AKHT - BB Revenge.ogg;
#OFFSET:0.336;
#SAMPLESTART:212.594;
#SAMPLELENGTH:19.020;
#SELECTABLE:YES;
#BPMS:0.000=204.000;
#STOPS:;
#BGCHANGES:;
// cache tags:
#FIRSTBEAT:4.000;
#LASTBEAT:874.000;
#SONGFILENAME:Songs/Cirque du Veyron/Zaia - BB Revenge/AKHT - BB Revenge.sm;
#HASMUSIC:1;
#HASBANNER:1;
#MUSICLENGTH:259.134;
// end cache tags

//---------------dance-single - Zaia----------------
#NOTES:
     dance-single:
     Zaia:
     Challenge:
     15:
     1.000,1.000,0.220,0.390,1.000,2021.000,57.000,101.000,0.000,1.000:
0000
0000
0000
0000
,
1000
0100
1000
0001
1000
0001
1000
0100
0010
0100
1000
0001
1000
0001
0100
0010
,
0100
0001
1000
0010
0100
0001
1000
0001
0100
0010
0100
0001
1000
0001
0100
0001
,
1000
0100
0010
0100
1000
0001
1000
0001
0010
0100
0010
0001
1000
0100
1000
0001
,
0100
0010
0100
0001
1000
0010
0100
0001
1000
0001
0100
0010
0200
0000
0000
0000
,
0301
1000
0010
0100
0010
1000
0001
1000
0100
1000
0001
1000
0001
0010
0001
1000
,
0100
0010
0100
1000
0001
0100
0010
1000
0010
0100
0001
1000
0010
1000
0001
1000
,
0100
0010
0100
1000
0001
1000
0010
0100
0010
1000
0001
1000
0010
0100
0001
0000
,
0000
0000
0100
0010
0100
0010
1000
0001
0100
0010
0100
0001
1000
0100
0010
0100
,
1000
0001
1000
0001
0100
0010
0100
0001
1000
0001
1000
0100
0010
0100
1000
0001
,
0010
0001
0100
0010
1000
0010
0100
0001
1000
0010
0100
0001
1000
0100
1000
0010
,
1000
0001
0010
0100
0010
0001
1000
0001
1000
0100
0010
0100
1000
0001
1000
0010
,
0100
0010
1000
0100
0010
0001
0010
0100
1000
0001
1000
0001
0020
0000
0000
0000
,
0032
0000
0000
0000
0000
1003
0100
0100
,
1000
0001
0001
0100
0010
0010
1000
0001
,
0000
0010
0001
0100
0010
0100
0001
1000
,
0010
0100
0001
0100
0001
1000
0010
0100
0001
0100
0001
1000
0010
0000
0200
0000
,
0000
0000
0301
1000
0001
1000
0100
0010
0100
1000
0001
1000
0001
0100
0010
0100
,
0001
1000
0010
1000
0100
0010
0001
0100
0010
1000
0001
0010
0100
1000
0001
0100
,
0001
0010
0001
1000
0010
0100
0010
1000
0001
1000
0001
0100
0020
0000
0130
0001
,
1000
0001
0010
0100
0010
0001
0100
0010
1000
0010
0100
0001
2000
3020
0000
0000
,
0130
0000
0000
0001
0000
0000
1000
0000
0000
0010
0000
0000
0100
0000
0000
0000
0001
0000
0000
0000
0100
0000
0000
0000
0020
0000
0000
0000
0000
0000
1030
0000
0000
0100
0000
0000
1000
0000
0000
0001
0000
0000
0010
0000
0000
0100
0000
0000
,
2000
0000
3001
0010
0001
0010
0100
1000
0100
0000
0010
0000
0001
0000
1000
0000
,
0010
0000
0100
0000
0001
0000
1000
0000
0100
0000
1000
0000
,
0010
0100
0010
0100
0001
1000
0001
1000
0010
0100
0010
0100
0001
1000
0001
1000
,
0020
0000
0000
0230
0000
0000
0301
1001
,
0000
0101
0000
0100
0010
1000
0001
1000
,
0200
0000
0000
0320
0000
0000
0031
0011
,
0000
0110
0000
0100
1000
0001
0100
0000
,
0020
0000
0000
2030
0000
0000
3001
0101
,
0000
1001
0000
1000
0001
0010
0100
1000
,
0001
0100
0000
0010
1000
0001
0100
0000
,
0001
1000
0010
0100
0001
1000
0100
1000
0001
0100
0010
1000
0100
1000
0001
0000
,
0020
0000
0000
0230
0000
0000
1300
1100
,
0000
0110
0000
0010
0001
1000
0010
0100
,
0002
0000
0000
2003
0000
3000
0001
1001
,
0000
0011
0000
0010
0100
1000
0001
0000
,
0200
0000
0000
0320
0000
0000
0130
0101
,
0000
1010
0000
0010
1000
0001
0100
0001
,
1000
0100
0000
0010
0001
1000
0001
0000
,
1000
0010
0100
0001
0100
0001
1000
0010
0100
0001
0100
0001
1000
0010
0100
0001
,
1000
0100
1000
0001
1000
0010
0100
0001
,
1000
0100
0010
0100
1000
0010
0000
0010
,
0001
1000
0010
1000
0001
0100
0000
0100
,
1000
0000
0001
0000
1000
0000
0100
0000
0010
0000
0001
0000
0100
0000
0020
0030
,
2000
3000
0002
0003
2000
3000
0200
0300
0020
0030
0200
0300
2000
3000
0002
0003
,
0200
0300
0020
0030
0200
0300
0002
0003
2000
3000
0020
0030
0000
0000
0020
0030
,
0002
0003
2000
3000
0200
0300
0020
0030
0002
0003
0200
0300
0000
0000
0200
0300
,
2000
3000
0002
0003
0200
0300
0002
0003
0020
0030
0200
0300
2000
3000
0001
0000
,
0100
0010
1000
0010
0100
0001
0010
0100
,
0010
0001
1000
0001
0100
0010
1000
0001
,
1000
0100
0010
0100
1000
0010
0100
0001
,
1000
0100
0010
0001
1000
0010
0100
0010
,
1000
0001
1000
0001
0100
0010
1000
0001
1000
0001
0100
0010
1000
0001
1000
0001
,
0100
0010
1000
0100
1000
0001
0010
0001
0100
0010
1000
0001
1000
0100
1000
0001
,
0010
0100
1000
0010
1000
0001
0100
0001
0010
0100
1000
0001
1000
0010
1000
0001
,
0100
0010
1000
0001
0010
0100
1000
0001
0100
0000
0010
0000
0100
0000
0001
0000
,
1000
0000
0100
0010
0000
0100
2000
0000
,
0000
0000
3001
1000
,
0010
0000
0100
0001
0000
0010
0200
0000
,
0000
0000
1300
0010
,
0110
0000
0100
0001
0010
0100
1000
0001
,
0000
0001
0000
0100
0010
0000
1000
0000
,
0100
0000
0100
0000
0100
0000
0010
0200
,
0000
0000
1300
0000
0001
0000
1000
0000
0001
0000
1000
0001
0100
0010
0100
0001
,
1000
0100
1000
0001
0100
0001
0010
0100
0010
0001
1000
0010
1000
0001
1000
0001
,
0100
0010
1000
0100
1000
0001
0100
0001
0010
0100
1000
0001
0010
0001
1000
0001
,
1000
0100
0010
0100
1000
0010
0100
0001
0010
0100
1000
0010
1000
0100
0010
0001
,
0100
0010
0100
0001
0010
0100
1000
0010
0100
0001
1000
0010
0200
0000
0000
0000
,
0301
0010
0100
1000
0001
0100
0001
1000
0010
1000
0001
1000
0010
0100
0001
1000
,
0100
1000
0001
0100
0001
1000
0100
0010
0100
1000
0001
0100
0010
0100
0001
1000
,
0010
0100
0001
0100
0010
1000
0001
1000
0100
0010
0001
0000
1000
0000
0010
0000
,
0110
0101
1001
1100
,
0100
0000
1000
0001
1000
0000
0010
0000
1000
0001
1000
0000
0100
0000
0010
0001
,
0010
0000
0001
0000
1000
0010
1000
0000
0001
1000
0010
0100
0001
1000
0010
0100
,
0001
1000
0100
1000
0001
0100
0001
0010
0100
1000
0001
0100
0001
1000
0010
0100
,
0001
0010
0100
1000
0010
0100
0001
1000
0010
1000
0001
1000
0200
0000
0000
0000
,
1300
1000
0000
0001
0100
0010
0000
0100
,
0001
0000
1000
0000
0100
0000
0010
0000
0100
0000
1000
0000
0010
0100
0001
0000
,
1000
0000
1000
0000
0000
0000
0100
0000
0010
0000
0100
0000
1000
0001
0100
0000
,
0000
0000
0010
1000
0010
0000
0000
0000
1000
0001
1000
0001
0100
0001
0100
0001
,
1000
0010
1000
0001
0010
0001
1000
0100
0010
0001
1000
0010
0100
0010
1000
0001
,
0100
0001
1000
0001
1000
0100
1000
0001
1000
0100
0010
0100
1000
0001
0010
0100
,
1000
0010
0100
0001
1000
0100
0010
0001
2000
0000
0000
0000
0000
0000
3010
0100
,
0001
1000
0001
0010
0100
1000
0001
0000
0100
0000
0010
0000
1000
0000
0100
0000
,
0010
0000
0010
0000
0000
0000
0001
1000
0010
0000
0100
0000
0001
0000
1000
0100
,
0010
0000
0010
0000
0000
0000
0100
0010
0001
0000
1000
0000
0010
0000
0100
0001
,
1000
0010
1000
0001
0100
0010
1000
0001
0100
0010
1000
0001
1000
0100
1000
0001
,
0020
0000
0000
0000
0230
0000
0000
0000
2300
0000
0000
3002
0000
0000
0103
0000
,
0110
0000
0000
0000
0000
0000
0000
1010
,
0000
1010
0000
0000
0000
0000
1001
0000
,
1001
0000
0000
0000
0000
0000
0000
0011
,
0000
0011
0000
0000
0000
0000
1001
0000
,
1000
0100
1000
0001
0100
0001
0100
0010
1000
0001
0100
0001
1000
0100
1000
0100
,
0010
0100
1000
0001
1000
0001
0100
0010
0100
0001
1000
0100
1000
0100
0010
0001
,
1000
0010
1000
0010
0100
0001
1000
0001
0010
0100
0010
0100
1000
0001
0100
0010
,
0100
0000
0002
0000
0000
0000
0000
0000
0003
0000
1000
0001
1000
0001
1000
0001
,
1000
0100
0010
0100
1000
0001
1000
0001
0100
0010
0100
0001
1000
0100
0010
0001
,
1000
0010
1000
0001
0100
0010
0100
0001
1000
0100
1000
0001
0010
0100
1000
0001
,
0010
0001
0100
0010
1000
0001
0100
0010
1000
0100
0010
0001
1000
0010
1000
0001
,
0100
0001
0010
0100
1000
0001
1000
0100
0010
0001
0100
0010
2000
0000
0000
0000
,
3001
0010
0100
0010
0001
1000
0001
1000
0010
0100
0010
1000
0001
0100
0010
1000
,
0001
0010
0001
1000
0100
0010
0100
1000
0001
0100
0001
1000
0010
0100
0001
1000
,
0010
0100
0001
1000
0001
0100
0010
1000
0001
0100
0001
1000
0010
0100
0001
1000
,
0010
0100
0001
1000
0001
0010
0100
1000
0001
0000
0010
0000
0100
0000
1000
0000
,
0000
0001
1000
0010
1000
0010
1000
0100
,
0000
0010
0100
1000
0001
0100
0010
1000
,
0000
0001
0010
0100
0010
0001
0100
0010
,
1000
0010
0100
0001
1000
0100
0000
0010
,
0000
0000
0000
0100
0000
0000
1000
0000
0001
0000
0100
0000
0010
0000
1000
0000
0001
0000
0010
0000
0100
0000
1000
0000
,
0001
0100
0010
1000
0001
1000
0010
1000
0001
1000
0010
1000
,
0001
0000
1000
0000
0010
0000
1000
0000
0001
0000
1000
0000
0010
0000
1000
0000
0001
0000
1000
0000
0000
0001
0000
0000
,
0100
0010
0100
0001
1000
0100
0000
0010
,
0000
0001
1000
0001
0000
0010
0000
0001
,
1000
0001
0000
0100
0000
0010
1000
0001
,
0000
0010
0000
0100
0000
1000
0100
1000
,
0001
1000
0010
1000
0001
0010
0100
0010
,
0001
1000
1000
0001
0100
0100
0001
1000
1000
0001
0010
0000
,
0100
1000
1000
0100
0010
0010
0001
1000
1000
0001
0100
0100
,
0020
0000
0000
2030
0000
0000
3002
0000
,
0000
0203
0000
0000
0302
0000
0023
0000
,
1130
1000
0100
0010
0011
0000
1001
0001
,
0100
0010
1010
1001
0000
0011
0000
0000
,
0110
0100
1000
0100
0110
0000
0011
0001
,
1000
0000
0001
0000
0011
0000
0110
0000
0100
0000
1000
0000
0001
1000
0010
1000
,
0001
0100
0010
1000
0001
1000
0010
0100
0001
1000
0100
0010
0100
1000
0001
1000
,
0100
1000
0001
0010
0001
0100
0010
1000
0001
0010
0100
1000
0001
0100
0001
1000
,
0100
0010
0001
1000
0000
0000
0100
1000
,
0010
0000
0100
0000
0100
0000
0100
0000
0001
1000
0001
1000
0100
0000
0000
0000
,
1000
0001
0100
0020
0000
0000
0130
0001
,
2000
0000
3200
0000
,
0310
0100
1000
0002
0000
0000
0103
0010
,
2000
0000
0000
0000
0000
0000
0000
0000
3010
0100
0010
0100
0001
1000
0001
1000
,
0010
0000
0110
0000
0110
0000
0001
1000
,
0100
1100
1100
1000
,
0001
0000
0001
0000
0001
0000
0100
0010
,
1000
0001
1000
0001
0010
0100
0010
0100
,
1000
0001
0000
0100
0010
0100
0000
0001
,
0010
0000
0100
1000
0001
0000
0100
0001
1000
0000
0100
0000
0010
0000
0100
0000
,
1000
0001
0000
0100
0001
1000
0100
0000
,
0000
0000
0000
0000
0000
0000
0000
0000
0000
0000
0000
0000
0001
0000
0010
0100
,
1000
0001
0100
0010
1000
0010
0100
0001
,
0010
0100
0010
0001
1000
0010
0000
0010
,
0001
1000
0010
1000
0001
0100
0000
0100
,
0010
0000
0001
0000
1000
0000
0010
0000
0100
0000
0010
0000
1000
0010
0100
0001
,
1000
0100
1000
0010
1000
0001
0010
0001
,
0100
0010
1000
0100
0010
0001
1000
0010
,
1000
0000
0010
0000
1000
0000
0100
0000
0010
0000
0001
0000
1000
0000
0001
0100
,
0010
0000
1000
0010
1000
0000
0001
0000
0010
0000
0001
0000
1000
0000
0001
0100
,
0010
0100
0001
1000
0100
0000
0010
0100
1000
0100
0010
0000
0001
1000
0010
1000
,
0001
0000
0100
0010
0100
0001
1000
0100
0010
0000
0001
1000
0001
0010
0100
1000
,
0002
0000
0000
0000
,
1003
0100
1000
0001
0010
0100
0010
0001
1000
0001
1000
0010
0100
0001
0100
0010
,
2000
0000
0000
0000
,
3001
0100
0010
0100
0001
1000
0010
0100
0001
0010
0001
0010
0100
1000
0001
1000
,
0020
0000
0000
0000
0230
0000
0000
0301
,
1000
0100
0010
0001
0010
0100
1000
0100
,
0020
0001
0000
0001
0000
0001
0000
0001
,
0000
0031
0010
0100
2000
0000
3020
0100
,
0000
0100
0000
0100
0000
0100
0000
0100
,
0000
0000
0100
0000
0000
0000
0100
0000
0000
0000
0130
0000
0001
1000
0010
1000
,
0200
0000
0000
2300
0000
0000
3002
0000
,
0023
0000
0000
0000
0000
0000
0031
0000
1000
0010
0100
0010
1000
0001
1000
0001
,
0010
0100
1000
0001
1000
0001
0010
0100
1000
0001
1000
0001
0100
0010
1000
0001
,
1000
0010
0100
0010
0100
0001
1000
0001
1000
0010
0100
0001
1000
0010
0100
0010
,
1000
0000
0001
0100
0000
0001
0010
0000
,
0000
0000
0100
1000
,
0010
0000
0100
0001
0000
1000
0001
0000
,
0000
0000
1000
0001
,
0010
0000
0001
0100
0010
1000
0100
0010
,
0000
0001
0000
0010
0100
0000
1000
0000
,
0001
0000
0000
0000
0000
0000
0100
0010
,
1000
0001
1000
0001
1000
0000
0100
0100
,
0010
0011
0001
1001
,
1000
0000
0000
0000
1010
0000
0000
0000
0010
0000
0000
0000
0100
0001
1000
0000
,
0100
1000
0001
1000
0100
1000
0001
1000
,
0100
0000
0000
1000
0000
0000
0001
0000
0000
1000
0000
0000
0100
0000
0000
1000
0000
0000
0001
0000
0100
0000
0010
0000
,
1000
0100
1000
0001
1000
0001
0100
0001
1000
0001
1000
0100
,
1000
0001
0010
0100
0010
0001
1000
0010
0100
0001
1000
0001
0010
0100
0010
0001
,
2000
0000
0000
0000
,
0000
0000
0000
3020
,
0230
0000
0000
0302
0000
0000
1003
1001
,
0000
1010
0000
0010
0100
0001
1000
0001
,
0020
0000
0000
0230
0000
0000
1300
1100
,
0000
0110
0000
0010
0001
1000
0010
0000
,
0200
0000
0000
0302
0000
0000
1003
1010
,
0000
1001
0000
0001
1000
0100
0010
0001
,
1000
0010
0000
0100
0001
1000
0010
0000
,
1000
0001
0100
0010
1000
0001
0010
0001
1000
0010
0100
0001
0010
0001
1000
0000
,
0200
0000
0000
0320
0000
0000
0031
0011
,
0000
0110
0000
0100
1000
0001
0100
0010
,
2000
0000
0000
3002
0000
0003
1000
1001
,
0000
1100
0000
0100
0010
0001
1000
0000
,
0020
0000
0000
0230
0000
0000
0310
1010
,
0000
0101
0000
0100
0001
1000
0010
1000
,
0001
0010
0000
0100
1000
0001
1000
0000
,
0001
0000
0001
0000
0001
0100
0020
0030
,
1000
0001
1000
0001
0100
0010
0100
0001
1000
0001
1000
0100
0010
0100
1000
0001
,
0010
0001
0100
0010
1000
0010
0100
0001
1000
0010
0100
0001
1000
0100
1000
0010
,
1000
0001
0010
0100
0010
0001
1000
0001
1000
0100
0010
0100
1000
0001
1000
0010
,
0100
0010
1000
0100
0010
0001
0100
0010
1000
0001
1000
0001
0010
0100
0010
0001
,
1000
0001
1000
0010
0100
0010
1000
0001
0100
0001
0010
0100
1000
0100
0010
0001
,
1000
0100
0010
0001
1000
0010
1000
0100
1000
0001
0100
0010
0100
0001
1000
0001
,
1000
0010
0100
0010
1000
0001
1000
0100
0010
0100
1000
0010
0100
0001
0100
0010
,
1000
0001
1000
0001
0100
0010
1000
0001
1000
0100
1000
0100
0010
0001
1000
0010
,
0100
0001
1000
0010
1000
0001
0010
0001
0100
0010
1000
0001
0010
0001
1000
0001
,
1000
0010
0100
0001
0010
0001
1000
0100
0010
0100
1000
0001
1000
0001
0100
0010
,
0100
0001
1000
0010
0100
0001
1000
0100
0010
0100
1000
0010
0100
0001
0100
0010
,
1000
0100
1000
0010
0100
0001
0100
0010
1000
0001
0010
0001
1000
0000
0000
0000
,
0001
1000
0001
0100
0001
1000
0100
1000
0010
0100
0001
1000
0100
1000
0001
1000
,
0001
0100
0010
1000
0100
1000
0001
0010
0100
0010
0001
1000
0001
1000
0010
0100
,
0001
1000
0001
0100
0001
1000
0001
0100
0001
1000
0001
0100
0001
1000
0100
0010
,
0001
0000
0000
0000
,
1000
0100
1000
0000
0001
0100
0001
0000
1000
0010
1000
0000
0001
0010
0001
0000
,
1000
0000
0000
0001
0000
0000
1000
0000
0000
0000
0000
0000
0100
0000
0000
0010
0000
0000
0100
0000
0000
0000
0000
0000
1000
0000
0000
0000
0010
0000
0000
0000
0100
0000
0000
0000
0001
0000
0000
0000
1000
0000
0000
0000
0010
0000
0000
0000
,
0100
0110
0000
0001
0101
0100
0000
0010
,
1000
0100
0010
0100
1000
0001
0200
0000
,
0000
0000
0000
0000
,
0000
0000
0300
0000
;
