#TITLE:Liberate;
#SUBTITLE:Believe (2002);
#ARTIST:Disturbed;
#TITLETRANSLIT:;
#SUBTITLETRANSLIT:;
#ARTISTTRANSLIT:;
#CREDIT:;
#BANNER:liberate banner.png;
#BACKGROUND:liberate bg.png;
#LYRICSPATH:;
#CDTITLE:logo.png;
#MUSIC:Disturbed - Liberate.mp3;
#OFFSET:-0.120;
#SAMPLESTART:19.345;
#SAMPLELENGTH:12.000;
#SELECTABLE:YES;
#BPMS:0.000=124.100;
#STOPS:;
#BGCHANGES:;
// cache tags:
#FIRSTBEAT:0.000;
#LASTBEAT:269.000;
#SONGFILENAME:Songs/Astronomic Metal Collection/Liberate (technik)/Liberate.sm;
#HASMUSIC:1;
#HASBANNER:1;
#MUSICLENGTH:130.768;
// end cache tags

//---------------dance-single - ----------------
#NOTES:
     dance-single:
     :
     Hard:
     11:
     1.000,1.000,1.000,0.551,1.000,766.000,269.000,72.000,0.000,2.000:
0010
0010
0010
0010
1000
0001
0010
0100
0001
0010
0100
0010
1000
0100
1000
0100
,
0100
0000
0100
0000
0100
0000
0100
0000
0100
0000
0100
0000
0100
0000
0100
0000
0100
0000
0100
0000
0100
0000
0100
0000
0100
1000
0100
1000
0100
1000
0100
0000
,
1000
0110
0000
0010
0101
1000
1100
0000
0000
1000
0001
0010
0110
0011
1100
0101
,
0010
0101
0000
1000
0110
0010
0101
0000
0000
0010
0001
0100
1001
1100
0110
1001
,
0010
1100
0000
0010
0011
0100
1010
0000
0000
0100
0001
1000
0110
0101
1010
0110
,
0100
0011
0000
1000
0110
0001
0011
0000
0000
1000
0010
1000
0011
1010
0110
1010
,
0001
2200
3300
0001
1100
0010
0202
0303
0000
1000
0010
0100
0011
1100
1001
0011
,
0010
0220
0330
0100
0011
1000
2002
3003
0000
0010
0100
0001
1100
0101
0110
1100
,
0010
2002
3003
0100
0011
0100
2020
3030
0000
0001
0010
1000
0101
0011
1100
0101
,
1000
0220
0330
0001
1001
0010
1100
0000
0000
0001
0100
0010
2002
0000
0000
0000
,
3113
0010
0000
1000
0000
0101
1100
0000
0000
0100
0001
0010
1000
1000
0010
0010
,
1100
0011
0000
0101
0000
0110
0000
1001
0110
1001
0000
0011
0000
1010
0000
0100
,
0011
0100
0000
0001
0000
1010
0101
0000
0000
0010
0100
0010
0001
0001
1000
1000
,
0101
0010
0000
1000
0000
0011
1010
0000
0000
0000
0220
0330
0000
0000
0022
0033
,
1100
0001
0000
0100
0000
0011
0101
0000
0000
1000
0100
1000
0010
0010
0100
0100
,
1010
0101
0000
0110
0000
0011
0000
1100
0101
1100
0000
0011
0000
1001
0000
0010
,
0110
0100
0000
0001
0000
0110
1010
0000
0000
0010
0100
0010
0100
0100
0001
0001
,
1100
0010
0000
0001
0000
0101
0011
0000
0000
0000
2000
0000
0020
0000
3030
0000
,
1100
0000
0001
1000
0010
0100
1000
0010
0001
0001
0001
0100
0110
0000
1000
0010
,
0101
0000
1000
0010
0100
0100
0001
0001
1000
1000
1000
0010
0101
0000
1000
0100
,
1010
0000
0001
0010
0100
0001
0010
1000
0100
0010
0001
1000
0110
0000
0011
0000
,
1100
0000
0001
0001
0010
0010
0100
0100
1000
1000
1000
0010
1001
0000
1100
0000
,
0011
0000
1000
0001
0010
0001
0100
1000
0100
0100
0100
0010
1001
0000
0001
0100
,
1010
0000
0100
0010
0001
0100
0100
0001
0001
0001
0100
0010
1100
0000
0010
0001
,
0110
0000
1000
0010
0100
0000
1000
0100
0001
0010
0100
0010
1100
0000
0110
0000
,
0101
0000
1000
1000
0010
0010
0100
0100
0001
0001
1000
0100
1010
0000
0101
0000
,
0220
0000
0330
0022
0000
0033
2200
0000
3300
0000
0100
0000
0011
0000
1000
0100
,
0202
0000
0000
0000
0000
0000
0303
0000
0000
0220
0000
0000
0000
0000
0000
0330
0000
0000
2200
0000
0000
0000
0000
0000
3300
0000
0000
0000
0001
0000
0010
0000
0100
0000
1000
0000
0110
0000
0000
0000
0000
0000
0011
0000
0000
0000
0000
0000
,
1000
0100
0000
0100
0011
0000
1000
0010
0000
0001
1000
0000
0110
0000
1010
0000
,
0001
0010
0000
1000
0101
0000
0010
0100
0000
0001
0010
0000
0101
0000
1001
0000
,
0010
1000
0000
1000
0010
0000
0001
0010
0000
1000
0100
0000
1010
0000
0011
0000
,
1000
0100
0000
0001
0010
0000
1000
0100
0000
0011
1000
1000
0110
0000
0101
0000
,
1000
0001
0000
0100
0011
0000
0010
0001
0000
0010
1000
0000
0110
0000
1001
0000
,
0001
0010
0000
0100
1001
0000
0010
0100
0000
0010
0001
0000
1010
0000
1100
0000
,
0100
0001
0000
0010
0101
0000
1000
0110
0000
0001
0011
0000
1000
0000
0101
0000
,
1000
0100
0000
0010
1100
0000
0001
0010
0000
0010
0100
0000
0101
0000
1100
0000
,
0001
0220
0330
0001
1100
0010
0202
0303
0000
1000
0100
1000
0011
0110
1001
0010
,
0001
2200
3300
0100
0010
0100
2002
3003
0000
0010
0001
0010
1100
0101
0110
0100
,
1000
0022
0033
1000
0001
0010
2020
3030
0000
0001
0100
0001
0110
1100
0101
0010
,
1000
0220
0330
0001
0010
0001
0220
0330
0000
1000
0010
0000
1100
0011
1100
0011
,
1100
0010
0000
0001
0000
0110
1010
0000
0000
0100
0010
0010
0100
0100
0010
0001
,
1100
1010
0000
0101
0000
1010
0000
0110
0011
1010
0000
0011
0000
1100
0000
0010
,
0101
0010
0000
1000
0000
0110
0011
0000
0000
0001
1000
1000
0010
0010
1000
0010
,
1001
0010
0000
1000
0000
0110
0101
0000
0000
0000
0220
0330
0000
0000
2200
3300
,
0011
0100
0000
0010
0000
1100
1001
0000
0000
0010
0100
0100
1000
1000
0010
0100
,
0011
1010
0000
0110
0000
0011
0000
1010
0110
1100
0000
0101
0000
0110
0000
1000
,
0011
0101
0000
0100
0000
0011
1100
0000
0000
0010
0100
1000
0100
1000
0010
0001
,
1100
0001
0000
0010
0000
0101
1001
0000
0000
0000
0002
0000
0200
0000
0303
0000
,
0110
0000
0001
1000
0100
1000
0100
1000
0010
0001
0010
0001
1100
0000
0010
0100
,
0011
0000
0100
0010
1000
0010
0100
0001
0010
0100
1000
0100
0011
0000
0100
0010
,
0101
0000
1000
0100
0011
0000
1000
0010
0100
0001
0010
0001
0110
0000
0101
0000
,
1001
0000
0001
0010
0001
0010
0100
1000
0100
0001
0100
0010
1100
0000
0110
0000
,
1100
0000
0010
0001
0010
0010
0100
0100
0001
0010
1000
0010
0101
0000
1010
0000
,
1001
0000
0010
0001
0100
0010
1000
0100
0001
0010
1000
0100
0011
0000
0100
0010
,
1100
0000
0010
0001
0110
0000
1000
0001
0010
0100
0001
0010
1100
0000
0101
0000
,
0011
0000
1000
1000
0100
0100
0010
0001
0010
0100
0001
0010
0101
0000
0110
0000
,
2200
0000
3300
0202
0000
0303
2020
0000
3030
0000
0100
0000
1100
0000
0010
0100
,
0022
0000
0000
0000
0000
0000
0033
0000
0000
2002
0000
0000
0000
0000
0000
3003
0000
0000
0220
0000
0000
0000
0000
0000
0330
0000
0000
0000
0010
0000
0100
0000
0001
0000
0010
0000
1010
0000
0000
0000
0000
0000
0101
0000
0000
0000
0000
0000
,
0010
0001
0000
0010
1100
0000
0010
0001
0000
0100
0010
0000
0110
0000
0011
0000
,
0100
0010
0000
0001
0011
0000
0010
0100
0000
0100
0010
0000
1010
0000
0110
0000
,
0001
0010
0000
1000
0101
0000
0010
0100
0000
1000
0010
0000
0101
0000
1010
0000
,
0100
0010
0000
0001
0101
0000
0010
0001
0000
0110
1000
0010
1100
0000
0101
0000
,
0010
1000
0000
0100
0011
0000
0001
0010
0000
1000
0001
0000
1001
0000
1100
0000
,
0010
1000
0000
0001
0110
0000
0010
0001
0000
1000
0100
0000
0101
0000
1100
0000
,
0010
0001
0000
0010
0101
0000
0010
0100
0000
0010
1000
0000
0101
0000
1001
0000
,
0010
1000
0000
0100
0011
0000
0100
1000
0000
0001
0010
0000
1100
0000
1001
0000
,
0110
0000
0110
0000
0110
0000
0000
0000
2000
0000
0000
0002
0000
3000
0223
0330
,
0110
0110
0110
0000
0000
0000
0000
0000
;
