#TITLE:5.1.1. (Hyper Euro Prozac Mix);
#SUBTITLE:EXoduz Violation;
#ARTIST:Kinetikai;
#TITLETRANSLIT:;
#SUBTITLETRANSLIT:;
#ARTISTTRANSLIT:;
#CREDIT:Kairon;
#BANNER:../Banner.png;
#BACKGROUND:../Background.png;
#LYRICSPATH:;
#CDTITLE:;
#MUSIC:5.1.1. (Hyper Euro Prozac Mix).ogg;
#OFFSET:-0.040;
#SAMPLESTART:30.000;
#SAMPLELENGTH:9.680;
#SELECTABLE:YES;
#BPMS:0.000=160.000;
#STOPS:;
#BGCHANGES:;
// cache tags:
#FIRSTBEAT:8.000;
#LASTBEAT:298.500;
#SONGFILENAME:Songs/EXoduz Violation/5.1.1. (Hyper Euro Prozac Mix) (Kairon)/511.sm;
#HASMUSIC:1;
#HASBANNER:1;
#MUSICLENGTH:112.554;
// end cache tags

//---------------dance-single - ----------------
#NOTES:
     dance-single:
     :
     Challenge:
     12:
     1.000,1.000,0.195,0.258,1.000,803.000,22.000,29.000,0.000,10.000:

0000
0000
0000
0000
,
0000
0000
0000
0000
,
1000
0100
0010
0001
0010
0100
1000
0001
0100
0010
1000
0100
0010
0001
1000
0100
,
0010
0001
1000
0001
0100
0010
1000
0100
0010
0001
1000
0001
1000
0100
0010
0100
,
0010
0001
1000
0010
0100
0001
1000
0100
0010
0001
0010
0100
0010
0100
1000
0100
,
0010
0001
1000
0010
1000
0001
0100
0010
1000
0100
0010
0001
1000
0100
0010
0001
,
0100
0010
1000
0100
0010
0001
1000
0001
0100
0010
0100
0010
1000
0010
1000
0010
,
0100
0001
0010
0100
1000
0001
0100
0001
1000
0010
1000
0001
0100
0001
0010
0001
,
0100
0001
0010
0100
1000
0001
1000
0010
0100
0010
0100
0001
0010
0100
0010
0001
,
1000
0010
0100
0010
1000
0100
0010
0100
1000
0001
1000
0001
1000
0010
0100
0001
,
0020
0000
0000
0100
0000
0000
0001
0000
0000
0001
0000
0000
0130
0000
0002
0000
,
0103
0000
0000
1010
0000
0000
0110
0000
0000
2000
0000
0000
0001
0000
3100
0000
,
0011
0000
0000
1001
0000
0000
0110
0000
0000
1001
0000
0000
0100
0000
0010
0000
,
0100
0000
0000
1020
0000
0000
0130
0000
0000
0200
0000
0000
0301
0000
0110
0000
,
1000
0000
0000
0001
0000
0000
0100
0000
0000
0010
0000
0000
1000
0000
0000
0001
0000
0000
0100
0000
0000
0010
0000
0000
1000
0000
0100
0000
0010
0000
0001
0000
1000
0000
0100
0000
0010
0000
0001
0000
1000
0000
0100
0000
0010
0000
0001
0000
,
1000
0100
0010
0100
0010
0001
0010
0100
1000
0001
0100
0010
0100
0010
0100
0001
,
2000
0000
0000
0100
0000
0000
0000
0000
,
3020
0000
0000
0100
0000
0000
0000
0000
,
1030
0100
0000
1000
0100
0000
0001
1000
0000
0100
0010
0000
0011
0000
0100
0000
,
1000
0010
0000
0100
0010
0000
0100
0010
0000
0001
0010
0000
0100
0000
1000
0000
,
0010
0100
0000
0010
0100
0000
0001
0100
0000
0010
0001
0000
0110
0000
1000
0000
,
0110
0000
0001
0010
0000
1000
0100
0000
0001
0100
0000
0010
1000
0000
0010
0000
,
1000
0100
0010
0001
1000
0100
0010
0001
1000
0100
0010
0001
1000
0100
0010
0001
,
1000
0001
0100
0010
1000
0001
0100
0010
1000
0001
0100
0010
1000
0001
0100
0010
,
2000
0000
0000
0100
0000
0000
0000
0000
,
3020
0000
0000
0100
0000
0000
0000
0000
,
1030
0000
0001
0000
1000
0000
0010
0000
0000
0000
0000
0000
1000
0000
0000
0100
0000
0000
0000
0000
0000
0010
0000
0000
0001
0000
0000
0000
0000
0000
0100
0000
0000
0010
0000
0000
0000
0000
0000
0000
0000
0000
1000
0000
0000
0000
0000
0000
,
0001
0000
1000
0000
0001
0000
1000
0000
0000
0000
0000
0000
0100
0000
0000
0010
0000
0000
0000
0000
0000
1000
0000
0000
0100
0000
0000
0000
0000
0000
0010
0000
0000
0001
0000
0000
0000
0000
0000
0000
0000
0000
0100
0000
0000
0000
0000
0000
,
1000
0000
0001
0000
0100
0000
0010
0000
0000
0000
0000
0000
1000
0000
0000
0100
0000
0000
0000
0000
0000
0100
0000
0000
0010
0000
0000
0000
0000
0000
0010
0000
0000
0001
0000
0000
0000
0000
0000
0000
0000
0000
0100
0000
0000
0000
0000
0000
,
0001
0000
0010
0000
0100
0000
0010
0000
0000
0000
0000
0000
1000
0000
0000
0001
0000
0000
0000
0000
0000
0001
0000
0000
1000
0000
0000
0000
0000
0000
0100
0000
0000
0010
0000
0000
0000
0000
0000
0000
0000
0000
1000
0000
0000
0000
0000
0000
,
0001
0000
1000
0000
0001
0000
1000
0000
0000
0000
0000
0000
1000
0000
0000
0100
0000
0000
0000
0000
0000
0001
0000
0000
0100
0000
0000
0000
0000
0000
0010
0000
0000
0100
0000
0000
0000
0000
0000
0000
0000
0000
0001
0000
0000
0000
0000
0000
,
1000
0000
0010
0000
1000
0000
0010
0000
0000
0000
0000
0000
0100
0000
0000
0001
0000
0000
0000
0000
0000
0010
0000
0000
0100
0000
0000
0000
0000
0000
1000
0000
0000
0010
0000
0000
0000
0000
0000
0000
0000
0000
0100
0000
0000
0000
0000
0000
,
0001
0000
0010
0000
0100
0000
1000
0000
0000
0000
0000
0000
0001
0000
0000
0010
0000
0000
0000
0000
0000
0100
0000
0000
1000
0000
0000
0000
0000
0000
0001
0000
0000
1000
0000
0000
0000
0000
0000
0000
0000
0000
0100
0000
0000
0000
0000
0000
,
0010
0000
0000
0000
0000
0000
0000
0000
0100
0000
0000
0000
0000
0000
0000
0000
0001
0000
0000
0000
0000
0000
0000
0000
1000
0000
0000
0000
0000
0000
0000
0000
0000
0000
0000
0000
0000
0000
0000
0000
0000
0000
0000
0000
0000
0000
0000
0000
0010
0000
0000
0000
0000
0000
0000
0000
0000
0000
0000
0000
0100
0000
0000
0000
0000
0000
0000
0000
0000
0000
0000
0000
0000
0000
0000
0000
0000
0000
0000
0000
0000
0000
0000
0000
0001
0000
0000
0000
0000
0000
0000
0000
0000
0000
0000
0000
1000
0000
0000
0000
0000
0000
0001
0000
0000
0000
0000
0000
1000
0000
0000
0000
0000
0000
0000
0000
0000
0000
0000
0000
0001
0000
0000
0000
0000
0000
1000
0000
0000
0000
0000
0000
0001
0000
0000
0000
0000
0000
0000
0000
0000
0000
0000
0000
1000
0000
0000
0000
0000
0000
0001
0000
0000
0000
0000
0000
1000
0000
0000
0000
0000
0000
0000
0000
0000
0000
0000
0000
0001
0000
0000
0000
0000
0000
1000
0000
0000
0000
0000
0000
0001
0000
0000
0000
0000
0000
0000
0000
0000
0000
0000
0000
,
0100
0000
0010
0000
0100
0000
0001
0000
0000
0100
0000
0000
0001
0000
0000
0100
0000
0000
0001
0000
1000
0000
0100
0000
0010
0000
0000
0001
0000
0000
0100
0000
0000
0010
0000
0000
1000
0000
0001
0000
1000
0000
0001
0000
0000
1000
0000
0000
,
0001
0000
0000
0100
0000
0000
0010
0000
0000
1000
0000
0000
0001
0000
0000
0100
0000
0000
0001
0000
0000
0010
0000
0000
0100
0000
0000
1000
0000
0000
0001
0000
1000
0000
0001
0000
1000
0000
0000
0100
0000
0000
1000
0000
0000
0100
0000
0000
,
1000
0001
0000
0010
0001
0000
0010
0001
0000
0100
0010
0000
0100
0010
0000
0010
,
0001
0000
0001
0010
0000
0100
0010
0000
1000
0100
0000
0010
0001
0000
0010
0100
,
2000
0000
0200
0000
,
0020
0000
0000
0000
0002
0000
0000
0330
,
3223
0000
2000
0000
,
0002
0000
0000
3300
2233
0000
0000
3300
,
0010
0000
0100
0000
0010
0000
0100
0000
0010
0000
0100
0000
0010
0000
0000
1000
0000
0000
0001
0000
0000
1000
0000
0000
0001
0000
0000
1000
0000
0000
0010
0000
0000
0100
0000
0000
0001
0000
0000
0010
0000
0000
0100
0000
0000
0010
0000
0000
,
0001
0000
1000
0000
0100
0000
1000
0000
0100
0000
1000
0000
0100
0000
0000
0010
0000
0000
0001
0000
0000
1000
0000
0000
0010
0000
0000
1000
0000
0000
0010
0000
0000
0100
0000
0000
0001
0000
0000
0010
0000
0000
0100
0000
0000
1000
0000
0000
,
0001
0000
0010
0000
0100
0000
0010
0000
0100
0000
0010
0000
0001
0000
0000
1000
0000
0000
0010
0000
0000
1000
0000
0000
0010
0000
0000
0100
0000
0000
0001
0000
0000
0010
0000
0000
0100
0000
0000
1000
0000
0000
0001
0000
0000
1000
0000
0000
,
0001
0000
0010
0000
0100
0000
1000
0000
0100
0000
1000
0000
0100
0000
0000
1000
0000
0000
0010
0000
0000
0100
0000
0000
0001
0000
0000
0010
0000
0000
0100
0000
0000
1000
0000
0000
0100
0000
0000
0010
0000
0000
0001
0000
0000
0100
0000
0000
,
0001
0010
0100
0000
0001
0010
0001
0000
0100
0010
0100
0000
0001
0010
0001
0000
,
1000
0001
1000
0000
0010
0100
0010
0000
1000
0100
1000
0000
0001
0010
0001
0000
,
2000
0000
0000
0200
0000
0000
0000
0000
,
0020
0000
0000
0000
0000
0000
0000
0000
0000
0002
0000
0000
0000
0000
0000
3333
0000
0000
1000
0001
1000
0001
1000
0001
,
1000
0001
0100
0001
0100
0001
0010
0100
1000
0010
0100
0010
0100
0001
0010
0100
,
1000
0001
0010
0100
1000
0100
0010
0001
0010
0001
0010
0100
1000
0001
0010
0100
,
1000
0001
0100
0010
0100
0010
0100
0001
0010
0100
1000
0001
1000
0001
1000
0010
,
0100
0001
0010
0100
1000
0001
0010
0001
0010
0100
1000
0001
0010
0100
1000
0001
,
1000
0001
0100
0010
1000
0100
0010
0001
0010
0100
1000
0100
0010
0001
1000
0001
,
1000
0010
0100
0010
0100
0001
0010
0100
1000
0001
0010
0100
1000
0001
1000
0001
,
1000
0100
0010
0001
1000
0001
1000
0010
0100
0001
0010
0100
1000
0100
0010
0001
,
1000
0000
0000
0001
0000
0000
1000
0000
0000
0010
0000
0000
0100
0000
0000
0001
0000
0000
0010
0000
0000
0001
0000
0000
0010
0000
0000
0001
0000
0000
1000
0000
0000
0001
0000
0000
0100
0000
0010
0000
0100
0000
0010
0000
0100
0000
0010
0000
,
0100
0001
1000
0010
0100
0010
0100
0001
0010
0001
0100
0001
0010
0100
1000
0001
,
1000
0001
1000
0010
1000
0100
0010
0001
0010
0100
1000
0001
1000
0010
0100
0001
,
0010
0001
0100
0001
1000
0001
0100
0001
0010
0100
1000
0001
0100
0010
1000
0100
,
0010
0100
1000
0010
0100
0010
0100
0001
0100
0001
1000
0010
1000
0001
0010
0001
,
1000
0100
1000
0100
0010
0001
0010
0001
1000
0010
1000
0010
0100
0010
0100
0001
,
0010
0100
1000
0001
1000
0001
0010
0100
1000
0001
0010
0100
1000
0010
0100
0001
,
0020
0000
0200
0000
,
2000
0000
0000
0000
0000
0000
0000
0000
0000
0000
0000
0000
0002
0000
0000
3333
0000
0000
1000
0001
1000
0001
1000
0001
,
0400
0040
0000
0000
0000
0000
0000
0000
0000
0000
0000
0000
0330
0000
0010
0000
,
4000
0400
0000
0000
0000
0000
0000
0000
0000
0000
0000
0000
3300
0000
0001
0000
,
0400
0040
0000
0000
0000
0000
0000
0000
0000
0000
0000
0000
0330
0000
1000
0000
,
0040
0000
0400
0000
0000
0000
0000
0000
0000
0000
0000
0000
0330
0000
0000
0000
1000
0001
1000
0000
0001
1000
0001
0000
1000
0001
1000
0000
0001
1000
0001
0000
,
4000
0040
0000
0000
0000
0000
0000
0000
0000
0000
0000
0000
3030
0000
0010
0000
,
0400
0004
0000
0000
0000
0000
0000
0000
0000
0000
0000
0000
0303
0000
0100
0000
,
0040
4000
0000
0000
0000
0000
0000
0000
0000
0000
0000
0000
3030
0000
0100
0000
,
4000
0000
0400
0000
0000
0000
0000
0000
0000
0000
0000
0000
3300
0000
0000
0000
0010
0100
0010
0000
0100
0010
0100
0000
0010
0100
0010
0000
0100
0010
0100
0000
,
2002
0000
0000
0000
0000
3003
0000
0000
;
