#TITLE:RHYTHM AND POLICE;
#SUBTITLE:(K.O.G G3 Mix);
#ARTIST:CJ CREW feat. CHRISTIAN D;
#TITLETRANSLIT:;
#SUBTITLETRANSLIT:;
#ARTISTTRANSLIT:;
#CREDIT:;
#BANNER:RHYTHM AND POLICE (K.O.G G3 Mix).png;
#BACKGROUND:RHYTHM AND POLICE (K.O.G G3 Mix)-bg.png;
#LYRICSPATH:;
#CDTITLE:./CDTITLES/DANCE MANIA SPEED BEST 2001.PNG;
#MUSIC:RHYTHM AND POLICE (K.O.G G3 Mix).mp3;
#OFFSET:-0.666;
#SAMPLESTART:28.770;
#SAMPLELENGTH:12.000;
#SELECTABLE:YES;
#DISPLAYBPM:170.000;
#BPMS:0.000=170.000;
#STOPS:;
#BGCHANGES:;
// cache tags:
#FIRSTBEAT:8.000;
#LASTBEAT:252.000;
#SONGFILENAME:Songs/IzzySM Keyboard Mega Pack/RHYTHM AND POLICE (Oni Keyboard Edit)/RHYTHM AND POLICE (K.O.G G3 Mix).sm;
#HASMUSIC:1;
#HASBANNER:1;
#MUSICLENGTH:90.543;
// end cache tags

//---------------dance-single - ----------------
#NOTES:
     dance-single:
     :
     Challenge:
     10:
     1.000,1.000,1.000,0.155,0.740,536.000,138.000,14.000,0.000,0.000:
0000
0000
0000
0000
,
0000
0000
0000
0000
,
1001
0000
0000
0101
0000
0110
0000
1100
,
1001
0000
0000
0000
,
1000
0110
0010
0011
0100
1100
0001
1001
,
1000
0110
0010
0011
1000
1100
0100
0011
,
0000
1100
1000
0011
0010
1001
1000
0110
,
0010
0011
0001
1100
1000
0011
0010
1100
,
0000
0011
0100
1100
0001
0011
1000
1100
,
0100
0110
1000
1001
0001
1100
0100
0110
,
0000
0011
1000
1100
0010
0011
0001
1001
,
0110
0000
0011
0000
1100
0110
1001
0110
,
0001
0000
1000
0100
0010
0000
0100
0010
0001
0000
0100
0001
0010
0000
1000
0001
,
0010
0000
0001
1000
0010
0000
0100
1000
0010
0000
1000
0100
0010
0000
0001
0100
,
0010
0000
0100
0001
1000
0000
0001
0010
0100
0000
1000
0010
0100
0000
0001
0100
,
1000
0000
0100
0001
0010
0000
0100
1000
0001
0000
0010
0001
0100
0000
0010
1000
,
0100
0000
0010
0001
1000
0000
0100
0010
0001
0000
0100
0010
1000
0000
0100
0010
,
0001
0000
0010
0001
0100
0000
0010
1000
0001
0000
0100
1000
0010
0000
0100
0001
,
0010
0000
0100
1000
0010
0000
1000
0100
0010
0000
0001
0100
0010
0000
0100
0000
,
1001
0000
0110
0000
0011
0000
1100
0011
0000
0011
1100
0000
0000
0000
0000
0000
,
0002
0000
1000
0000
0000
0000
0010
0000
0003
0000
1000
0100
0010
0001
1000
0100
,
0020
0000
0001
0000
0000
0000
1000
0000
0030
0000
0010
0001
0010
0100
1000
0001
,
0200
0000
0010
0000
0000
0000
1000
0000
0300
0000
0010
1000
0001
0100
0010
1000
,
0002
0000
0010
0000
0000
0000
1000
0000
0003
0000
0100
0010
1000
0100
0010
0001
,
2000
0000
0100
0000
0000
0000
0010
0000
3000
0000
0001
0100
0010
1000
0001
1000
,
0020
0000
0100
0000
0000
0000
0001
0000
0030
0000
1000
0100
0010
0001
1000
0100
,
0020
0000
0001
0000
0000
0000
1000
0000
0030
0000
0010
0001
0100
0000
0000
0000
,
0110
0000
1001
0000
0110
0000
0011
1100
0000
1100
0011
0000
0000
0000
0000
0000
,
0001
0110
0100
1100
0010
0011
1000
1001
,
0001
0110
0100
1100
0001
0011
0010
1100
,
0010
0011
0001
1100
0100
1001
0001
0000
,
1001
0000
0000
0000
1001
1001
1001
0000
,
0010
1001
0001
0101
0100
1010
0010
0101
,
0001
1010
1000
0101
1000
1010
0100
0101
,
0010
1010
1000
1001
0010
0110
0100
1010
,
1000
0010
0100
0001
1000
0100
0010
0001
0100
0010
1000
0100
0010
0001
1000
0001
,
0100
1001
1000
1010
0001
0101
0010
0110
,
0100
1001
1000
1010
0100
0101
0001
1010
,
1000
0101
0100
1010
1000
0110
0100
1001
,
1001
0000
0000
0000
1001
0010
0010
0000
,
0001
0110
0010
1001
0001
0110
0100
1001
,
0100
0110
1000
1001
0010
0110
0001
1001
,
1000
1100
0001
0011
0010
1001
1100
0000
,
1001
0000
0000
0000
,
1001
0000
0000
0000
,
2000
0000
0001
0000
0000
0000
0100
0000
3000
0000
0001
0010
0100
1000
0001
0010
,
0200
0000
1000
0000
0000
0000
0001
0000
0300
0000
0100
1000
0100
0010
0001
1000
,
0020
0000
0100
0000
0000
0000
0001
0000
0030
0000
0100
0001
1000
0010
0100
0001
,
2000
0000
0100
0000
0000
0000
0001
0000
3000
0000
0010
0100
0001
0010
0100
1000
,
0002
0000
0010
0000
0000
0000
0100
0000
0003
0000
1000
0010
0100
0001
1000
0001
,
0200
0000
0010
0000
0000
0000
1000
0000
0300
0000
0001
0010
0100
1000
0001
0010
,
0200
0000
1000
0000
0000
0000
0001
0000
0300
0000
1000
0001
0010
0000
0000
0000
,
1001
0000
0110
0000
0011
0000
1100
0011
0000
0011
1100
0000
0000
0000
0000
0000
,
0001
0000
0001
0100
0010
1000
0001
0010
0100
1000
0100
0010
0001
0100
0010
1000
,
0001
0000
0001
0100
0010
1000
0001
0010
0100
1000
0100
0010
0001
0100
0010
1000
,
0001
0000
0001
0100
0010
1000
0001
0010
0100
1000
0100
0010
0001
0100
0010
1000
,
0001
0000
0001
0100
0010
1000
0001
0010
0100
1000
0100
0010
0001
0100
0010
1000
,
0001
0000
0001
0100
0010
1000
0001
0010
0100
1000
0100
0010
0001
0100
0010
1000
,
0001
0000
0001
0100
0010
1000
0001
0010
0100
1000
0100
0010
0001
0100
0010
1000
,
0001
0000
0001
0100
0010
1000
0001
0010
0100
1000
0100
0010
0001
0100
0010
1000
,
1001
0000
0110
0000
0011
0000
1100
0011
0000
0011
1100
0000
0000
0000
0000
0000
,
0110
0000
1001
0000
1100
0000
0011
1100
0000
1100
0011
0000
0000
0000
0000
0000
,
1001
0000
0110
0000
0011
0000
1100
0011
0000
0011
1100
0000
0000
0000
1001
0000
,
1001
0000
0000
0000
;
