#TITLE:Are You Ready;
#SUBTITLE:(DJ THT, CD Tecknoboy, & Nightcore Remix Edit);
#ARTIST:DJ Klubbingman feat. Beatrix Delgado;
#TITLETRANSLIT:;
#SUBTITLETRANSLIT:;
#ARTISTTRANSLIT:;
#CREDIT:owenviau1;
#BANNER:../BN.PNG;
#BACKGROUND:;
#LYRICSPATH:;
#CDTITLE:../CdTitleOV1.png;
#MUSIC:DJ Klubbingman feat. Beatrix Delgado - Are You Ready (DJ THT, CD Tecknoboy, & Nightcore Remix Edit).ogg;
#OFFSET:-1.434;
#SAMPLESTART:80.014;
#SAMPLELENGTH:29.999;
#SELECTABLE:YES;
#DISPLAYBPM:177.122;
#BPMS:0.000=177.122;
#STOPS:;
#BGCHANGES:;
// cache tags:
#FIRSTBEAT:0.000;
#LASTBEAT:495.000;
#SONGFILENAME:Songs/owenviau1 Simfiles 07_final/Are You Ready - [owenviau1] v1.0.1/Are You Ready.sm;
#HASMUSIC:1;
#HASBANNER:1;
#MUSICLENGTH:169.152;
// end cache tags

//---------------dance-single - owenviau1----------------
#NOTES:
     dance-single:
     owenviau1:
     Challenge:
     15:
     1.000,1.000,0.047,0.556,1.000,1531.000,8.000,94.000,10.000,1.000:

2MMM
0000
3020
0000
0030
0000
0000
1000
,
0010
0100
0001
2000
0000
3000
0100
0010
,
0002
0000
0203
0000
0300
0000
0010
1000
,
0001
0020
0000
0230
0000
0300
1000
0010
,
0200
0000
0302
0000
0003
1000
0100
1000
,
0010
0100
0001
2000
0000
3000
0001
0100
,
0002
0000
2003
0000
3000
0000
0000
0010
,
0100
0000
0001
0000
1000
0000
0200
0000
0000
0000
0300
0000
0000
0000
0010
0001
,
2000
0000
3200
0000
0320
0000
0031
0100
,
0010
2000
0000
3002
0000
0003
0000
1000
,
0200
0000
0320
0000
0031
0200
0000
0320
,
1000
0000
0000
0000
0130
0000
0001
0000
1000
0000
0000
0000
0100
0000
0010
0001
,
1000
0010
0100
0001
1000
0100
1000
0010
,
0100
0000
0001
0000
1000
0000
0100
0000
0010
0000
0001
0000
0100
0000
0010
1000
,
0001
0000
0000
0000
0000
0000
0000
0000
0000
0000
0000
0000
0010
0000
0000
0000
0000
0000
0000
0000
0000
0000
0000
0000
0100
0000
0000
0000
0000
0000
0000
0000
0000
0000
0000
0000
1000
0000
0000
0000
0000
0000
0000
0000
0000
0000
0000
0000
0010
0000
0000
0000
0000
0000
0000
0000
0000
0000
0000
0000
0100
0000
0000
0000
0000
0000
0000
0000
0000
0000
0000
0000
0001
0000
0000
0000
0000
0000
0000
0000
0000
0000
0000
0000
1000
0000
0000
0000
0000
0000
0000
0000
0000
0000
0000
0000
0100
0000
0000
0000
0000
0000
0000
0000
0000
0000
0000
0000
1000
0000
0000
0000
0000
0000
0000
0000
0000
0000
0000
0000
0010
0000
0000
0000
0000
0000
0000
0000
0000
0000
0000
0000
0100
0000
0000
0000
0000
0000
0000
0000
0000
0000
0000
0000
0001
0000
0000
0000
0000
0000
0000
0000
0000
0000
1000
0000
0000
0000
0000
0000
0000
0000
0000
0100
0000
0000
0000
0000
0000
0000
0000
0000
0000
0010
0000
0000
0000
0000
0000
0000
0000
0000
0001
0000
0000
0000
0000
0000
0000
0000
0000
0000
,
2000
0000
0000
0010
0000
0000
3020
0030
0020
0030
0020
0030
0010
0000
0100
0000
,
0001
1000
0010
0100
0001
1000
0100
0010
0001
0100
0010
1000
0010
0100
0001
1000
,
0100
0010
0001
0100
0010
1000
0001
0010
0100
1000
0001
0100
0001
0010
0100
1000
,
0010
0100
0001
1000
0010
1000
0001
0100
0010
0100
0001
1000
0100
1000
0010
0100
,
0001
1000
0100
0010
0001
1000
0010
1000
0100
0010
0001
0100
0010
1000
0001
0010
,
0001
0100
0010
1000
0001
0100
0001
1000
0010
0100
0010
1000
0001
0010
0001
0100
,
0010
1000
0100
0010
0001
1000
0010
1000
0001
0100
0010
0100
0001
1000
0100
1000
,
0010
0100
0001
1000
0100
0010
0001
1000
0010
1000
0100
0010
0001
0100
0010
1000
,
0010
0100
0001
0100
0010
1000
0001
0010
0100
1000
0010
0100
0001
0100
0010
1000
,
0100
0010
0001
0100
0001
1000
0010
0100
0001
1000
0100
0010
0001
0100
0010
1000
,
0010
0100
0001
1000
0100
0010
0001
0100
0010
1000
0001
0010
0100
1000
0001
0100
,
0001
0010
0100
1000
0010
0100
0001
1000
0010
1000
0001
0100
0010
0100
0001
1000
,
0100
1000
0010
0100
0001
1000
0100
0010
0001
1000
0010
1000
0100
0010
0001
0100
,
0010
1000
0001
0010
0001
0100
0010
1000
0001
0100
0001
1000
0010
0100
0010
1000
,
0001
0010
0001
0100
0010
1000
0100
0010
0001
1000
0010
1000
0001
0100
0010
0100
,
0001
0000
0000
0000
0000
0000
0000
0000
0000
0000
0000
0000
1000
0000
0000
0000
0000
0000
0000
0000
0000
0000
0000
0000
0100
0000
0000
0000
0000
0000
0000
0000
0000
0000
0000
0000
1000
0000
0000
0000
0000
0000
0000
0000
0000
0000
0000
0000
0010
0000
0000
0000
0000
0000
0000
0000
0000
0000
0000
0000
0100
0000
0000
0000
0000
0000
0000
0000
0000
0000
0000
0000
0001
0000
0000
0000
0000
0000
0000
0000
0000
0000
0000
0000
1000
0000
0000
0000
0000
0000
0000
0000
0000
0000
0000
0000
0100
0000
0000
0000
0000
0000
0000
0000
0000
0000
0000
0000
0010
0000
0000
0000
0000
0000
0000
0000
0000
0000
0000
0000
0001
0000
0000
0000
0000
0000
0000
0000
0000
0000
0000
0000
0100
0000
0000
0000
0000
0000
0000
0000
0000
0000
0000
0000
0010
0000
0000
0000
0000
0000
0000
0000
0000
0000
1000
0000
0000
0000
0000
0000
0000
0000
0000
0100
0000
0000
0000
0000
0000
0000
0000
0000
0000
1000
0000
0000
0000
0000
0000
0000
0000
0000
0001
0000
0000
0000
0000
0000
0000
0000
0000
0000
,
0010
0100
1000
0010
0100
0001
1000
0100
1000
0001
0010
0100
1000
0010
0100
0001
,
2000
0000
0000
0000
0000
3000
0000
0000
0000
0000
0000
0000
0001
0000
0010
0000
,
0200
0000
230M
00M0
3M00
0000
00M0
0000
,
1001
0000
1000
0010
1010
0000
0101
0000
,
1001
0000
0000
0000
1000
0000
0001
0000
0011
0000
0000
0000
1001
0000
1000
0010
,
0200
0000
0300
0001
2001
0000
3120
0000
,
1030
0000
0000
0100
0000
0000
0010
0000
0000
0001
0000
0000
0100
0000
0000
0010
1000
0001
0200
0000
0000
0000
0000
0000
,
0320
0000
0000
0000
0030
0000
1000
0000
0200
0000
0000
0300
0020
0000
0000
0030
,
0002
0000
0000
0000
0003
0000
1000
0000
0020
0000
0000
0030
0200
0000
0000
0300
,
0002
0000
0000
0000
0003
0000
0100
0000
0020
0000
0000
0030
2000
0000
0000
3000
,
0001
0000
0000
0000
0000
0000
0000
0000
0000
0000
0000
0000
0010
0000
0000
0000
0000
0000
0000
0000
0000
0000
0000
0000
0100
0000
0000
0000
0000
0000
0000
0000
0000
0000
0000
0000
1000
0000
0000
0000
0000
0000
0000
0000
0000
0000
0000
0000
0010
0000
0000
0000
0000
0000
0000
0000
0000
0000
0000
0000
0100
0000
0000
0000
0000
0000
0000
0000
0000
0000
0000
0000
0001
0000
0000
0000
0000
0000
0000
0000
0000
0000
0000
0000
1000
0000
0000
0000
0000
0000
0000
0000
0000
0000
0000
0000
0010
0000
0000
0000
0000
0000
0000
0000
0000
0000
0000
0000
0100
0000
0000
0000
0000
0000
0000
0000
0000
0000
0000
0000
0010
0000
0000
0000
0000
0000
0000
0000
0000
0000
0000
0000
1000
0000
0000
0000
0000
0000
0000
0000
0000
0000
0000
0000
0100
0000
0000
0000
0000
0000
0000
0000
0000
0000
0010
0000
0000
0000
0000
0000
0000
0000
0000
0001
0000
0000
0000
0000
0000
0000
0000
0000
0000
0100
0000
0000
0000
0000
0000
0000
0000
0000
0010
0000
0000
0000
0000
0000
0000
0000
0000
0000
,
2000
0000
0000
0000
3000
0000
0010
0000
0200
0000
0000
0300
0002
0000
0000
0003
,
2000
0000
0000
0000
3000
0000
0100
0000
0020
0000
0000
0030
0002
0000
0000
0003
,
2000
0000
0000
0000
3000
0000
0010
0000
0200
0000
0000
0300
0002
0000
0000
0003
,
1000
0000
0100
0000
0010
0000
0001
0000
0200
0000
0000
0300
0020
0000
0000
0030
,
2000
0000
0000
0000
3000
0000
0010
0000
0200
0000
0000
0300
0002
0000
0000
0003
,
2000
0000
0000
0000
3000
0000
0100
0000
0020
0000
0000
0030
0002
0000
0000
0003
,
2000
0000
0000
0000
3000
0000
0010
0000
0200
0000
0000
0300
0002
0000
0000
0003
,
1000
1000
0010
0010
0100
0100
0001
0001
,
2MM0
3001
2000
3100
2000
3010
0200
0301
,
2000
3100
0020
0031
0200
0310
2000
3001
,
0020
0031
0200
0310
2000
3001
0200
0301
,
2000
3100
0020
0031
2000
3010
2000
3001
,
0200
0310
2000
3001
0020
0031
2000
3100
,
0020
0031
0200
0310
2000
3001
0020
0130
,
1000
0000
0000
0000
0000
0000
0000
0000
0000
0000
0000
0000
0100
0000
0000
0000
0000
0000
0000
0000
0000
0000
0000
0000
0010
0000
0000
0000
0000
0000
0000
0000
0000
0000
0000
0000
0001
0000
0000
0000
0000
0000
0000
0000
0000
0000
0000
0000
0100
0000
0000
0000
0000
0000
0000
0000
0000
0000
0000
0000
0001
0000
0000
0000
0000
0000
0000
0000
0000
0000
0000
0000
1000
0000
0000
0000
0000
0000
0000
0000
0000
0000
0000
0000
0010
0000
0000
0000
0000
0000
0000
0000
0000
0000
0000
0000
0100
0000
0000
0000
0000
0000
0000
0000
0000
0000
0001
0000
0000
0000
0000
0000
0000
0000
0000
1000
0000
0000
0000
0000
0000
0000
0000
0000
0000
0100
0000
0000
0000
0000
0000
0000
0000
0000
0010
0000
0000
0000
0000
0000
0000
0000
0000
0000
0001
0000
0000
0000
0000
0000
0000
0000
0000
0000
0100
0000
0000
0000
0000
0000
0000
0000
0000
0010
0000
0000
0000
0000
0000
0000
0000
0000
0000
0100
0000
0000
0000
0000
0000
0000
0000
0000
0001
0000
0000
0000
0000
0000
0000
0000
0000
0000
,
1000
0000
1000
0000
0100
0000
0100
0000
0010
0000
0010
0000
0001
0000
0001
0100
,
0010
1000
0010
0100
0001
1000
0100
0010
0001
0100
0010
1000
0010
0100
0001
1000
,
0100
0010
0001
0100
0010
1000
0001
0010
0100
1000
0001
0100
0001
0010
0100
1000
,
0010
0100
0001
1000
0010
1000
0001
0100
0010
0100
0001
1000
0100
1000
0010
0100
,
0001
1000
0100
0010
0001
1000
0010
1000
0100
0010
0001
0100
0020
0000
0030
1000
,
00M1
0100
0010
1000
0001
0100
0001
1000
0010
0100
0010
1000
0001
0010
0001
0100
,
0010
1000
0100
0010
0001
1000
0010
1000
0001
0100
0010
0100
0001
1000
0100
1000
,
0010
0100
0001
1000
0100
0010
0001
1000
0010
1000
0100
0010
0001
0100
0010
1000
,
0010
0100
0001
0100
0010
1000
0001
0010
0100
1000
0010
0100
0001
0100
0010
1000
,
0100
0010
0001
0100
0001
1000
0010
0100
0001
1000
0100
0010
0001
0100
0010
1000
,
0010
0100
0001
1000
0100
0010
0001
0100
0010
1000
0001
0010
0100
1000
0001
0100
,
0001
0010
0100
1000
0010
0100
0001
1000
0010
1000
0001
0100
0010
0100
0001
1000
,
0100
1000
0010
0100
0001
1000
0100
0010
0001
1000
0010
1000
0100
0010
0001
0100
,
0010
1000
0001
0010
0001
0100
0010
1000
0001
0100
0001
1000
0010
0100
0010
1000
,
0001
0010
0001
0100
0010
1000
0100
0010
0001
1000
0010
1000
0001
0100
0010
0100
,
0001
1000
0100
1000
0010
0100
0001
1000
0100
0010
0001
0100
0010
1000
0001
0100
,
0010
0000
0010
0000
1000
0000
1000
0000
0001
0000
0001
0000
0010
0000
0010
0100
,
1000
0010
0100
0001
1000
0100
0010
0001
0100
0010
1000
0010
0100
0001
1000
0100
,
0010
0001
0100
0010
1000
0001
0010
0100
1000
0001
0100
0001
0010
0100
1000
0010
,
0100
0001
1000
0010
1000
0001
0100
0010
0100
0001
1000
0100
1000
0010
0100
0001
,
1000
0100
0010
0001
1000
0010
1000
0100
0010
0001
1000
0010
0100
0001
1000
0100
,
0010
0001
0100
0010
1000
0010
0100
0001
1000
0100
0010
0001
0100
0010
1000
0001
,
0010
0100
1000
0001
0100
0001
0010
0100
1000
0010
0100
0001
1000
0010
1000
0001
,
0100
0010
0100
0001
1000
0100
1000
0010
0100
0001
1000
0100
0010
0001
1000
0010
,
1000
0000
0000
1000
0000
0000
1000
0000
0010
0000
0100
0000
0001
0000
0010
0000
,
0100
1000
0010
0100
0001
1000
0100
0010
0001
0100
0010
1000
0010
0100
0001
1000
,
0100
0010
0001
0100
0010
1000
0001
0010
0100
1000
0001
0100
0001
0010
0100
1000
,
0010
0100
0001
1000
0010
1000
0001
0100
0010
0100
0001
1000
0100
1000
0010
0100
,
0001
1000
0100
0010
0001
1000
0010
1000
0100
0010
0001
0100
0010
1000
0001
0010
,
0001
0100
0010
1000
0001
0100
0001
1000
0010
0100
0010
1000
0001
0010
0001
0100
,
0010
1000
0100
0010
0001
1000
0010
1000
0001
0100
0010
0100
0001
1000
0100
1000
,
0010
0100
0001
1000
0100
0010
0001
1000
0010
1000
0100
0010
0001
0100
0010
1000
,
0010
0100
0001
0100
0010
1000
0001
0010
0100
1000
0010
0100
0001
0100
0010
1000
,
0100
0010
0001
0100
0001
1000
0010
0100
0001
1000
0100
0010
0001
0100
0010
1000
,
0010
0100
0001
1000
0100
0010
0001
0100
0010
1000
0001
0010
0100
1000
0001
0100
,
0001
0010
0100
1000
0010
0100
0001
1000
0010
1000
0001
0100
0010
0100
0001
1000
,
0100
1000
0010
0100
0001
1000
0100
0010
0001
1000
0010
1000
0100
0010
0001
0100
,
0010
1000
0001
0010
0001
0100
0010
1000
0001
0100
0001
1000
0010
0100
0010
1000
,
0001
0010
0001
0100
0010
1000
0100
0010
0001
1000
0010
1000
0001
0100
0010
0100
,
0001
0000
0000
0000
0000
0000
0000
0000
0000
0000
0000
0000
1000
0000
0000
0000
0000
0000
0000
0000
0000
0000
0000
0000
0100
0000
0000
0000
0000
0000
0000
0000
0000
0000
0000
0000
1000
0000
0000
0000
0000
0000
0000
0000
0000
0000
0000
0000
0010
0000
0000
0000
0000
0000
0000
0000
0000
0000
0000
0000
0100
0000
0000
0000
0000
0000
0000
0000
0000
0000
0000
0000
0001
0000
0000
0000
0000
0000
0000
0000
0000
0000
0000
0000
1000
0000
0000
0000
0000
0000
0000
0000
0000
0000
0000
0000
0100
0000
0000
0000
0000
0000
0000
0000
0000
0000
0000
0000
0010
0000
0000
0000
0000
0000
0000
0000
0000
0000
0000
0000
0001
0000
0000
0000
0000
0000
0000
0000
0000
0000
0000
0000
0100
0000
0000
0000
0000
0000
0000
0000
0000
0000
0000
0000
0010
0000
0000
0000
0000
0000
0000
0000
0000
0000
1000
0000
0000
0000
0000
0000
0000
0000
0000
0001
0000
0000
0000
0000
0000
0000
0000
0000
0000
0010
0000
0000
0000
0000
0000
0000
0000
0000
0100
0000
0000
0000
0000
0000
0000
0000
0000
0000
,
1000
1000
0100
0100
0010
0010
0001
0001
,
1000
0010
0100
0010
1000
0100
0010
0001
0100
0010
1000
0010
0100
0001
1000
0100
,
0010
0001
0100
0010
1000
0001
0010
0100
1000
0001
0100
0001
0010
0100
1000
0010
,
0100
0001
1000
0010
1000
0001
0100
0010
0100
0001
1000
0100
1000
0010
0100
0001
,
1000
0100
0010
0001
1000
0010
1000
0100
0010
0001
1000
0010
0100
0001
1000
0100
,
0010
0001
0100
0010
1000
0010
0100
0001
1000
0100
0010
0001
0100
0010
1000
0001
,
0010
0100
1000
0001
0100
0001
0010
0100
1000
0010
0100
0001
1000
0010
1000
0001
,
0100
0010
0100
0001
1000
0100
1000
0010
0100
0001
1000
0100
1000
0010
0100
0001
,
1000
0100
0010
0001
0100
0010
1000
0010
0100
0001
1000
0100
0010
0001
0100
0010
,
1000
0001
0010
0100
1000
0001
0100
0001
0010
0100
1000
0010
0100
0001
1000
0010
,
1000
0001
0100
0010
0100
0001
1000
0100
1000
0010
0100
0001
1000
0100
0010
0001
,
1000
0010
1000
0100
0010
0001
1000
0010
0100
0001
1000
0100
0010
0001
0100
0010
,
1000
0010
0100
0001
1000
0100
0010
0001
0100
0010
1000
0001
0010
0100
1000
0001
,
0100
0001
0010
0100
1000
0010
0100
0001
1000
0010
1000
0001
0100
0010
0100
0001
,
1000
0100
1000
0010
0100
0001
1000
0100
1000
0010
0100
0001
1000
0100
0010
0001
,
0100
0010
1000
0010
0100
0001
1000
0100
0010
0001
0100
0010
1000
0001
0010
0100
,
1000
0001
0100
0001
0010
0100
1000
0010
0100
0001
1000
0010
1000
0001
0100
0010
,
0100
0001
1000
0100
1000
0010
0100
0001
1000
0100
0010
0001
1000
0010
1000
0100
,
0010
0001
1000
0010
0100
0001
1000
0100
0010
0001
0100
0010
1000
0010
0100
0001
,
1000
0100
0010
0001
0100
0010
1000
0001
0010
0100
1000
0001
0100
0001
0010
0100
,
1000
0010
0100
0001
1000
0010
1000
0001
0100
0010
0100
0001
1000
0100
1000
0010
,
0100
0001
1000
0100
1000
0010
0100
0001
1000
0100
0010
0001
0100
0010
1000
0010
,
0100
0001
1000
0100
0010
0001
0100
0010
1000
0001
0010
0100
1000
0001
0100
0001
,
0010
0100
1000
0010
0100
0001
1000
0010
1000
0001
0100
0010
0100
0001
1000
0100
,
0010
0000
0010
0000
0001
0000
0001
0000
0100
0010
1000
0010
0100
0001
0010
0100
,
2000
3002
2003
3002
,
2003
3002
2003
3000
;
