#TITLE:2000007;
#SUBTITLE:(Feat. TTC);
#ARTIST:Modeselektor;
#TITLETRANSLIT:;
#SUBTITLETRANSLIT:;
#ARTISTTRANSLIT:;
#CREDIT:;
#BANNER:2000007-bn.png;
#BACKGROUND:2000007.png;
#LYRICSPATH:;
#CDTITLE:;
#MUSIC:2000007.ogg;
#OFFSET:0.009;
#SAMPLESTART:59.741;
#SAMPLELENGTH:12.000;
#SELECTABLE:YES;
#DISPLAYBPM:100.000;
#BPMS:0.000=100.000,52.000=87.500,52.250=75.000,52.500=62.500,52.750=50.000,53.000=37.500,53.250=100.700,54.000=100.000,108.750=200.000,109.250=100.000,113.250=200.000,113.500=100.000,114.250=200.000,114.500=100.000,115.250=200.000,115.500=100.000,116.250=200.000,116.500=100.000,117.250=200.000,117.500=100.000,118.250=200.000,118.500=100.000,119.250=200.000,119.500=100.000,120.250=200.000,120.500=100.000,128.750=200.000,129.000=100.000,129.750=200.000,130.000=100.000,130.750=200.000,131.000=100.000,131.750=200.000,132.000=100.000,132.750=200.000,133.000=100.000,133.750=200.000,134.000=100.000,134.750=200.000,135.000=100.000,135.750=200.000,136.000=100.000,144.750=200.000,145.000=100.000,145.750=200.000,146.000=100.000,146.750=200.000,147.000=100.000,148.750=200.000,149.000=100.000,149.750=200.000,150.000=100.000,150.750=200.000,151.000=100.000,160.250=200.000,160.500=100.000,161.250=200.000,161.500=100.000,162.250=200.000,162.500=100.000,164.250=200.000,164.500=100.000,165.250=200.000,165.500=100.000,166.250=200.000,166.500=100.000,210.000=87.500,210.250=75.000,210.500=62.500,210.750=50.000,211.000=37.500,241.500=87.500,242.000=75.000,242.500=62.500,243.000=50.000,243.250=37.500,243.500=37.500;
#STOPS:53.250=0.037
,57.750=0.150
,61.500=0.150
,65.250=0.150
,68.250=0.150
,68.750=0.150
,69.750=0.150
,72.250=0.150
,73.250=0.150
,75.750=0.150
,76.750=0.150
,78.500=0.150
,79.000=0.150
,80.000=0.150
,80.750=0.150
,85.500=0.300
,89.250=0.300
,93.250=0.150
,97.000=0.150
,100.750=0.150
,104.500=0.150
,105.500=0.150
,107.250=0.150
,107.750=0.150
,108.750=0.075
,109.000=0.075
,109.250=0.150
,113.250=0.075
,114.250=0.075
,115.250=0.075
,116.250=0.075
,117.250=0.075
,118.250=0.075
,119.250=0.075
,120.250=0.075
,123.250=0.150
,127.500=0.150
,128.750=0.075
,129.750=0.075
,130.750=0.075
,131.750=0.075
,132.750=0.075
,133.750=0.075
,134.750=0.075
,135.750=0.075
,144.750=0.075
,145.750=0.075
,146.750=0.075
,148.750=0.075
,149.750=0.075
,150.750=0.075
,154.750=0.150
,159.000=0.150
,160.250=0.075
,161.250=0.075
,162.250=0.075
,164.250=0.075
,165.250=0.075
,166.250=0.075
,178.250=0.150
,182.000=0.150
,185.750=0.150
,189.500=0.150
,193.250=0.150
,197.000=0.150
;
#BGCHANGES:;
// cache tags:
#FIRSTBEAT:0.000;
#LASTBEAT:211.250;
#SONGFILENAME:Songs/Beast Aoreo BEAST!/2000007 - [Aoreo]/2000007.sm;
#HASMUSIC:1;
#HASBANNER:1;
#MUSICLENGTH:133.650;
// end cache tags

//---------------dance-single - J. Nero----------------
#NOTES:
     dance-single:
     J. Nero:
     Challenge:
     11:
     0.855,0.731,0.187,0.022,1.000,767.000,25.000,3.000,37.000,3.000:
1001
0000
0000
0000
0000
0000
0000
0000
0001
0000
0000
0000
0000
0000
0000
0000
1000
0000
0000
0000
0000
0000
0000
0000
0100
0000
0000
0000
1000
0000
0000
0000
0000
0000
0000
0000
0010
0000
0000
0000
0100
0000
0000
0000
0001
0000
0000
0000
0040
0000
0000
0000
0000
0000
0000
0000
0000
0000
0000
0000
0000
0000
0000
0030
,
0110
0000
0000
0000
0100
0000
0000
0000
1100
0000
0000
M000
0000
0000
1000
0000
0000
0000
0010
0000
0100
0000
0000
0000
0001
0000
1000
0000
0100
0000
1000
0000
,
0010
0000
0100
0000
0110
0000
0010
1000
0000
0001
0010
0100
1000
0000
0000
0000
,
1010
0000
0000
0101
0110
0000
0000
1010
1100
0100
0110
0010
0011
0000
0000
0001
,
0101
0000
0000
0000
0000
0000
0100
0000
0000
0000
0000
0000
0010
0000
0000
0000
0000
0000
1000
0000
0000
1000
0000
0000
0010
0000
0000
0100
0000
0000
0001
0000
0000
1000
0000
0000
0100
0000
0000
1000
0000
0000
0001
0000
0000
0100
0001
0100
,
0001
0000
0000
0000
0100
0000
0000
0000
0010
0000
0000
00M0
0000
0000
0100
0000
0000
0000
0001
0000
1000
0000
0000
0000
1100
0000
0000
0000
0100
0000
0000
0000
,
0011
0000
0001
1000
0100
1000
0010
0010
0000
0100
0001
1000
0100
0000
0000
0000
,
1100
0000
1000
1000
0010
0010
0100
0100
0001
0001
0100
0100
0101
0004
0000
0003
,
0101
0000
0000
0000
0100
0000
0000
0000
0110
0000
0000
0000
0010
0000
0010
0000
1000
0000
0001
0000
0010
0000
0100
0000
0010
0000
0100
1000
0100
1000
0100
1000
,
0100
1000
0100
0000
1000
0000
0000
0010
0000
0100
0001
0000
0101
0000
0001
0000
,
1001
0000
0000
0000
0000
0000
1000
0000
0000
1100
0000
0000
0100
0000
0000
0000
0000
0000
0010
0000
0000
0001
0000
0000
0100
0000
0000
0010
0000
0000
1000
0000
0000
0100
0000
0000
1000
0000
0000
0010
0000
0000
0100
0000
0000
0001
0100
0001
,
0100
0000
0001
0100
0010
1000
0100
0010
0001
0100
0010
1000
0100
1000
0010
0000
,
0100
0100
0001
0001
1000
1000
0100
0100
0010
0010
0001
0001
0100
0100
0010
0010
,
100M
0000
0000
0010
0000
0000
0100
0000
0000
0001
0000
0000
10M0
0000
0000
0100
0000
0000
0000
0000
0000
0000
0000
0000
1000
0000
0100
0000
1000
0000
0010
0000
0000
0100
0000
0000
0001
0000
0000
1000
0000
0000
0010
0000
0000
0100
0000
0000
,
0001
0010
0100
1000
0010
0100
0001
0010
01M0
1000
0010
0100
0001
1000
0010
1000
,
0100
0010
0100
1000
0010
0100
0001
001M
0100
1000
0010
0100
0001
0010
0100
0010
,
0001
1000
0001
0001
0001
0001
010M
0100
0100
0010
1000
0010
0100
0001
0010
0100
,
1000
0010
01M0
0001
100M
0010
0100
0111
0001
1000
0100
0010
0100
1000
0010
0100
,
0001
0010
01M0
1000
0010
0111
0100
0001
1000
0100
1000
0010
0100
0001
0010
0100
,
1M00
0001
0100
1101
1000
0010
0100
0001
0010
0100
1000
M010
0100
0M01
1000
0100
,
1000
0000
M001
0000
0100
0000
0010
0000
10M0
0000
0001
0000
0100
0000
0000
0001
0000
0000
0010
0000
0200
0000
0000
0000
0000
0000
0000
0000
1300
0000
0100
0000
,
0010
0001
0100
0010
1000
0100
0010
0000
0000
0100
1000
0010
0100
0001
0100
0010
,
1000
0001
0010
0100
1000
0010
01MM
0001
1000
0100
1000
0010
0100
0001
1000
0010
,
0100
0001
1000
1000
1000
1000
M010
0010
0010
0100
0001
0010
0100
1000
0010
0100
,
0001
1000
0010
1000
0010
0000
0000
0000
1000
0010
0100
0001
0010
0100
1000
0010
,
0100
0001
1000
0010
01M0
0001
1000
0100
0010
0001
0100
0010
1000
0001
0010
0100
,
1000
0010
0100
0M01
1000
0100
1000
M010
0100
0001
0010
0100
1000
0010
01M0
0001
,
100M
0000
0010
0000
0100
0000
0001
0000
1000
0000
0001
0000
100M
0000
0010
0000
0100
0000
0001
0000
0010
0000
0000
0100
0000
0000
1000
0000
0010
0000
0000
0000
,
0000
0000
1000
0100
0010
0010
0001
0100
0001
0001
1000
0010
0100
0100
0001
1000
,
0200
1300
0010
0100
0001
0001
0100
0010
1000
1000
0100
0010
0001
0001
0100
0010
,
2000
3010
0100
0001
0010
0100
1000
0010
0100
0001
1000
1000
1000
1000
M010
0010
,
0010
0010
0100
0001
0010
0100
1000
0010
0100
0001
1000
0100
1000
0000
0001
000M
,
1000
0100
0001
0100
1000
0010
0100
1000
0100
0001
1000
0100
0001
0100
1000
0010
,
0100
0001
0010
0100
0010
1000
0010
0100
1000
0010
0100
0010
0001
0010
0100
0001
,
0010
0100
0010
1000
0010
0100
1000
0010
0100
0100
0100
0100
0000
0001
0001
0001
,
0001
0000
1000
0000
0100
0000
1000
0000
0001
0000
1000
0000
0001
0000
0100
0000
0001
0000
0000
1000
0000
0000
0010
0000
0100
0000
0000
0000
0000
0000
0000
0000
,
0010
0000
0000
0100
0000
0000
0001
0000
0000
0010
0000
0000
0100
0000
0000
1000
0000
0000
0010
0000
0000
0100
0000
0000
0001
0000
0000
1000
0000
0000
0100
0000
0000
1000
0000
0000
0010
0000
0000
0100
0000
0000
0001
0000
0000
1000
0001
1000
,
0001
0000
0000
1000
0000
0000
0010
0000
0000
1000
0000
0000
0100
0000
0000
1000
0000
0000
0001
0000
0000
0010
0000
0000
0100
0000
0000
1000
0000
0000
0010
0000
0000
0100
0000
0000
0001
0000
0000
1000
0000
0000
0100
0000
0000
1000
0100
1000
,
0100
1000
0001
0100
0010
1000
0100
1000
0010
0010
0010
0010
01M0
0100
0100
0100
,
0001
0010
0100
1000
0010
0100
0001
1000
0100
1000
0010
0000
0110
00M0
0100
0001
,
0010
0000
0000
0100
0000
0000
1000
0000
0000
0010
0000
0000
0100
0000
0000
0001
0000
0000
1000
0000
0000
0100
0000
0000
1000
0000
0000
0100
0000
0000
0010
0000
0000
0001
0000
0000
0100
0000
0000
0001
0100
0001
0100
0000
0000
0001
0000
0000
,
0010
0000
0000
0100
0000
0000
1000
0000
0000
0010
0000
0000
0100
0000
0000
0001
0000
0000
1000
0000
0000
0010
0000
0000
0100
0000
0000
0001
0000
0000
0010
0000
0000
0100
0000
0000
1000
0000
0000
0010
1000
0010
1000
0000
0000
0010
0000
0000
,
0100
0001
1000
0100
1000
0010
0100
0100
0100
0100
0000
0001
0001
0001
0001
1000
,
0010
0000
0100
0000
0001
0000
1000
0000
0100
0000
1000
0000
0010
0000
0000
0100
0000
0000
0001
0000
0100
0000
0000
0000
0000
0000
0000
0000
0001
0000
0100
0000
,
0010
1000
0100
0010
0001
0100
0010
1000
0001
0010
01M0
1000
0001
0010
0100
1000
,
0010
0100
0001
1000
0100
0010
0001
0100
0010
10M0
0001
0010
0001
0100
0010
1000
,
0100
0010
0001
0100
0010
0010
0010
0010
10M0
1000
1000
1000
0001
0100
0010
1000
,
0100
0010
0001
0100
0010
0100
0001
100M
0010
0100
0001
0010
0100
1000
0010
0100
,
0001
1000
0010
0100
0001
0010
01M0
1000
0010
0100
0001
0100
0010
1000
0100
1000
,
0001
0100
0010
0100
0001
001M
0100
1000
0010
0100
0001
1000
0100
1000
0010
0100
,
0001
0001
0001
0001
0000
1000
1000
1000
1000
0000
0001
1000
0001
0100
0010
1000
,
0100
0010
0001
0100
0010
1000
0001
0000
0010
0010
0100
0100
1000
1000
0001
0001
,
0100
0100
0010
0010
1000
1000
0001
0001
1M00
0010
1000
0001
0M00
000M
0000
0000
;
