#TITLE:GANON;
#SUBTITLE:(TECHNO REMIX);
#ARTIST:NINTENDO;
#TITLETRANSLIT:;
#SUBTITLETRANSLIT:;
#ARTISTTRANSLIT:;
#CREDIT:DJ Banzai;
#BANNER:Ganon-banner.PNG;
#BACKGROUND:Ganon-bg.PNG;
#LYRICSPATH:;
#CDTITLE:./CDTITLES/DANCE DANCE REVOLUTION EXTREME.PNG;
#MUSIC:Ganon (Techno Remix).mp3;
#OFFSET:-2.427;
#SAMPLESTART:19.220;
#SAMPLELENGTH:12.000;
#SELECTABLE:YES;
#BPMS:0.000=300.000;
#STOPS:;
#BGCHANGES:;
// cache tags:
#FIRSTBEAT:12.000;
#LASTBEAT:427.000;
#SONGFILENAME:Songs/zelda et megaman/Ganon (Techno Remix)/Ganon.sm;
#HASMUSIC:1;
#HASBANNER:1;
#MUSICLENGTH:96.060;
// end cache tags

//---------------dance-single - ----------------
#NOTES:
     dance-single:
     :
     Hard:
     10:
     0.882,1.000,0.573,0.083,0.000,530.000,55.000,8.000,0.000,0.000:
0000
0000
0000
0000
,
0000
0000
0000
0000
,
0000
0000
0000
0000
,
1000
0000
0000
1000
0000
0000
0000
0000
,
0001
0001
0001
0001
,
0100
0000
0000
0100
0000
0000
0000
0000
,
0010
0010
0010
0010
,
1000
0000
0000
1000
0000
0000
0000
0000
,
0010
0010
0010
0010
,
0100
0001
0100
0010
,
1000
0100
1000
0010
,
0100
0001
0010
0001
,
0100
0010
1000
0001
,
1000
0100
0010
0001
,
0100
0010
1000
0100
,
1000
0010
0100
0001
,
0010
0100
1000
0010
,
0100
0001
0100
0010
,
1000
0100
0010
0001
0100
0010
1000
0001
,
0010
0100
1000
0010
0100
0001
1000
0100
,
0010
0001
1000
0010
0100
0001
0010
0100
,
1000
0000
0010
0000
0100
0000
0001
1000
,
0001
0000
0100
0000
0010
0000
1000
0001
,
1000
0000
0100
0000
0010
0000
0001
0010
,
0001
0000
0100
0000
0010
0000
1000
0100
,
1000
0000
0001
0000
0100
0000
0001
1000
,
0001
0000
0010
0000
0100
0000
1000
0001
,
1000
0000
0001
0000
0100
0000
0010
1000
,
0100
0000
0010
0000
0001
0000
0010
0100
,
1000
0000
0010
0000
0100
0000
0010
0100
,
0001
0000
0100
0000
0010
0000
1000
0100
,
0010
0000
0001
0000
0100
0000
0010
1000
,
0100
0000
0010
0000
0001
0000
1000
0010
,
0100
0000
0001
0010
0001
0000
1000
0100
,
1000
0000
0010
0100
0010
0000
0100
0001
,
0100
0000
0010
1000
0010
0000
1000
0001
,
1000
0000
0100
0010
0100
0000
1000
0010
,
1000
0000
0001
0010
0001
0000
0100
0001
,
0100
0000
0010
1000
0010
0000
0100
0010
,
0100
0000
0001
0100
0010
0000
1000
0010
,
0100
0000
0001
1000
0100
0000
0010
0001
,
0100
0000
0010
0100
0001
0000
1000
0100
,
0010
0000
0001
0100
0010
0000
1000
0010
,
0100
0000
0010
1000
0100
0000
1000
0100
,
0010
0000
0001
0100
0010
0000
1000
0000
,
0100
0010
0100
1000
0100
0000
1100
0000
,
0001
0100
0001
0010
0001
0000
0011
0000
,
0001
0010
0100
1000
0100
0000
0110
0000
,
0010
0001
0100
0010
1000
0000
1010
0000
,
0001
0010
0001
0010
0100
0000
1100
0000
,
0010
0100
0010
0100
0001
0000
0101
0000
,
1000
0010
0100
0000
0110
0000
0110
0000
,
0001
0100
0010
0000
0110
0000
0110
0000
,
1000
0001
0100
0000
0101
0000
0101
0000
,
0001
0010
0100
1000
0010
0100
0001
1000
,
0100
0010
0001
0100
0010
1000
0001
0010
,
0100
1000
0001
0100
0010
1000
0100
0010
,
0002
0000
0000
0000
,
0203
0000
0000
0000
,
0320
0000
0000
0000
,
2030
0000
0000
0000
,
3002
0000
0000
0000
,
0203
0000
0000
0000
,
0310
1000
0001
0100
,
0010
1000
0100
0010
,
0001
0100
0010
1000
,
1001
0101
0110
0110
,
0101
1001
1010
1100
,
1100
0110
0101
1001
,
0100
0010
1000
0001
0010
0100
1000
0010
,
0100
0001
1000
0100
0010
0001
0100
0010
,
1000
0000
0010
0100
0010
0000
1000
0001
,
1000
0000
0100
0010
0100
0000
1000
0100
,
1000
0000
0001
0010
0001
0000
0100
0010
,
0100
0000
0010
1000
0010
0000
0100
0010
,
0100
0000
0001
0010
0100
0000
1000
0010
,
0100
0000
0001
0100
0010
0000
1000
0010
,
0100
0000
0001
0010
0100
0000
1000
0001
,
0010
0000
0100
0010
0001
0000
0100
0001
,
1000
0000
0010
0100
0001
0000
1000
0001
,
0100
0000
0010
1000
0100
0000
0100
0000
,
0010
0001
0010
0001
0100
0000
0101
0000
,
0010
1000
0010
1000
0100
0000
1100
0000
,
0001
0100
0010
1000
0100
0000
1100
0000
,
1000
0100
0010
0001
0010
0000
0011
0000
,
0101
0110
1100
0110
,
0101
0011
0011
1001
,
0100
0010
1000
0000
1010
0000
1010
0000
,
0001
0010
0100
0000
0110
0000
0110
0000
,
1000
0001
0100
0000
0101
0000
0101
0000
,
0010
1000
0001
0100
0010
1000
0100
0010
,
0001
0100
0010
1000
0001
0100
0010
1000
,
0100
0010
0001
1000
0010
0100
0001
1000
,
0100
0000
0110
0000
0010
0001
0100
0000
,
0010
0000
1010
0000
1000
0100
0010
0000
,
0001
0000
0101
0000
0010
1000
0100
0000
,
1000
0000
1100
0000
0001
0010
0100
0000
,
0010
0000
0011
0000
0100
1000
0010
0000
,
0100
0000
0110
0000
0001
0100
0010
0000
,
1000
0010
0100
0000
0101
0000
1001
0000
,
0100
0010
0001
0000
0101
0000
0110
0000
,
0010
1000
0100
0000
1100
0000
1001
0000
,
0001
0100
0010
1000
0010
0100
0001
0010
,
0100
1000
0010
0100
0001
1000
0100
0010
,
0001
0100
0010
1000
0001
0100
0010
1000
,
2002
0000
0000
0000
,
0000
0000
0000
3003
;

//---------------dance-single - ----------------
#NOTES:
     dance-single:
     :
     Medium:
     9:
     0.724,0.945,0.229,0.302,0.000,436.000,22.000,29.000,0.000,0.000:
0000
0000
0000
0000
,
0000
0000
0000
0000
,
0000
0000
0000
0000
,
0010
0000
0000
2200
0000
0000
3300
0000
,
0010
0001
0010
0001
,
0100
0000
0000
2020
0000
0000
3030
0000
,
0010
1000
0010
1000
,
0001
0000
0000
0220
0000
0000
0330
0000
,
0001
1000
0001
1000
,
0100
0000
0000
0022
0000
0000
0033
0000
,
0100
0010
0100
0010
,
0001
0000
0000
2200
0000
0000
3300
0000
,
0001
0100
0001
0100
,
0001
0000
0000
2020
0000
0000
3030
0000
,
0100
1000
0100
1000
,
0001
1000
0001
1000
,
0001
1000
0010
0100
,
0010
0100
0010
0100
,
0001
1000
0001
1000
0001
1000
0001
1000
,
0001
1000
0001
1000
0001
1000
0001
1000
,
0001
1000
0001
1000
0001
1000
0001
1000
,
0001
0010
1000
0010
,
0001
0010
1000
0010
,
0001
0100
0010
1000
,
0001
0100
1000
0100
,
0001
0100
1000
0100
,
0001
0010
0100
1000
,
0001
0100
0001
0100
,
1000
0100
1000
0100
,
0010
1000
0100
0010
,
0001
0010
0001
0010
,
1000
0010
1000
0010
,
0001
0100
0010
1000
,
0001
0100
0020
0000
,
1030
0001
0200
0000
,
0310
1000
0002
0000
,
0103
0010
1000
0200
,
0010
0310
0001
0100
,
0010
2000
0001
3001
,
0010
0100
0010
1000
,
0010
1000
0100
1000
,
0100
0010
0001
0010
,
0100
1000
0010
0100
,
0001
0010
0100
1000
,
0010
0100
0001
0100
,
0010
1000
0002
0000
,
0103
0010
2000
0000
,
3010
0100
0002
0000
,
1003
0010
0100
0002
,
0010
0013
0100
1000
,
0010
0200
0010
0310
,
1000
0001
1000
0001
,
0100
0010
0100
0010
,
1000
0100
0010
0001
,
1000
0001
1000
0001
1000
0001
1000
0001
,
1000
0001
1000
0001
1000
0001
1000
0001
,
1000
0001
1000
0001
1000
0001
1000
0001
,
1000
0000
1000
0000
,
0001
0000
0001
0000
,
1000
0000
1000
0000
,
0010
0000
0010
0000
,
0100
0000
0100
0000
,
0010
0000
0010
0000
,
1000
0100
1000
0100
,
1000
0100
0010
0001
,
0010
0001
0010
0001
,
0100
0010
0100
0010
,
0100
0010
1000
0001
,
1000
0001
1000
0001
,
0100
0010
0100
0010
0100
0010
0100
0010
,
0100
0010
0100
0010
0100
0010
0100
0010
,
0100
0001
0010
0100
,
1000
0010
0100
0001
,
1000
0100
0010
0001
,
0100
0010
1000
0001
,
0100
0010
2000
0000
,
3001
0010
0200
0000
,
1300
0001
0020
0000
,
0031
0100
0010
2000
,
0001
3001
0100
0010
,
1000
0020
0100
0130
,
0001
0100
0101
0000
,
1000
0010
1010
0000
,
0010
0100
0110
0000
,
0001
1000
1001
0000
,
1000
1000
0010
0010
,
0100
0100
0001
0001
,
1100
1100
1010
0110
,
0101
0110
1010
1010
,
1001
0101
0110
0101
,
1000
0001
1000
0001
1000
0001
1000
0001
,
1000
0001
1000
0001
1000
0001
1000
0001
,
1000
0001
1000
0001
1000
0001
1000
0001
,
1000
0000
0010
0000
0100
0000
0001
1000
,
0001
0000
0100
0000
0010
0000
1000
0001
,
1000
0000
0100
0000
1000
0000
0010
1000
,
0010
0000
1000
0000
0001
0000
0100
0001
,
0100
0000
0010
0000
1000
0000
0001
0100
,
0001
0000
1000
0000
0100
0000
0010
0001
,
0010
0000
0100
0000
1000
0000
0001
0100
,
0010
0000
1000
0000
0010
0000
0100
0010
,
1000
0001
0010
0001
,
1000
0001
1000
0001
1000
0001
1000
0001
,
1000
0001
1000
0001
0100
0010
0100
0010
,
0100
0010
0100
0010
0100
0010
0100
0020
,
0200
0000
0000
0000
,
0000
0000
0000
0330
;

//---------------dance-single - ----------------
#NOTES:
     dance-single:
     :
     Easy:
     6:
     0.409,0.500,0.021,0.042,0.000,269.000,2.000,4.000,0.000,0.000:
0000
0000
0000
0000
,
0000
0000
0000
0000
,
0000
0000
0000
0000
,
0100
0000
0000
0100
0000
0000
0000
0000
,
0010
0100
0010
0100
,
0001
0000
0000
0001
0000
0000
0000
0000
,
1000
0100
1000
0100
,
0010
0000
0000
0010
0000
0000
0000
0000
,
0001
1000
0001
1000
,
0010
0000
0000
0010
0000
0000
0000
0000
,
1000
0010
1000
0010
,
1000
0000
0000
1000
0000
0000
0000
0000
,
0001
0010
0001
0010
,
0001
0000
0000
0001
0000
0000
0000
0000
,
1000
0100
1000
0100
,
0010
0001
0010
0000
,
0100
1000
0100
0000
,
1000
0001
1000
0000
,
0010
0100
0010
0100
,
0001
0100
0001
0100
,
0010
1000
0010
1000
,
0001
0000
0100
0000
,
0001
0000
1000
0000
,
0010
0000
0100
0000
,
0001
0000
0100
0000
,
1000
0000
0010
0000
,
0001
0000
1000
0000
,
0001
0100
0001
0000
,
1000
0000
1000
0000
,
0010
0100
0010
0000
,
0100
0000
0100
0000
,
0001
1000
0001
0000
,
1000
0000
1000
0000
,
0001
0000
1000
0000
,
0001
0000
0100
0000
,
0010
0000
1000
0000
,
0100
0000
1000
0000
,
0010
0000
0100
0000
,
0001
0000
0100
0000
,
0010
1000
0010
0000
,
0100
0001
0100
0000
,
0001
1000
0001
0000
,
0010
0001
0010
0000
,
0100
1000
0100
0000
,
1000
0010
1000
0000
,
0001
0000
0100
0000
,
1000
0000
0010
0000
,
0001
0000
0100
0000
,
0010
0000
1000
0000
,
0001
0000
1000
0000
,
0100
0000
0001
0000
,
1000
0100
1000
0000
,
0001
0100
0001
0000
,
0100
0010
0100
0000
,
0001
0010
0001
0010
,
0100
1000
0100
1000
,
0001
0100
0010
1000
,
2002
0000
0000
0000
,
0000
0000
0000
0000
,
0000
0000
0000
0000
,
0000
0000
0000
0000
,
0000
0000
0000
0000
,
0000
0000
3003
0000
,
1000
0010
1000
0000
,
0001
0100
0001
0000
,
0100
0010
0100
0000
,
0010
1000
0010
0000
,
0100
0001
0100
0000
,
0010
1000
0010
0000
,
1000
0100
0010
0001
,
1000
0100
0010
0001
,
1000
0000
0001
0000
,
0100
0000
0010
0000
,
1000
0000
0001
0000
,
0100
0000
0010
0000
,
1000
0000
0001
0000
,
0100
0000
0001
0000
,
1000
0000
0100
0000
,
0010
0000
0001
0000
,
0100
0000
0010
0000
,
1000
0000
0001
0000
,
0100
0000
0010
0000
,
1000
0000
0001
0000
,
0100
0000
0010
0000
,
1000
0000
0001
0000
,
0100
0010
1000
0000
,
0100
0010
0001
0000
,
1000
0010
0100
0000
,
0001
0100
0010
0000
,
1000
0100
0010
0000
,
0001
0100
0010
1000
,
0100
0010
0001
0100
,
0010
1000
0001
0010
,
0001
0100
0010
0000
,
1000
0010
0100
0000
,
0001
0100
0010
0000
,
1000
0100
0010
0000
,
0001
0100
0010
0000
,
1000
0010
0100
0000
,
0001
0100
0010
0000
,
1000
0001
0100
0000
,
0010
1000
0100
0000
,
0010
0001
0100
0010
,
1000
0100
0010
0001
,
0100
0010
1000
0001
,
2002
0000
0000
0000
,
0000
0000
0000
3003
;
