#TITLE:Lux Triumphans-Dawn of Victory;
#SUBTITLE:;
#ARTIST:Rhapsody;
#TITLETRANSLIT:;
#SUBTITLETRANSLIT:;
#ARTISTTRANSLIT:;
#CREDIT:;
#BANNER:banner.png;
#BACKGROUND:rhapsody.jpg;
#LYRICSPATH:;
#CDTITLE:C;
#MUSIC:Rhapsody - Lux Triumphans-Dawn of Victory.mp3;
#OFFSET:-16.689;
#SAMPLESTART:57.898;
#SAMPLELENGTH:12.000;
#SELECTABLE:YES;
#BPMS:0.000=145.600,64.000=144.640,144.000=145.500,220.000=142.460,226.000=140.580,228.000=119.320,234.000=89.680,243.000=179.760,244.000=187.100,264.000=190.000,340.000=190.100;
#STOPS:;
#BGCHANGES:244.000=rhapsody2.jpg=1.000=0=0=1,
99999=-nosongbg-=1.000=0=0=0 // don't automatically add -songbackground-
;
// cache tags:
#FIRSTBEAT:0.000;
#LASTBEAT:1133.250;
#SONGFILENAME:Songs/toune 2/rhapsobody lux/Rhapsody - Lux Triumphans-Dawn of Victory.sm;
#HASMUSIC:1;
#HASBANNER:1;
#MUSICLENGTH:407.327;
// end cache tags

//---------------dance-single - ----------------
#NOTES:
     dance-single:
     :
     Challenge:
     12:
     1.000,1.000,0.700,0.631,1.000,2470.000,285.000,257.000,0.000,51.000:
1001
0100
0010
1000
,
0010
0000
0100
0000
0001
0010
0001
0000
,
1010
0100
0010
1000
,
0100
0000
0001
0000
2002
0000
0000
3003
,
0110
1000
0010
0001
,
0100
0000
0010
0000
1000
0100
0010
0000
,
1001
0010
0100
0001
,
2010
0001
0100
0000
0010
0001
0100
3000
,
1001
0001
0010
0001
,
0010
0000
1000
0000
0100
1000
0100
0000
,
0010
0100
0001
1000
,
0010
0000
0100
0000
0002
0000
0000
0003
,
1010
0100
1000
0010
,
0100
0000
0001
0000
0010
0100
0010
0000
,
1000
0100
1000
0010
,
2010
0001
0010
0000
0100
0010
0100
3000
,
0011
0000
0000
0000
0100
0000
0000
0000
0010
0000
0000
0000
1000
0000
0001
0010
,
0100
0000
0010
0000
1000
0100
1000
0000
,
0001
0000
0000
0000
0010
0000
0000
0000
0100
0000
0000
0000
0010
0000
0001
0100
,
1000
0000
0100
0000
0020
0000
0000
0030
,
1010
0000
0000
0000
0100
0000
0000
0000
0001
0000
0000
0000
1000
0000
0010
0100
,
0001
0000
0100
0000
0010
0100
0010
0000
,
1000
0100
0010
0100
,
2010
0100
0001
0000
0010
0001
3010
0000
,
2100
0010
0100
0000
0010
0001
3010
0000
,
0210
1000
0010
0000
1000
0001
0310
0000
,
1200
0001
0010
0000
0001
0010
1300
0000
,
0102
0000
0000
0000
0010
0100
0010
1000
0100
0000
0000
0000
1000
0100
1000
0100
,
0020
0000
0000
0000
0100
1000
0100
1000
0100
0000
0000
0000
1033
0100
1000
0100
,
0022
0000
0000
0000
1000
0100
1000
0100
1000
0000
0000
0000
0130
1000
0010
1000
,
0200
0000
0000
0000
0010
1000
0010
1000
0010
0000
0000
0000
1303
0010
0001
0100
,
2020
0000
0000
0000
0001
0100
0001
0100
0001
0000
0000
0000
0130
0010
0001
0010
,
0200
0000
0000
0000
0310
0001
0100
0001
0020
0000
0000
0000
3031
0100
0001
1000
,
0220
0000
0000
0000
0001
1000
0001
1000
0001
0000
0000
0000
1300
0100
0001
0100
,
2000
0000
0000
0000
0001
0100
0001
0100
0001
0000
0000
0000
3130
0010
1000
0010
,
0202
0000
0000
0000
1000
0010
1000
0010
1000
0000
0000
0000
0313
0100
0010
0100
,
1001
0000
0000
0000
0010
0000
0000
0000
0100
0000
0000
0000
0001
0000
0010
0001
,
1000
0000
0010
0000
0100
1000
0010
0000
,
0100
0000
0000
0000
0001
0000
0000
0000
0010
0000
0000
0000
1000
0000
0100
0001
,
0010
0100
2002
3003
,
1001
0000
0000
0000
0100
0000
0000
0000
0010
0000
0000
0000
1000
0000
0100
0001
,
0010
0000
0100
0000
0010
0100
0010
0000
,
1000
0000
0000
0000
0010
0000
0000
0000
0100
0000
0000
0000
0001
0000
0001
0100
,
1020
0100
1000
0000
0100
0001
0130
0000
,
1020
0100
0001
0000
0100
1000
0031
0000
,
0102
0010
1000
0000
0100
1000
0013
0000
,
0012
0100
1000
0000
0100
1000
0013
0000
,
2200
0300
0002
3003
,
2020
0000
0000
0030
0000
0000
0001
0000
0010
3000
0100
0000
,
2020
0000
0000
3030
,
2002
0000
0000
3003
,
2200
0300
0020
3030
,
0022
0000
0000
0033
,
1002
0100
1000
0000
0020
0000
0033
0000
,
2020
0000
0000
3030
0202
0000
0000
0303
,
0220
0000
0001
1000
0001
0000
0000
0330
,
2002
0000
0000
3003
2200
0000
0000
3300
,
0202
0000
1000
0010
1000
0000
1000
0303
,
0220
0000
0000
0330
0022
0000
0000
0033
,
0202
0000
0000
0000
,
0000
0000
0000
0000
0000
0000
0000
0303
,
1001
0010
0100
1000
0001
0100
0010
1000
0001
0010
0100
1000
0001
0100
0010
1000
,
0010
0100
0001
1000
0200
0000
0300
0000
0001
0000
0100
0000
0010
0000
1000
0000
,
0100
1000
0100
1000
0001
0010
0001
0010
0100
1000
0100
1000
0010
1000
0010
1000
,
0001
0100
0001
0100
0002
0000
0003
0000
0001
0000
0010
0000
2200
0000
3300
0000
,
0001
0010
0001
0010
0001
0100
0001
0100
0001
1000
0001
1000
0001
0100
0001
0100
,
0010
0100
0010
0100
2000
0000
3000
0000
0100
0000
0010
0000
0001
0000
1000
0000
,
0010
0100
0010
0100
0010
1000
0010
1000
0010
0100
0010
0100
0010
1000
0010
1000
,
0001
0010
0100
1000
0001
0010
0100
1000
0100
0000
0010
0000
0002
0000
0003
0000
,
0010
1000
0100
0010
0001
0100
0010
0100
0001
0100
0010
1000
0100
0010
0001
0100
,
0010
1000
0010
0100
0001
0100
0010
1000
0100
0010
0001
0010
0001
0100
0010
0100
,
0001
0010
0100
1000
0100
0010
0001
0010
0001
1000
0001
1000
0001
0010
0001
0100
,
0010
0100
0001
0100
0010
0100
0001
1000
0100
1000
0001
1000
0100
1000
0010
0100
,
0001
0100
0010
0100
0001
0100
0010
0100
0010
1000
0010
0100
0001
0100
0010
0100
,
0001
0100
0010
0100
0001
0010
0100
0010
0001
0010
0100
0010
0001
0100
0010
0100
,
0001
0010
0100
0010
0001
0100
0010
1000
0100
0010
0001
0100
0010
1000
0100
0010
,
0001
0100
0010
1000
0001
0010
0100
0010
0001
1000
0100
1000
0001
0010
0001
0100
,
0010
0100
0001
0010
0100
1000
0001
0010
0100
1000
0100
1000
0100
0010
0100
1000
,
0001
0010
0100
1000
0010
0100
0010
0100
0010
1000
0100
0010
0001
0100
0010
0100
,
0001
0010
0100
1000
0100
1000
0010
0100
0010
0100
0001
0010
0001
0010
0100
1000
,
0100
1000
0010
0100
0010
0100
0010
1000
0100
0010
0001
0010
0100
1000
0100
0010
,
0001
0100
0001
1000
0001
0010
0001
0100
0001
0010
0100
1000
0010
1000
0100
1000
,
0001
1000
0001
0010
0001
0100
0001
1000
0100
1000
0010
1000
0001
0010
0001
0100
,
0001
0010
0100
1000
0100
0010
0001
0010
0100
0010
0001
0100
0010
0100
0001
1000
,
0001
1000
0001
0100
0010
0100
0001
0010
0100
1000
0100
0010
0100
1000
0001
1000
,
1001
0000
0100
0010
0100
0000
1000
0100
1000
0000
0001
0100
0001
0000
0100
0010
,
0200
0000
0300
0010
0002
0000
0003
0010
,
0200
0000
0300
1000
0100
0010
0001
0010
,
0200
0000
0000
0000
0300
0000
1000
0100
0020
0000
0000
0000
0030
0000
0001
0000
,
0020
0000
0030
0100
0010
0100
0010
0001
,
2200
0000
0000
3300
0202
0000
0303
0010
,
1100
0010
0100
0011
0100
1000
0101
0010
0100
1001
0010
1000
,
0110
0011
1100
0101
,
0220
0000
0000
0000
0000
0000
0000
0000
0000
0330
0000
1000
0002
0000
0000
0000
0000
0000
0000
0000
0000
0003
0000
0000
,
0001
0010
0100
0010
0001
1000
0100
0010
0100
1000
0010
0100
0010
1000
0001
0010
,
0100
1000
0001
1000
0001
1000
0010
0100
0010
0100
0001
0010
0001
1000
0100
0010
,
0101
0000
1100
0000
0101
0000
0011
0000
1100
0000
0110
0000
,
1001
0000
0110
0000
0011
0000
2200
0000
0000
0000
0000
0000
,
0000
0000
0000
0000
0000
0000
3300
0000
1000
0100
0010
0001
0100
0010
1000
0010
,
0100
0001
0010
0100
1000
0100
0010
0001
0010
0001
1000
0100
1000
0100
0010
0001
,
0010
0000
0000
0100
0000
0000
0010
0000
0000
0100
0000
0000
1000
0000
0000
0100
0000
0000
0010
0000
0000
0001
0000
0000
1100
0000
0000
0000
0000
0000
0000
0000
0101
0000
0000
0000
0000
0000
0000
0000
0011
0000
0000
0000
0000
0000
0000
0000
,
1100
0000
0110
0000
0101
0000
1010
0000
0110
0000
0011
0000
,
2002
0000
0000
0000
0000
3003
0110
0000
,
0011
0100
0100
1010
0001
0001
0110
1000
,
0101
0010
0100
0011
0010
0010
1001
0000
,
0220
0000
0000
0330
2200
0000
0000
3300
,
0001
0010
0100
1000
0001
0100
0010
1000
0010
0100
0010
0100
0010
1000
0001
1000
,
0001
0010
0001
0100
0001
0010
0100
1000
0100
1000
0010
1000
0100
0010
0001
0100
,
1010
0000
0011
0000
0101
0000
1010
0000
1100
0000
0110
0000
,
1001
0000
0110
0000
0011
0000
2020
0000
0000
0000
0000
0000
,
0000
0000
0000
0000
3030
0000
0001
0000
1000
0100
0010
0001
0010
0100
1000
0010
,
0100
0010
1000
0100
1000
0001
1000
0010
0100
0010
1000
0001
0010
0001
0100
0001
,
0010
0000
0000
0001
0000
0000
1000
0000
0000
0100
0000
0000
0010
0000
0000
0001
0000
0000
0010
0000
0000
0100
0000
0000
1010
0000
0000
0000
0000
0000
0000
0000
0101
0000
0000
0000
0000
0000
0000
0000
0110
0000
0000
0000
0000
0000
0000
0000
,
1001
0000
0110
0000
0011
0000
1001
0000
0110
0000
1100
0000
,
0202
0000
0000
0000
0000
0303
0011
0000
,
0101
0010
0010
1100
0010
0010
0101
1000
,
0011
0100
0100
1001
0010
0010
0101
0010
,
2200
0000
0000
3300
0022
0000
0000
0033
,
0220
0000
0000
0330
2002
0000
0000
3003
,
0001
0100
0010
1000
0010
0100
0001
0010
0100
1000
0001
1000
0100
0010
0001
1000
,
0001
0010
0100
0010
0001
1000
0100
1000
0010
0100
0010
1000
0100
0010
0001
0010
,
0100
0010
0001
1000
0100
0010
0100
1000
0100
0010
0100
0010
0100
0010
0001
0010
,
0001
0010
0001
0010
0100
1000
0010
0100
0010
1000
0100
0010
0001
0100
0010
0100
,
0001
0010
0001
0100
0001
0100
0001
0010
0100
0010
0100
1000
0010
1000
0100
1000
,
0010
1000
0010
1000
0001
0010
0100
0010
0001
0100
0010
0100
0001
0010
0001
0010
,
0001
0100
0010
0100
0010
0100
0001
0010
0001
0010
0001
1000
0100
1000
0100
1000
,
0010
0100
0010
0100
0010
1000
0100
0010
0001
0010
0100
1000
0010
0100
0010
0100
,
0101
0000
0000
1000
0100
0010
0011
0000
0000
0001
0010
0100
,
1100
0000
0000
0001
0100
0010
1000
0100
0010
0001
0010
0100
,
1010
0000
0000
0100
0010
0001
1100
0000
0000
0100
0010
0001
,
0101
0000
0000
0010
0100
1000
0100
0010
0100
0010
0001
0010
,
1001
0000
1000
0100
0022
0033
0001
0010
,
2200
0000
0000
3300
0000
0000
0010
0000
0000
0100
0000
0000
2002
0000
0000
3003
0000
0000
1000
0000
0100
0000
0010
0000
,
2002
0000
0000
0000
0000
0000
0000
3003
,
0202
0000
0000
0303
0220
0000
0000
0330
,
2020
0000
0000
0000
0000
0000
0000
3030
,
2002
0000
0000
0000
0000
0000
0000
3003
,
0220
0000
0000
0000
0000
0000
0000
0330
,
2020
0000
0000
0000
0000
0000
0000
3030
,
0001
0010
0001
0010
0100
1000
0100
1000
0010
0100
0010
0100
0001
0010
0100
1000
,
0100
0010
0001
0100
0020
0000
0030
0000
0001
0000
0100
0000
0010
0000
1000
0000
,
1000
0100
0010
0100
1000
0001
0010
0001
0100
0001
0010
0001
0010
0001
1000
0100
,
1000
0010
0100
0010
2000
0000
3000
0000
0001
0000
0100
0000
0020
0000
0030
0000
,
0001
0010
0100
1000
0100
0010
0001
0100
0010
0100
0001
1000
0010
1000
0001
1000
,
0100
1000
0100
1000
0020
0000
0030
0000
1000
0000
0100
0000
0010
0000
0001
0000
,
1000
0100
1000
0100
0010
0001
0010
0001
0100
0010
0100
0001
0010
0100
1000
0010
,
0100
0001
0010
0001
0200
0000
0300
0000
1000
0000
0100
0000
0020
0000
0030
0000
,
0100
1000
0010
0100
0001
0010
0100
1000
0010
0100
0001
1000
0100
0010
0001
0100
,
0010
1000
0100
0010
0001
0100
0010
0100
0010
1000
0010
0100
0010
0100
0001
0010
,
0001
0100
0001
1000
0100
1000
0010
1000
0001
0010
0001
0100
0001
0010
0001
1000
,
0001
1000
0001
0010
0100
1000
0100
1000
0010
0100
0010
1000
0010
0100
0010
1000
,
0001
0010
0100
0010
0001
0010
0100
0010
0001
0010
0100
1000
0001
0010
0100
1000
,
0100
1000
0010
0100
0010
0100
0010
1000
0100
1000
0100
1000
0001
0010
0001
0010
,
0001
0100
0010
0100
0010
0100
0001
1000
0001
1000
0001
0010
0100
1000
0100
0010
,
0001
0100
0010
0100
0001
0100
0010
0100
0001
0100
0001
0010
0100
1000
0100
1000
,
0100
0010
0001
0100
0010
0100
0010
0100
0010
0100
0010
0100
0001
0010
0001
1000
,
0001
0100
0001
0100
0010
0100
0001
1000
0100
1000
0010
1000
0010
0100
0001
0010
,
0011
0000
0101
0000
1010
0000
0110
0000
0011
0000
0101
0000
,
1010
0000
0110
0000
0101
0000
2002
0000
0000
0000
0000
0000
,
0000
0000
0000
0000
0000
0000
3003
0000
1000
0001
1000
0001
1000
0010
0100
0001
,
0010
0001
0100
0001
0010
0100
1000
0100
0010
0001
0010
0001
0100
0001
1000
0100
,
0010
0000
0000
0100
0000
0000
1000
0000
0000
0001
0000
0000
0100
0000
0000
0001
0000
0000
0010
0000
0000
0100
0000
0000
1100
0000
0000
0000
0000
0000
0000
0000
0101
0000
0000
0000
0000
0000
0000
0000
0011
0000
0000
0000
0000
0000
0000
0000
,
0110
0000
1010
0000
0110
0000
0011
0000
0101
0000
1100
0000
,
2002
0000
0000
0000
0000
3003
0110
0000
,
0011
0100
0100
1010
0100
0100
0011
0100
,
1001
0010
0010
0101
0010
0010
1100
0010
,
0202
0000
0000
0303
2020
0000
0000
3030
,
0220
0000
0000
0330
2002
0000
0000
3003
,
0001
0010
0001
0010
0001
0010
0001
0010
0001
0010
0001
0010
0001
0100
0001
0100
,
0001
1000
0001
1000
0001
1000
0001
1000
0010
0100
0010
0100
0010
0100
0010
0100
,
0010
1000
0010
1000
0010
1000
0010
1000
0010
1000
0010
1000
0100
1000
0100
1000
,
0010
0100
0010
0100
0010
0100
0010
0100
0010
0100
0010
0100
0010
0100
0010
0100
,
0001
0010
0001
0010
0001
0010
0001
0010
0001
0010
0001
0010
0001
0100
0001
0100
,
0001
1000
0001
1000
0001
1000
0001
1000
0010
1000
0010
1000
0010
1000
0010
1000
,
0100
1000
0100
1000
0100
1000
0100
1000
0100
1000
0100
1000
0010
1000
0010
1000
,
0001
1000
0001
1000
0001
1000
0001
1000
0001
1000
0001
1000
0001
1000
0001
1000
,
1001
0000
0000
0010
0100
1000
1100
0000
0000
0100
0010
0001
,
0011
0000
0000
0010
0100
1000
0100
0010
0001
0010
0100
0010
,
1001
0000
0000
0100
0001
0010
0110
0000
0000
0100
0010
0001
,
1010
0000
0000
0010
0001
0010
0100
0001
0010
1000
0100
0010
,
2002
3003
0100
0010
0022
0033
0100
1000
,
2002
0000
0000
0000
0000
0000
0000
0000
0000
0000
0000
0000
0000
0000
0000
3003
0000
0000
0010
0000
0100
0000
0001
0000
,
2020
0000
0000
3030
0000
0000
0010
0000
0100
0000
1000
0000
0202
0000
0000
0000
0000
0000
0000
0000
0000
0303
0000
0000
,
0220
0000
0000
0330
2002
0000
0000
3003
,
0022
0000
0000
0000
0000
0000
0000
0033
,
0220
0000
0000
0000
0000
0000
0000
0330
,
0202
0000
0000
0000
0000
0000
0000
0303
,
2020
0000
0000
0000
0000
0000
0000
3030
,
0011
0100
0001
0010
0100
1000
0101
0010
0100
1000
0100
0010
,
0101
0010
0001
0010
0001
0010
0101
0010
0100
1000
0100
0010
,
0101
0010
0100
1000
0100
0010
1100
0001
0010
0001
0010
0000
,
0011
0000
0100
0000
1000
0000
0100
0000
1000
0000
0100
0000
2002
0000
0000
0000
0000
0000
0000
0000
0000
3003
0000
0000
,
0101
0010
0100
1000
0100
0010
1001
0100
0010
0100
1000
0100
,
1010
0100
0010
0100
1000
0100
0011
0010
0001
0010
0100
0010
,
1001
0010
0100
0010
1000
0100
0101
0010
0100
0001
0010
1000
,
0101
0000
0010
0000
0100
0000
0001
0000
1000
0000
0100
0000
2002
0000
0000
0000
0000
0000
0000
0000
0000
3003
0000
0000
,
0001
0010
0100
1000
0001
0010
0100
1000
0001
0100
0010
1000
0001
0100
0010
1000
,
0001
0010
0001
0010
0001
0100
0001
0100
0010
1000
0010
1000
0100
1000
0100
1000
,
0010
0100
0001
0100
0010
0100
0001
0100
0001
0100
0010
0100
0001
0010
0100
1000
,
0100
0010
0001
0010
0100
1000
0100
1000
0001
0000
0010
0000
0100
0000
1000
0000
,
0001
0100
0010
1000
0100
0010
0001
0010
0100
1000
0100
1000
0010
0100
0010
1000
,
0100
0010
0001
0010
0100
0010
0001
0100
0010
0100
0001
1000
0001
1000
0001
0100
,
0001
0010
0001
1000
0100
1000
0010
1000
0001
0010
0100
1000
0100
0010
0001
0010
,
0001
0100
0010
0100
0001
0010
0100
1000
0001
0000
0100
0000
0010
0000
1000
0000
,
2002
0000
0000
0000
3003
0000
0010
0000
0100
1000
0200
0000
0300
0000
0010
0000
,
0002
0000
0003
1000
0200
0000
0300
0010
0001
0010
0002
0000
0000
0000
0003
0000
,
0022
0000
0000
0000
0033
0000
0100
0000
0010
0001
0020
0000
0030
0000
0001
0000
,
2000
0000
0200
3000
0020
0300
0002
0030
0020
0000
0000
0000
0000
0000
0033
0000
,
0202
0000
0000
0000
0303
0000
1000
0000
0010
0100
0002
0000
0003
0000
0100
0000
,
2000
0000
3000
0010
0002
0000
0003
0100
1000
0100
2000
0000
0000
0000
3000
0000
,
0022
0000
0000
0000
0033
0000
1000
0000
0001
0010
0200
0000
0300
0000
0100
0000
,
0002
0000
0020
0003
0200
0030
2000
0300
0200
0000
0000
0000
0000
0000
3300
0000
,
0011
0100
0001
0010
0100
1000
0101
0010
1000
0001
0100
0010
,
0011
0100
0001
1000
0010
0100
1100
0010
0001
0100
0010
0010
,
1001
0010
0100
0001
0010
0100
1100
0001
0100
0010
1000
0100
,
1100
0000
0000
0000
0100
0000
0000
0000
0010
0000
0000
0000
0001
0000
0000
0010
0000
0000
0001
0000
0000
0010
0000
0000
0002
0000
0000
0000
0000
0000
0000
0000
0000
0000
0000
0000
0000
0000
0000
0000
0000
0000
0003
0000
0000
0000
0000
0000
,
0110
0001
1000
0100
0010
0001
1010
0100
0001
0010
0100
0010
,
1001
0010
0100
0100
0010
0010
1100
0010
0100
0001
0010
0100
,
0101
0010
0100
0001
0100
1000
1100
1000
0010
0001
0100
0010
,
0001
0000
0000
0000
0010
0000
0000
0000
0100
0000
0000
0000
1000
0000
0000
0100
0000
0000
1000
0000
0000
0100
0000
0000
2000
0000
0000
0000
0000
0000
0000
0000
0000
0000
0000
0000
0000
0000
0000
0000
0000
0000
3000
0000
0000
0000
0000
0000
,
0101
0010
0100
1000
0100
0010
0101
0010
0100
1000
0100
0010
,
1100
0010
0100
1000
0100
0010
0011
0100
0010
0100
0010
0100
,
2020
0000
0000
3030
2002
0000
0000
3003
,
0001
0010
0100
1000
0100
0010
0100
1000
0001
0010
0100
0010
0001
0100
0010
0100
,
0001
0010
0001
0100
0001
0010
0001
1000
0100
1000
0010
1000
0100
1000
0001
0010
,
0100
1000
0010
0100
0001
0010
0100
1000
0010
0100
0001
0010
0100
1000
0100
1000
,
1100
0000
0101
0000
0110
0000
1010
0000
0110
0000
1010
0000
,
0001
1000
0001
1000
0010
0100
0010
0100
0001
0010
0100
0010
0001
1000
0100
0010
,
0100
1000
0100
0010
0100
0010
0100
0010
0100
0010
0100
1000
0001
0010
0001
0010
,
0001
1000
0100
1000
0100
1000
0010
0100
0010
1000
0100
1000
0001
0010
0001
0100
,
0110
0000
0000
0000
1100
0000
0000
0000
0110
0000
0000
0000
2020
0000
0000
0000
0000
0000
0000
0000
0000
3030
0000
0000
,
0001
0010
0100
1000
0001
0100
0010
1000
0100
0010
0001
1000
0010
0100
0001
0010
,
0100
1000
0100
0010
0100
1000
0010
0100
0010
1000
0100
0010
0100
1000
0001
0010
,
0100
0010
0001
0100
0010
0100
0001
0010
0100
0010
0001
1000
0100
1000
0001
0010
,
0101
0000
0110
0000
0011
0000
0110
0000
1100
0000
0110
0000
,
1000
0100
0010
0001
1000
0100
0010
0001
0010
0001
0100
0010
1000
0100
0010
0001
,
0100
0010
1000
0100
1000
0010
0100
0001
1000
0010
0100
0001
0100
0001
1000
0010
,
1000
0010
0100
0001
0100
0001
0010
0100
1000
0010
0100
0010
0100
0010
1000
0010
,
0110
0000
0000
0000
0110
0000
0000
0000
1010
0000
0000
0000
0220
0000
0000
0000
0000
0000
0330
0000
0000
0001
0000
0000
,
1100
0100
0100
0011
0010
0010
1001
0100
,
1001
0010
0010
1100
0001
0001
0110
1000
,
0202
0000
0000
0303
2020
0000
0000
3030
,
0220
0000
0000
0330
2002
0000
0000
3003
,
1000
0100
0010
0001
1000
0100
0010
0001
0010
0100
1000
0100
0010
0100
1000
0010
,
0100
0010
1000
0001
1000
0001
0010
0001
1000
0100
1000
0001
0100
0001
1000
0010
,
1000
0001
0010
0100
1000
0010
0100
0010
1000
0100
0010
0001
0010
0100
1000
0010
,
0100
0010
1000
0100
1000
0100
0010
0001
0010
0001
0100
0010
0100
0001
0010
0001
,
0100
0001
1000
0100
1000
0010
1000
0001
0010
0001
1000
0100
0010
0001
0010
0100
,
1000
0010
0100
0010
1000
0100
0010
0001
0010
0100
1000
0100
0010
0001
0010
0100
,
1000
0010
0100
0001
0100
0010
1000
0001
0100
0010
1000
0010
0100
0001
0100
0010
,
1000
0100
0010
0001
1000
0100
0010
0001
0100
0010
1000
0100
1000
0100
1000
0100
,
0011
0000
0000
0001
0010
0100
1100
0000
0000
1000
0100
0010
,
0011
0000
0000
1000
0100
0010
0001
0010
0100
1000
0100
0010
,
0011
0000
0000
0010
0100
0010
0110
0000
0000
1000
0001
1000
,
1001
0000
0000
0001
0010
1000
0010
0001
0010
1000
0010
0001
,
1100
0000
1000
0100
0202
0303
0010
0100
,
2200
0000
0000
3300
0000
0000
0100
0000
0000
0001
0000
0000
0220
0000
0000
0330
0000
0000
1000
0000
0100
0000
0010
0000
,
2002
0000
0000
0000
0000
0000
0000
3003
,
0022
0000
0000
0033
0220
0000
0000
0330
,
2020
0000
0000
0000
0000
0000
0000
3030
,
0202
0000
0000
0000
0000
0000
0000
0303
,
0022
0000
0000
0000
0000
0000
0000
0033
,
2200
0000
0000
0000
0000
0000
0000
3300
,
2000
0000
0000
0100
0100
0100
3100
0000
0000
0010
0010
0011
,
0012
0000
0000
0003
0000
0000
1000
0000
0100
0000
0010
0000
0100
0000
1000
0000
0001
0000
0010
0000
0100
0000
0010
0000
,
0011
0000
0000
0100
0010
0100
0110
0000
0000
0001
0010
0001
,
0011
0000
0000
0010
0100
1000
0100
0010
0100
1000
0100
0010
,
1010
0000
1000
0100
0220
0330
0010
0100
,
2002
0000
0000
0000
0000
0000
0000
0000
0000
0000
0000
0000
0000
0000
0000
3003
0000
0000
1000
0000
0100
0000
0010
0000
,
2002
0000
0000
0000
0000
0000
0000
3003
,
2200
0000
0000
3300
0202
0000
0000
0303
,
2002
0000
0000
0000
,
0000
0000
0000
0000
0000
0000
0000
0000
0000
0000
0000
0000
0000
0000
0000
0000
0000
0000
0000
0000
0000
0000
0000
0000
3003
0000
0000
0000
0000
0000
0000
0202
,
0000
0000
0000
0000
,
0000
0000
0000
0000
0000
0000
0000
0000
0000
0000
0000
0000
0000
0000
0000
0000
0000
0000
0000
0303
0000
0000
0000
0000
0000
0000
2200
0000
0000
0000
0000
0000
,
0000
0000
0000
0000
,
0000
0000
0000
0000
0000
0000
0000
0000
0000
3300
0000
0000
0000
0220
0000
0000
,
0000
0000
0000
0000
,
0000
0000
0000
0000
0000
0000
0000
0330
,
2002
0000
0000
0000
,
0000
0000
0000
0000
,
0000
0000
0000
0000
,
0000
0000
0000
0000
,
0000
0000
3003
0000
2002
3003
0000
0000
0000
0000
0000
0000
0000
0000
0000
0000
;
