#TITLE:Massacre;
#SUBTITLE:SM Retirement;
#ARTIST:The Berzerker;
#TITLETRANSLIT:;
#SUBTITLETRANSLIT:;
#ARTISTTRANSLIT:;
#CREDIT:;
#BANNER:Massacre - bn.png;
#BACKGROUND:Massacre - bg.png;
#LYRICSPATH:;
#CDTITLE:../aCD.png;
#MUSIC:Massacre.ogg;
#OFFSET:-0.034;
#SAMPLESTART:63.280;
#SAMPLELENGTH:12.000;
#SELECTABLE:YES;
#BPMS:0.000=314.000;
#STOPS:;
#BGCHANGES:;
// cache tags:
#FIRSTBEAT:32.000;
#LASTBEAT:860.500;
#SONGFILENAME:Songs/Aoreo's Index Jawn/Massacre - [Aoreo]/Massacre.sm;
#HASMUSIC:1;
#HASBANNER:1;
#MUSICLENGTH:164.713;
// end cache tags

//---------------dance-single - J. Nero----------------
#NOTES:
     dance-single:
     J. Nero:
     Challenge:
     30:
     1.000,1.000,0.049,0.419,1.000,1908.000,8.000,69.000,3.000,0.000:
0000
0000
0000
0000
,
0000
0000
0000
0000
,
0000
0000
0000
0000
,
0000
0000
0000
0000
,
0000
0000
0000
0000
,
0000
0000
0000
0000
,
0000
0000
0000
0000
,
0000
0000
0000
0000
,
1000
0100
1000
0001
0020
0000
0000
0000
,
0031
1000
0100
0010
0002
0000
0000
0000
,
1003
0010
0200
0000
,
0301
0000
0000
0000
0010
0000
0000
0000
0200
0000
0000
0000
1300
0001
1000
0100
,
0010
0001
0200
0320
,
1030
0000
0100
0000
0020
0000
0032
1003
,
0100
1000
0001
0100
0020
0000
0000
0000
,
0130
0000
0001
0000
1000
0100
0010
0001
0100
0000
0001
0000
1000
0010
0100
0010
,
1000
0100
0010
0100
2000
0000
0000
0000
,
3001
0100
0010
0100
0002
0000
0000
0000
,
0013
0100
2000
0000
,
3001
0000
0000
0000
0100
0000
0000
0000
0020
0000
0000
0000
1030
0001
0010
0100
,
1000
0001
0200
0320
,
1030
0000
0100
0000
0020
0000
0032
1003
,
0010
1000
0100
0010
0002
0000
0000
1003
,
0001
0000
0100
0000
0001
0100
0001
0010
0100
0000
1000
0000
0010
0100
0010
1000
,
0100
0010
0001
1000
0002
0000
0000
0000
,
1003
0100
0010
0100
2000
0000
0000
0000
,
3001
0100
0020
0000
,
1030
0000
0000
0000
0100
0000
0000
0000
0020
0000
0000
0000
0031
0100
0001
1000
,
0100
0010
0002
0203
,
0310
0000
0100
0000
0020
0000
2030
3100
,
0010
0001
1000
0010
0200
0000
0000
0301
,
1000
0000
0100
0000
1000
0001
1000
0100
0010
0000
0001
0000
0100
0010
0100
0001
,
0010
0100
1000
0001
2000
0000
0001
0000
,
3100
0010
0001
1000
0002
0000
0100
0000
,
1003
0010
0200
0001
,
1300
0000
0000
0000
0010
0000
0000
0000
0200
0000
0000
0000
0301
1000
0001
0010
,
0100
1000
0200
0320
,
0031
0000
1000
0000
0020
0000
0230
0301
,
0010
0100
1000
0001
0200
0000
0010
0000
,
0301
0000
1000
0000
0001
0100
0001
1000
0100
0000
0010
0000
0001
1000
0010
0100
,
0020
0000
0000
0000
1030
0001
2000
0000
,
0000
0000
3002
0000
0013
0100
0010
0000
,
0200
0000
0000
0000
1300
0010
0200
0000
,
0000
0000
0000
0300
0020
0000
0000
0030
1000
0000
0001
0000
1000
0000
0000
0000
,
0102
0000
0000
0000
0013
0100
2000
0000
,
0000
0000
3002
0000
0103
0010
0100
0000
,
0002
0000
0000
0003
0020
0000
0000
0030
0200
0000
0000
0300
2000
0000
0000
0000
,
0000
0000
0000
0000
3020
0000
0000
0030
0100
0000
0001
0000
1000
0000
0000
0000
,
2100
0000
3000
0000
0100
1000
0002
0000
,
0000
0000
0000
0000
0203
0000
0000
0300
0010
0000
1000
0000
0100
0000
0000
0000
,
0020
0000
0000
0030
0100
1000
0002
0000
,
0000
0000
0000
0000
0203
0000
0000
0300
0001
0000
1000
0000
0010
0000
0000
0000
,
0120
0000
0000
0000
0130
0001
2000
0000
,
0000
0000
3002
0000
0013
0100
1000
0000
,
0002
0000
0000
0003
0020
0000
0000
0030
0200
0000
0000
0300
2000
0000
0000
0000
,
3001
0000
1000
0000
0000
0000
0000
0000
0000
0000
0000
0001
0000
1000
0000
0000
,
0000
0000
0000
0000
,
0001
1000
0000
0000
0000
0000
0001
1000
,
0000
0000
0000
1001
,
0001
1000
0000
0000
0000
0000
0001
1000
,
0000
0000
0000
0000
,
0001
1000
0000
0000
0000
0000
0001
1000
,
0000
0000
0002
1003
,
0001
1000
0000
0000
0000
0000
0001
1000
,
0000
0000
0000
0000
,
0001
1000
0000
0000
0000
0000
0001
1000
,
0000
0000
0000
1001
,
0001
1000
0000
0000
0000
0000
0001
1000
,
0000
0000
0000
0000
,
0001
1000
0000
0000
0000
0000
0001
1000
,
0000
0000
0002
1003
,
0001
1000
0000
0000
0000
0000
0001
1000
,
0000
0000
0000
0000
,
0001
1000
0000
0000
0000
0000
0001
1000
,
0000
0000
0000
0000
0000
0000
0000
0000
0000
0000
0000
1001
0000
0000
0000
0000
,
0001
0000
1000
0000
0000
0000
0000
0000
0000
0000
0000
0001
0000
1000
0000
0000
,
0000
0000
0000
0000
,
0001
1000
0000
0000
0000
0000
0001
1000
,
0000
0000
0002
1003
,
0001
1000
0000
0000
0000
0000
0001
1000
,
0000
0000
0000
0000
,
0001
1000
0000
0000
0000
0000
0001
1000
,
0000
0000
0000
1001
,
0001
1000
0000
0000
0000
0000
0000
0000
,
0000
0000
0000
0000
,
0000
0000
0000
0000
,
0000
0000
0000
0000
0000
0000
0000
0000
0001
1000
0001
1000
0001
1000
0001
1000
,
0010
0100
0001
1000
0100
0010
0100
1000
0001
0100
0010
0100
0001
1000
0100
0010
,
0001
0100
0001
1000
0010
0100
0010
1000
0001
1000
0100
0010
0001
1000
0001
0100
,
0010
0100
0001
1000
0100
0010
0001
0100
0001
1000
0100
0010
0100
1000
0010
0100
,
0010
1000
0001
1000
0100
0010
0001
1000
0001
0100
0010
0100
0001
1000
0100
0010
,
0001
1000
0010
0100
0010
1000
0001
1000
0100
0010
0001
1000
0001
0100
0010
0100
,
0001
1000
0001
0010
0100
1000
0001
0100
0010
0100
0001
1000
0100
0010
0100
1000
,
0001
0100
0010
1000
0001
1000
0100
0010
0001
1000
0001
0100
0010
0100
0001
1000
,
0100
0010
0100
1000
0001
0100
0010
0100
0001
1000
0100
0010
0001
1000
0001
0010
,
0100
1000
0001
0100
0001
0100
0010
1000
0001
1000
0100
0010
0001
1000
0010
0100
,
0010
1000
0001
0100
0001
0100
0010
1000
0001
1000
0100
0010
0001
1000
0100
1000
,
0001
0100
0010
0100
0001
1000
0100
0010
0001
1000
0001
0100
0010
0100
0001
1000
,
0100
0010
0001
1000
0001
1000
0010
0100
0001
0100
0001
1000
0100
0010
0100
1000
,
0001
0100
0010
0100
0001
1000
0100
0010
0001
1000
0001
0100
0010
0100
0001
1000
,
0001
0010
0100
1000
0001
0100
0010
0100
0001
1000
0100
0010
0100
1000
0001
0100
,
0010
0100
0001
1000
0100
1000
0010
0100
0001
1000
0001
0100
0010
1000
0001
0010
,
0100
1000
0001
0100
0001
1000
0100
0010
0100
0010
0001
1000
0001
0100
0010
0100
,
0001
1000
0100
0010
0100
1000
0001
0100
0001
0100
0010
1000
0001
1000
0100
0010
,
0001
1000
0001
0100
0010
0100
0001
1000
0100
0010
0001
0100
0001
0100
0010
1000
,
0001
1000
0100
0010
0001
0100
0001
1000
0100
0010
0100
1000
0001
0100
0001
1000
,
0010
0100
0010
1000
0001
1000
0100
0010
0001
1000
0001
0100
0010
0100
0001
1000
,
0001
1000
0010
0100
0001
1000
0001
1000
0100
0010
0001
1000
0100
1000
0100
0010
,
0001
1000
0001
0100
0001
1000
0010
0100
0010
1000
0001
1000
0100
0010
0001
1000
,
0001
0100
0010
0100
0001
1000
0100
0010
0001
1000
0001
1000
0010
0100
0010
1000
,
0001
1000
0100
0010
0001
1000
0001
0100
0010
0100
0001
1000
0100
0010
0001
1000
,
0001
0100
0010
0100
0001
1000
0100
0010
0001
1000
0001
1000
0010
0100
0010
1000
,
0001
0010
0100
1000
0001
0100
0001
1000
0100
1000
0100
0010
0001
1000
0001
0100
,
0010
0100
0001
1000
0001
0010
0100
1000
0001
0100
0001
0100
0010
1000
0001
1000
,
0100
0010
0001
1000
0001
0100
0010
0100
0001
1000
0100
0010
0100
1000
0001
0100
,
0010
0100
0001
1000
0100
0010
0001
1000
0001
0100
0010
0100
0001
1000
0001
0010
,
0100
1000
0001
0100
0010
0100
0001
1000
0100
0010
0001
1000
0001
0100
0001
1000
,
0100
1000
0100
0010
0001
1000
0001
0100
0010
0100
0001
1000
0001
0010
0100
1000
,
0001
0100
0001
1000
0010
0100
0010
1000
0001
0100
0001
1000
0100
1000
0001
0100
,
0001
1000
0100
0010
0001
1000
0100
1000
0100
0010
0001
1000
0001
0100
0001
1000
,
0010
0100
0010
1000
0001
0100
0001
1000
0100
0010
0100
1000
0001
0100
0001
0100
,
0010
1000
0001
0100
0010
0100
0001
1000
0001
0010
0100
1000
0001
1000
0001
0010
,
0100
1000
0010
1000
0010
0100
0001
1000
0001
0010
0100
0010
0001
1000
0001
0100
,
0010
1000
0010
1000
0100
0010
0001
1000
0001
0100
0010
0100
0001
1000
0010
0100
,
0010
1000
0001
0100
0001
1000
0100
0010
0100
1000
0001
0100
0001
1000
0010
0100
,
0001
1000
0001
1000
0100
0010
0001
0100
0001
1000
0100
0010
0001
1000
0010
0100
,
0010
1000
0100
0010
0001
1000
0001
0100
0010
0100
0001
1000
0001
0010
0100
1000
,
0001
0100
0001
0100
0010
1000
0001
1000
0100
0010
0001
1000
0010
0100
0010
1000
,
0001
0010
0100
1000
0001
0100
0001
0100
0010
1000
0001
1000
0100
0010
0001
1000
,
0010
0100
0010
1000
0001
0100
0001
0100
0010
1000
0001
0010
0100
0010
0100
1000
,
0001
0100
0001
1000
0100
0010
0100
1000
0001
0100
0001
0100
0010
1000
0010
0100
,
0001
1000
0100
1000
0100
0010
0001
1000
0001
0100
0010
0100
0001
1000
0001
0010
,
0100
1000
0001
0100
0010
0100
0001
1000
0100
0010
0100
1000
0001
0100
0001
1000
,
0100
0010
0100
1000
0001
0100
0001
1000
0010
0100
0010
1000
0001
1000
0100
0010
,
0001
1000
0010
0100
0010
1000
0001
1000
0100
0010
0001
1000
0100
0010
0100
1000
,
0001
0100
0001
0100
0010
1000
0001
1000
0100
0010
0001
1000
0001
0100
0010
0100
,
0001
1000
0100
0010
0001
1000
0100
1000
0001
0100
0001
0100
0010
1000
0001
0100
,
0001
1000
0100
0010
0001
0010
0001
1000
0010
0100
0010
1000
0001
0010
0100
0010
,
0001
1000
0010
0100
0010
1000
0001
0010
0100
1000
0010
1000
0001
0100
0001
0100
,
0010
1000
0001
0100
0010
0100
0001
1000
0100
0010
0001
1000
0010
0100
0010
0100
,
0001
1000
0001
0010
0100
1000
0001
0100
0001
1000
0100
0010
0100
1000
0001
0100
,
0010
0100
0001
1000
0100
0010
0001
1000
0001
0100
0010
0100
0001
1000
0100
0010
,
0100
1000
0001
0100
0010
0100
0001
1000
0100
0010
0100
1000
0001
0100
0010
0100
,
0001
1000
0100
0010
0001
1000
0001
0100
0010
0100
0010
1000
0001
0100
0001
1000
,
0100
1000
0100
0010
0001
1000
0001
0100
0010
0100
0001
1000
0100
0010
0100
1000
,
0001
0100
0001
0100
0010
1000
0010
0100
0001
1000
0100
0010
0001
1000
0100
1000
,
0001
0100
0001
1000
0100
0010
0100
1000
0001
0100
0010
0100
0001
1000
0100
0010
,
0001
1000
0001
0100
0010
0100
0001
1000
0100
0010
0100
1000
0001
0100
0010
0100
,
0001
1000
0100
1000
0100
0010
0001
1000
0001
0100
0010
0100
0010
1000
0001
0010
,
0100
0010
0001
1000
0010
0100
0010
1000
0001
1000
0100
0010
0001
1000
0001
0100
,
0010
0100
0001
0010
0100
1000
0001
0100
0010
0100
0001
1000
0100
0010
0001
1000
,
0001
1000
0000
0000
0000
0000
0001
1000
,
0000
0000
0000
0000
,
0001
1000
0000
0000
0000
0000
0001
1000
,
0000
0000
0000
1001
,
0001
1000
0000
0000
0000
0000
0001
1000
,
0000
0000
0000
0000
,
0001
1000
0000
0000
0000
0000
0001
1000
,
0000
0000
0002
1003
,
0001
0000
1000
0000
0000
0000
0000
0000
00M0
00M0
00M0
0000
0001
0000
1000
0000
,
0000
0000
0000
0000
,
0001
1000
0000
0000
0000
0000
0001
1000
,
0000
0000
0000
0000
0000
0000
0000
0000
0001
0010
0001
0100
0010
1000
0100
0010
,
0001
1000
0000
0000
0000
0000
0001
1000
,
0000
0000
0000
0000
,
0001
1000
0000
0000
0000
0000
0001
1000
,
0000
0000
0002
1003
,
0001
0100
0010
1000
0001
0100
0001
0100
0010
1000
0001
0010
0100
1000
0001
0100
,
0001
1000
0100
1000
0001
0100
0001
1000
0010
0100
0010
1000
0001
1000
0100
0010
,
0001
1000
0010
0100
0010
1000
0001
0100
0001
1000
0100
0010
0001
1000
0001
0100
,
0010
0100
0001
1000
0100
1000
0001
0010
0100
1000
0001
0100
0001
0100
0010
1000
,
0001
0100
0010
0100
0001
1000
0100
0010
0100
1000
0001
0100
0001
1000
0010
0100
,
0010
1000
0001
1000
0100
0010
0001
1000
0001
0100
0010
0100
0001
1000
0100
0010
,
0001
1000
0001
0100
0010
0100
0001
1000
0100
0010
0100
1000
0001
0100
0010
0100
,
0001
1000
0100
0010
0001
1000
0001
0100
0010
0100
0001
1000
0100
0010
0100
1000
,
0001
0100
0001
0100
0010
1000
0001
0100
0001
1000
0100
0010
0100
1000
0001
0100
,
0001
1000
0100
0010
0001
1000
0001
0100
0010
0100
0001
1000
0001
1000
0100
0010
,
0001
1000
0010
1000
0001
0100
0001
1000
0100
0010
0100
0010
0001
1000
0001
0100
,
0010
0100
0001
1000
0100
0010
0100
1000
0001
0100
0001
0100
0010
1000
0001
1000
,
0100
0010
0001
1000
0001
0100
0010
0100
0001
1000
0100
0010
0100
1000
0001
0100
,
0010
0100
0001
1000
0100
0010
0001
1000
0001
0100
0010
0100
0001
1000
0100
0010
,
0001
0010
0001
1000
0010
1000
0001
0100
0001
1000
0100
0010
0001
1000
0100
1000
,
0001
0100
0001
1000
0010
0100
0010
1000
0001
1000
0100
0010
0001
1000
0001
0100
,
0001
1000
0100
0010
0100
1000
0010
0100
,
0010
1000
0100
0010
0001
0100
0001
1000
,
0100
0010
0100
1000
0001
0100
0010
0100
,
0001
0000
1000
0000
0100
0000
0010
0000
0001
0000
1000
0000
0001
0100
0001
0010
,
0100
1000
0010
0100
0010
1000
0100
0010
,
0001
0100
0010
0100
0001
0010
0001
0100
,
0010
1000
0100
0010
0001
1000
0001
0010
,
0100
0000
1000
0000
0001
0100
0001
0010
0100
0000
1000
0000
0010
1000
0100
0010
,
0001
1000
0010
0100
0010
1000
0100
0010
,
0001
0100
0001
1000
0100
0010
0100
1000
,
0001
0100
0010
0100
0001
1000
0100
0010
,
0001
0000
1000
0000
0001
0000
0100
0000
0010
0000
0100
0000
0001
0010
0100
1000
,
0001
0100
0001
1000
0100
0010
0001
1000
,
0001
0100
0010
0100
0001
1000
0100
0010
,
0100
1000
0010
0100
0010
1000
0100
0010
,
0001
0000
1000
0000
0001
0010
0001
0100
0010
0000
1000
0000
0100
0010
0001
0100
,
0010
0000
1000
0000
0100
0000
0010
0000
0001
0000
1000
0000
,
0001
0000
0100
0010
0100
0000
0001
0000
1000
0000
0100
0000
,
0010
0001
1000
0001
0100
0000
0001
0000
1000
0000
0100
0000
,
0010
0000
0001
1000
0001
0000
1000
0000
0100
0000
0010
0000
,
0100
0000
1000
0000
0001
0000
0100
0000
0010
0000
0100
0000
,
0001
0000
0010
0000
0100
0000
1000
0000
0010
0000
0100
0000
,
0010
0000
1000
0000
0100
0000
0010
0000
0001
0000
1000
0000
,
0001
0000
1000
0100
0010
0000
0100
0000
1000
0000
0010
0000
,
0100
0001
1000
0100
0010
0001
1000
0000
0000
0000
0000
0000
,
0001
0100
0001
0010
0100
1000
0001
0000
0000
0000
0000
0000
,
1000
0100
0010
0100
1000
0010
0100
0000
0000
0000
0000
0000
,
0001
0100
0001
0010
0100
1000
0010
0100
0010
1000
0100
0010
,
0001
0100
0001
1000
0100
0010
0001
0000
0000
0000
0000
0000
,
1000
0100
0010
0100
1000
0010
0100
0000
0000
0000
0000
0000
,
0001
0100
0010
0100
0001
0010
0100
0000
0000
0000
0000
0000
,
1000
0000
0100
0000
0010
0000
0100
0000
1000
0000
0010
0000
0100
0000
0000
0001
0000
0000
1000
0000
0000
0002
0000
0000
,
0000
0003
0000
0000
0000
0000
0000
0000
;
