#TITLE:Desperate Times Desperate Measures;
#SUBTITLE:;
#ARTIST:Underoath;
#TITLETRANSLIT:;
#SUBTITLETRANSLIT:;
#ARTISTTRANSLIT:;
#CREDIT:;
#BANNER:;
#BACKGROUND:;
#LYRICSPATH:;
#CDTITLE:monst3rjoe - cdtitle.png;
#MUSIC:09 Desperate Times Desperate Measures.ogg;
#OFFSET:0.024;
#SAMPLESTART:50.312;
#SAMPLELENGTH:12.000;
#SELECTABLE:YES;
#DISPLAYBPM:180.000;
#BPMS:0.000=179.993,217.000=180.000,225.000=179.993,249.000=179.980,252.000=179.980,257.000=174.990,299.000=174.100,301.000=179.993,332.000=180.010,357.000=179.993;
#STOPS:;
#BGCHANGES:;
// cache tags:
#FIRSTBEAT:7.500;
#LASTBEAT:617.500;
#SONGFILENAME:Songs/SSSC Pack 2/Desperate Times Desperate Measures - [Monst3rjoe]/NEW BLANSIKS.sm;
#HASMUSIC:1;
#HASBANNER:0;
#MUSICLENGTH:207.609;
// end cache tags

//---------------dance-single - Monst3rjoe----------------
#NOTES:
     dance-single:
     Monst3rjoe:
     Challenge:
     12:
     0.919,1.000,0.973,0.564,0.330,1009.000,202.000,117.000,92.000,5.000:

0000
0000
0000
0000
,
0000
0000
0000
0000
0000
0000
0000
2000
,
0000
0000
0000
0000
,
0000
0000
0000
0000
0000
0000
0000
0000
0000
0000
0000
0000
0000
0000
0000
0000
3000
0000
0000
0000
0000
0000
0000
0000
0002
0003
0100
0000
0010
0000
1000
0000
,
0002
0003
1000
0000
0010
0000
0100
0000
0001
0000
0010
0000
0200
0300
0010
0000
0001
0000
1000
0000
0002
0003
0100
0000
0010
0000
0100
0000
0002
0003
1000
0000
,
0100
0000
1000
0000
0001
0000
0010
0000
0200
0300
0010
0000
0001
0000
1000
0000
0020
0030
0100
0000
0001
0000
0100
0000
0020
0030
1000
0000
0100
0000
0010
0000
,
0002
0003
1000
0000
0100
0000
1000
0000
0001
0000
0100
0000
0020
0030
0100
0000
0001
0000
1000
0000
0200
0300
0010
0000
0001
0000
1000
0000
0002
0003
0100
0000
,
0010
0000
1000
0000
0002
0003
0100
0000
0010
0000
1000
0000
0010
0000
1000
0000
0100
0000
0000
0000
MM0M
0000
0000
0000
0010
0000
0001
0000
0010
0000
0001
0000
,
0100
M0M0
0101
0100
1010
0010
1100
1000
,
0011
0000
0002
0000
0000
0000
0023
0000
0000
0000
0130
0000
2200
0000
0000
0300
,
0001
3000
0001
0110
1000
0110
0001
0110
,
1000
0200
0000
1300
1100
0100
0010
0001
,
1001
1000
0010
0100
0101
0002
0000
2000
,
0000
0000
0040
0000
0000
0000
0000
0000
3033
0000
0000
0000
0202
0000
0000
0300
,
1000
0003
1000
0100
0110
0010
0001
0100
,
0010
0000
4010
0000
3000
0000
0010
0100
0001
1000
0100
1000
0001
1000
0100
1000
,
00M1
1000
0001
1000
0MM2
0000
1003
0000
1100
0000
0000
0000
0110
0000
0000
0000
,
0001
0102
0000
0203
0000
0320
2000
3030
,
110M
0000
0000
0000
1MM1
0000
0000
0000
0002
0000
0000
0003
0110
0000
1000
0000
,
0001
0000
0000
0000
0000
0000
0000
0000
0000
0000
0000
0000
0000
0000
0000
0000
0000
0000
0000
0000
0000
0000
0000
0000
0110
0000
0000
0000
0000
0000
0000
0000
0000
0000
0000
0000
0000
0000
0000
0000
0000
0000
0000
0000
0000
0000
0000
0000
0000
0000
0000
0000
0000
0000
0000
0000
0000
0000
0000
0000
0000
0000
0000
0000
0000
0000
0000
0000
0000
0000
0000
0000
1000
0000
0000
0000
0000
0000
0000
0000
0000
0000
0000
0000
0000
0000
0000
0000
0000
0000
0000
0000
0000
0000
0000
0000
1100
0000
0000
0000
0000
0000
0000
0000
0000
0000
0000
0000
0000
0000
0000
0000
0000
0000
0000
0000
0000
0000
0000
0000
0100
0000
0000
0000
0000
0000
0000
0000
0000
0000
0000
0000
0000
0000
0000
0000
0000
0000
0000
0000
0000
0000
0000
0000
0010
0000
0000
0000
0000
0000
0000
0000
0000
0000
0000
0000
0000
0000
0000
0000
0000
0000
0000
0000
0000
0000
0000
0000
0020
0030
0000
0000
0000
0000
0000
0000
0000
0000
0000
0000
0000
0000
0000
0000
0000
0000
0000
0000
0000
0000
0000
0000
,
0001
0000
0001
0000
2000
0000
0000
0000
3020
0000
0000
0030
0101
0000
0001
0000
,
1000
2100
0000
3200
0000
0310
0012
0000
,
2000
3003
0001
0100
1010
0000
1100
0100
,
0010
0011
0000
1001
0000
1000
0001
0100
,
0101
0000
0001
1000
0110
0001
0010
1100
,
0010
1100
1000
0001
0110
1000
0010
0101
,
0010
0101
1000
0100
1001
1000
0100
0110
,
1000
0110
0001
0100
1001
0001
0100
0110
,
0001
0110
1000
0100
1100
1000
0100
1100
,
0000
1100
1000
0010
1010
1000
0000
1010
,
0000
1010
0010
0000
0101
0001
0000
1000
,
1001
0000
0001
0011
0010
0100
1001
0010
,
1001
0000
0000
0000
0101
0000
0000
0000
0011
0000
0000
0000
0001
1000
0100
0010
,
0001
1000
0100
0010
0001
0000
0000
0000
0011
0000
0000
0000
0001
0100
0010
1000
,
0001
0100
0010
1000
0001
0000
0000
0000
1001
0000
0000
0000
1000
0100
0010
0001
,
1000
0100
0010
0001
1000
0000
0000
0000
1100
0000
0000
0000
0001
1000
0100
1000
,
0001
0100
0010
1000
0001
0000
0000
0000
1001
0000
0000
0000
0001
0100
0010
1000
,
0001
0100
0010
1000
0001
0000
0000
0000
1001
0000
0000
0000
0001
0010
0001
0010
,
0100
1000
0100
1000
0010
0100
0001
0010
0100
1000
0010
0100
0001
0010
0100
0010
,
0001
0100
0010
0100
0001
0010
0001
0100
0010
1000
0100
0010
0001
0100
0010
1000
,
0010
0100
0001
0100
0001
0000
0100
0000
0101
0000
0001
0000
0100
0000
0010
0000
,
M11M
0100
0010
1000
1001
0001
1000
0100
,
1100
1000
0100
0010
0110
0100
0010
0001
,
MM11
0010
0001
1000
1001
0001
0100
0010
,
0110
0100
0001
1000
1100
0100
0010
0001
,
M1M1
0100
0010
1000
1010
0010
0100
0001
,
0101
0000
1001
0000
0001
0011
0000
1000
,
1100
0000
0000
0000
0110
0000
0100
0010
0001
0010
0100
1000
0001
0010
0001
1000
,
0010
0100
0010
1000
0100
0000
0010
0000
0110
0000
0100
0000
1000
0000
0001
0000
,
M1M1
0100
0001
1000
1001
0001
0010
0100
,
0110
0010
0001
1000
1001
0001
0100
0001
,
1MM1
1000
0100
0010
0110
0100
1000
0001
,
0011
0010
0001
1000
1100
0100
0010
0001
,
M1M1
0100
0010
1000
1010
0010
0100
0001
,
1001
0000
0022
0033
0010
0010
0100
0100
,
1000
1000
0001
0001
0100
0100
0010
0010
,
1000
1000
1001
0001
00M1
0001
MM01
0001
,
0M01
0001
MMM1
0001
0001
0001
0001
0001
,
0020
0030
0011
0001
1010
1000
0101
0001
,
1100
1000
0011
0001
1010
1000
0101
0001
,
1100
1000
0011
0001
1010
0010
0101
0001
,
1100
1000
0011
0001
1100
1000
0101
0100
,
1010
0010
0110
1000
0110
0010
1001
0100
,
1001
0010
1001
0100
1001
0010
1001
0100
,
1001
0001
1200
M310
0000
0201
031M
0000
,
2100
0000
0000
0000
0100
0000
0000
0000
0M10
3000
0000
0000
0000
0000
0000
0000
0000
0000
0000
0000
0000
0000
0000
0000
0021
0000
0000
0000
013M
0000
0000
0000
,
0000
1020
M130
0000
0101
0001
0000
0000
,
0000
0000
0021
013M
0000
1020
M130
0000
,
0012
0000
0000
0000
0010
0000
0000
0000
01M0
0003
0000
0000
0000
0000
0000
0000
0000
0000
0000
0000
0000
0000
0000
0000
1200
0000
0000
0000
M310
0000
0000
0000
,
0000
0201
031M
0000
0101
0001
1001
0000
,
2000
3200
0320
0001
,
0034
0000
0000
0003
2000
0000
3002
0000
,
0203
0320
2030
3400
,
0000
0000
0000
0300
0000
0000
2002
0000
,
0000
0000
0040
0030
0000
3003
2002
0000
,
0000
0000
3013
0000
0000
0000
0000
1001
,
0001
0010
0100
1000
1100
0100
1000
0001
,
0101
0000
0000
0000
0002
0000
0000
0000
2003
0000
0000
0000
0000
0000
3010
0100
,
0001
0010
0001
0010
0100
1000
0001
0010
0001
1000
0010
1000
0001
0010
0001
0100
,
0001
0100
0001
0100
0020
0000
0000
0000
2030
0000
0000
0000
3000
0000
1001
0000
,
0100
1001
0010
0100
0110
0001
1001
1000
,
0011
0001
2000
0000
3200
0000
0300
1001
,
0000
0101
0000
0100
0110
0000
0010
1000
,
1100
0100
0020
0031
0200
0320
1030
0200
,
1300
0020
0030
000M
0M00
00M0
M000
00M0
,
200M
3200
0320
0032
2003
3200
0000
0320
,
0230
2300
3020
0230
0302
0023
0030
0002
,
0203
0000
0000
0300
0000
0000
0001
0000
0000
0MM0
0000
0000
1001
0MM0
0000
M00M
0000
0000
0001
0000
0000
2000
0000
0000
,
0000
0200
0000
0020
0000
0000
0000
3330
,
0000
0002
0200
2000
,
0040
0000
0000
0000
,
3333
0000
0000
0000
1001
0000
0000
0000
1001
0000
0000
0000
1000
0001
0010
0100
,
1000
0001
0010
0100
1000
0000
0000
0000
1010
0000
0000
0000
1000
0010
0100
0001
,
1000
0010
0100
0001
1000
0000
0000
0000
0011
0000
0000
0000
0001
1000
0001
0010
,
0100
1000
0001
0010
0100
0000
0000
0000
1100
0000
0000
0000
0100
1000
0010
0100
,
0001
0100
0010
1000
0001
0000
0000
0000
1010
0000
0000
0000
1000
0100
0010
0100
,
1000
0001
0100
0010
1000
0000
0000
0000
1010
0000
0000
0000
0010
1000
0100
0000
,
0010
0001
1000
0001
0100
0000
0000
0000
0011
0000
0000
0000
0001
1000
0001
1000
,
0010
1000
1001
0001
0010
0100
1000
1100
,
0000
0100
1000
0001
1001
1000
0001
0100
,
M11M
0010
0100
0001
1001
1000
0001
0010
,
0011
0001
0010
0100
0110
0010
0100
1000
,
11MM
0100
1000
0001
1001
1000
0010
0100
,
0110
0010
1000
0001
0011
0010
0100
1000
,
1M1M
0010
0100
0001
0101
0100
0010
1000
,
1010
0000
0000
0000
1010
0000
0010
1000
0100
0010
0001
0000
0100
0001
0010
0100
,
1000
0010
0100
0010
1000
0100
0010
0100
1000
0010
0100
0001
0100
0010
0100
0001
,
0010
0100
0010
0001
0100
0000
0001
0000
1001
0000
1000
0000
0010
0000
0100
0000
,
M11M
0010
1000
0001
1001
1000
0100
0010
,
0110
0100
1000
0001
1001
1000
0100
0010
,
M11M
0100
1000
0001
1001
1000
0100
0010
,
0110
0100
1000
0001
0011
0010
0100
1000
,
1MM1
0001
0100
0001
0101
0100
0010
1000
,
1001
0000
1100
0000
0100
0110
0000
0011
,
0000
1001
0000
0101
0000
0002
0000
0200
,
0000
0300
4M00
0000
0000
0000
0000
0000
,
0000
0000
0000
3003
,
0000
0000
1000
0100
0000
0010
0011
0100
,
1000
0001
0000
0001
0010
0000
1100
0010
,
0000
0000
1000
0001
0000
0001
1010
0100
,
0001
1000
0000
1000
0010
0000
0101
0010
,
0000
0000
1000
0001
0000
0010
0011
0100
,
1000
0001
0000
0100
0010
0000
0101
0010
,
0000
0000
1000
0100
0000
0010
0011
0100
,
1000
0001
0000
0001
0010
0000
1100
0010
,
0000
0000
1000
0001
0000
0001
1010
0100
,
0001
1000
0000
1000
0010
0000
0101
0010
,
0000
0000
1000
0001
0000
0010
0011
0100
,
1000
0001
0000
0100
0010
0000
0101
0010
,
0000
0000
1001
0010
0010
0100
1001
0010
,
0100
0010
1001
0100
0010
0100
1001
0001
,
2000
0200
0000
0000
,
00M2
0000
3303
0000
,
0002
0200
0000
0000
,
20M0
0000
0000
3303
,
0000
0002
0000
0023
,
0100
0000
0000
0000
0001
0030
0011
0000
,
0000
0000
M1M1
0000
0001
0100
1010
0000
,
1000
0100
0011
0000
0001
1000
0110
0000
,
0000
0000
200M
0000
0200
3000
0320
0000
,
M002
0030
0100
0000
0000
0000
1000
0000
,
0000
M203
0320
2030
,
320M
0010
0000
1000
,
0000
230M
3020
M230
,
03M2
1000
00M0
01M0
,
0000
MM10
0000
0100
,
0000
1000
0000
0100
,
0000
0000
1003
0100
M0MM
0100
0010
1000
,
0001
0010
0000
0010
0001
0000
0100
0010
,
1000
0000
0100
0010
MM0M
0010
1000
0001
,
0100
0010
0000
0100
0010
0000
1000
0100
,
0010
0000
0001
0100
M0MM
0100
1000
0001
,
0010
0100
0000
1000
0010
0000
0100
0001
,
0010
0000
0100
0010
MM0M
0010
0100
0001
,
2000
0002
0000
3003
0000
0000
0000
0000
;
