#TITLE:ZERO-ONE;
#SUBTITLE:;
#ARTIST:Mr. T;
#TITLETRANSLIT:;
#SUBTITLETRANSLIT:;
#ARTISTTRANSLIT:;
#CREDIT:;
#BANNER:Zero-one.png;
#BACKGROUND:Zero-one-bg.png;
#LYRICSPATH:;
#CDTITLE:!Dokuroridertitle2.png;
#MUSIC:Zero-One.mp3;
#OFFSET:-0.400;
#SAMPLESTART:24.180;
#SAMPLELENGTH:12.500;
#SELECTABLE:YES;
#BPMS:0.000=160.000;
#STOPS:;
#BGCHANGES:0.000=zero-one.avi=1.000=1=1=0,
255.750=Zero-one-bg.png=1.000=0=0=1,
99999=-nosongbg-=1.000=0=0=0 // don't automatically add -songbackground-
;
// cache tags:
#FIRSTBEAT:0.000;
#LASTBEAT:255.750;
#SONGFILENAME:Songs/newbie/ZERO-ONE +video/Zero-one.sm;
#HASMUSIC:1;
#HASBANNER:1;
#MUSICLENGTH:98.723;
// end cache tags

//---------------dance-single - ----------------
#NOTES:
     dance-single:
     :
     Easy:
     4:
     0.287,0.323,0.000,0.152,0.000,183.000,0.000,15.000,0.000,0.000:
0000
1000
0000
1000
0000
1000
0000
0000
,
0000
0001
0000
0001
0000
0001
0000
0000
,
0000
0010
0000
0010
0000
0010
0000
0000
,
0000
0100
0000
0100
0000
0100
0000
0000
,
0000
1000
0000
1000
,
0000
0001
0000
0001
,
0000
1000
0000
1000
,
0001
0100
0001
0100
,
0010
0000
1000
0100
,
1000
0000
0001
0010
,
0001
0000
1000
0001
,
1000
0000
0010
0100
,
0010
0000
1000
0100
,
1000
0000
0001
0010
,
0001
0000
0100
0010
,
0100
0001
1000
0001
,
0000
0100
0000
0100
,
0010
1000
0100
0000
,
0000
0010
0000
0010
,
0001
0100
0010
0000
,
1000
0100
1000
0100
,
0010
0001
0010
0000
,
0100
1000
0100
1000
,
0001
0010
0001
0000
,
1000
0100
0000
0100
,
0000
0010
0001
1000
,
0010
0100
0000
0100
,
0000
0010
1000
0001
,
0010
0100
0000
1000
,
0000
0100
0000
0010
,
0001
0100
0000
0010
,
0000
1000
0100
1000
,
0200
0300
0000
0000
,
0020
0030
0000
0000
,
0002
0003
1000
0000
,
0100
0010
0001
0100
,
0020
0030
0000
0000
,
2000
3000
0002
0003
,
0200
0300
0010
0000
,
1000
0100
0010
0100
,
0020
0030
0001
0100
,
0020
0030
1000
0100
,
0020
0030
0001
0100
,
0010
1000
0100
0002
,
2003
3000
0100
0010
,
0002
0003
2000
3000
,
0002
0003
0100
0010
,
1000
0001
1000
0001
,
0010
0100
0100
0010
,
0001
1000
0001
0000
,
0100
0010
0010
0100
,
0001
1000
0001
0000
,
0010
0100
0000
1000
,
0000
0100
0000
0010
,
0001
0100
0000
0010
,
0000
0100
0001
1000
,
0100
0010
0000
0010
,
0000
0001
0100
0010
,
1000
0100
0000
0100
,
0000
0010
0001
0100
,
0010
1000
0000
1000
,
0000
0001
0000
0001
,
0000
1000
0000
1000
,
0000
0001
0100
0001
;

//---------------dance-single - ----------------
#NOTES:
     dance-single:
     :
     Medium:
     6:
     0.473,0.453,0.273,0.192,0.000,281.000,27.000,19.000,0.000,0.000:
0000
1000
0000
0100
0000
0100
0000
1000
,
0000
0001
0000
0010
0000
0010
0000
0001
,
0000
0100
0000
0010
0000
0010
0000
1000
,
0000
0100
0000
0010
0000
0010
0000
0001
,
1000
1100
0000
0011
,
0000
0101
0000
1010
,
0000
0110
0000
1001
,
0000
0100
0100
0100
0010
0010
0010
0000
,
0001
0000
0101
0000
0010
1000
0010
0000
,
1000
0000
1100
0000
0010
0001
0010
0000
,
0001
0000
1001
0000
0100
0010
0100
0000
,
0001
0000
1001
0000
0010
0100
0010
0000
,
0001
0000
0001
0000
0100
0010
1000
0100
,
0010
0000
0010
0000
0001
0100
0010
1000
,
0100
0000
0100
0000
0010
0001
0100
0010
,
0000
1000
1000
1000
0001
0001
0001
0000
,
0100
0101
0010
1010
,
1000
0100
1000
0100
0010
0000
0000
0000
,
0001
0011
1000
1100
,
0010
0001
0010
0001
0100
0000
0000
0000
,
0010
1000
0001
1000
,
0100
0000
0010
0000
0001
0000
0100
0001
,
0100
0010
1000
0001
,
0000
1000
1000
1000
0001
0001
0001
0000
,
0010
0110
1000
1001
,
0100
0010
1000
0010
0100
0000
0000
0000
,
0001
0011
0100
1100
,
0010
0100
0001
0100
0010
0000
0000
0000
,
1000
0100
0010
0100
,
1000
0000
0010
0000
0100
0000
0001
1000
,
0001
0010
0100
1000
,
0000
0001
0001
0001
1000
1000
1000
0000
,
0200
0000
0010
0010
,
0320
0000
0001
0001
,
0032
0000
1000
1000
,
1003
0000
0000
0000
0010
0000
0100
0001
,
0200
0000
0310
1000
,
0002
0000
2003
0000
,
3020
0000
0130
0001
,
1000
1000
1000
0001
0001
0001
0001
0000
,
0200
0310
2000
3100
,
0020
0031
0200
0310
,
2000
3001
0200
0310
,
2000
0000
3100
0000
0020
0000
0031
0100
,
0010
0000
2000
0000
3100
0010
0001
0100
,
0020
1030
0200
0310
,
0002
0103
0010
1000
,
0100
0100
0100
0010
0010
0010
0010
0000
,
0001
0101
0010
1010
,
0100
0010
0001
0010
0100
0000
0000
0000
,
1000
1010
0100
0101
,
0010
0100
1000
0100
0010
0000
0000
0000
,
0001
0100
0010
1000
,
0100
0000
0001
0000
0100
0000
1000
0010
,
1000
0100
0010
0001
,
0000
0100
0100
0100
0010
0010
0010
0000
,
1000
0100
0010
0100
,
1000
0000
0010
0000
0100
0000
0001
0010
,
0001
0100
0010
1000
,
0100
0000
0010
0000
0001
0000
0100
0010
,
0100
0101
0000
1010
,
0000
0101
0000
1010
,
0000
1001
0000
0000
,
0000
0010
0010
0010
0100
0100
0100
1000
;

//---------------dance-single - ----------------
#NOTES:
     dance-single:
     :
     Hard:
     9:
     0.653,0.615,0.355,0.030,0.375,413.000,35.000,3.000,0.000,0.000:
1000
0010
0000
0010
0000
0010
0000
0100
,
0001
0010
0000
0010
0000
0010
0000
0100
,
1000
0001
0000
0001
0000
0001
0000
0100
,
0010
1000
0000
1000
0000
1000
0000
0100
,
0010
0011
0100
1100
,
0001
1001
1000
1001
,
0010
1100
0010
0101
,
0000
1000
0100
0000
0010
0000
0001
0100
0000
0010
1000
0000
1001
0000
0000
0000
,
0100
0010
0001
0100
1000
0100
0001
0010
,
0100
0010
0001
1000
0010
0001
0010
1000
,
0100
0110
0001
0101
,
0010
1010
0100
0110
,
0001
0100
1000
0100
0001
0010
0100
1000
,
0010
0001
0010
1000
0100
0010
0100
1000
,
0010
0101
0010
1100
,
0000
0010
0001
0000
0100
0000
0010
1000
0000
0100
0010
0000
0101
0000
0010
0000
,
1000
0000
0000
0100
0000
0001
0000
0000
0100
0000
0000
1000
0000
0010
0000
0000
,
0001
0000
0010
0000
1000
0000
0100
0010
0000
0000
0000
0000
0101
0000
0010
0000
,
1000
0000
0000
0100
0000
0010
0000
0000
0001
0000
0000
0100
0000
1000
0000
0000
,
0100
0000
0001
0000
0010
0000
0100
1000
0000
0000
0000
0000
0110
0000
0100
0000
,
0001
0010
0000
0000
0100
0000
1000
0000
0010
0000
0000
0000
0010
0000
0100
0000
,
0001
0000
0001
0010
0100
0000
0100
1000
,
0010
0001
0000
0000
0010
0000
0000
0000
1000
0000
0000
0000
0100
0000
0000
0000
,
0000
0010
0001
0000
0100
0000
0010
1000
0000
0001
0010
0000
1100
0000
0010
0000
,
0100
0000
0000
0001
0000
0010
0000
0000
0100
0000
0000
1000
0000
0010
0000
0000
,
0100
0000
0001
0000
0010
0000
1000
0010
0000
0000
0000
0000
0101
0000
0010
0000
,
1000
0000
0000
0100
0000
0001
0000
0000
0100
0000
0000
1000
0000
0010
0000
0000
,
0100
0000
0001
0000
0010
0000
0100
1000
0000
0000
0000
0000
1010
0000
0100
0000
,
0001
0010
0000
0000
0100
0000
1000
0000
0010
0000
0000
0000
0010
0000
0100
0000
,
0001
0000
0001
0010
1000
0000
1000
0010
,
0001
0100
0000
0000
0010
0000
0000
0000
1000
0000
0000
0000
0100
0000
0000
0000
,
0000
0010
0001
0000
0100
0000
0010
1000
0000
0100
0010
0000
1001
0000
0010
0000
,
2000
0000
0000
0000
0000
0000
0000
0000
0100
0000
0000
3010
0000
0000
0100
0000
,
0002
0000
0000
0000
0000
0000
0000
0000
0010
0000
0000
0103
0000
0000
0010
0000
,
2000
0000
0000
0000
0000
0000
0000
0000
0100
0000
0000
3100
0000
0000
0010
0000
,
0100
0001
0000
0000
0010
0000
0000
0000
0100
0000
0000
0000
1000
0000
0010
0000
,
0001
0000
0010
0000
0000
1000
0000
0000
0100
0000
0000
0100
0000
0000
0010
0000
,
0001
0000
0100
0000
0000
0010
0000
0000
1000
0000
0000
1000
0000
0000
0100
0000
,
0010
0000
0001
0000
0000
0100
0000
0000
0010
0000
0000
0010
0000
0000
1000
0000
,
0100
0010
0000
0001
0100
0000
0010
1000
0000
0100
0010
0100
0010
0000
0110
0000
,
0001
0100
1000
0100
0001
0010
0100
0010
,
0001
1000
0010
0001
0010
1000
0100
0010
,
0100
1000
0010
0100
0001
0010
0001
0100
,
1000
0100
0001
0010
0100
1000
0010
0100
,
0110
0000
0011
0000
0100
1000
0010
0100
,
0001
0000
1001
0000
0100
0010
0001
0100
,
0010
0000
1010
0000
0100
0010
0001
0100
,
0010
1000
0100
0000
0010
0000
0001
0100
0000
0010
1000
0000
0110
0000
0001
0000
,
0100
0000
0000
0010
0000
0010
0000
0000
1000
0000
0000
0100
0000
0100
0000
0000
,
0010
0000
0001
0000
0100
0000
0010
1000
0000
0000
0000
0000
1100
0000
0010
0000
,
0001
0000
0000
0100
0000
0100
0000
0000
0010
0000
0000
1000
0000
1000
0000
0000
,
0100
0000
0010
0000
0001
0000
0100
0010
0000
0000
0000
0000
1100
0000
0010
0000
,
0001
0100
0000
0000
0010
0000
1000
0000
0100
0000
0000
0000
0100
0000
0001
0000
,
0100
0000
0100
1000
0010
0000
0010
0001
,
0010
1000
0000
0000
0100
0000
0000
0000
0010
0000
0000
0000
0001
0000
0000
0000
,
0000
0100
0010
0000
1000
0000
0100
0010
0000
0001
0100
0000
1010
0000
0000
0000
,
0100
0010
0001
0100
1000
0100
0001
0010
,
0100
0010
0001
1000
0010
0001
0010
1000
,
0100
0010
0100
1000
0001
0100
0010
1000
,
0100
0001
0100
1000
0010
0100
0001
0010
,
0100
1100
0010
0011
,
0100
0101
0010
1010
,
1000
1100
0010
0011
,
0000
1000
0001
0000
0100
0000
0010
1000
0000
0100
0010
0000
0001
1000
0001
1000
;

//---------------dance-single - ----------------
#NOTES:
     dance-single:
     :
     Challenge:
     10:
     0.786,0.680,0.030,0.000,0.851,540.000,3.000,0.000,0.000,0.000:
1000
0000
0100
0010
0000
0001
0000
0000
0100
0000
0010
1000
0000
0100
0000
0010
,
0001
0000
0100
0010
0000
1000
0000
0000
0100
0000
0010
0001
0000
0100
0000
0010
,
1000
0000
0100
0010
0000
0001
0000
0000
0100
0000
0010
1000
0000
0100
0000
0010
,
0001
0000
0100
0010
0000
1000
0000
0000
0100
0000
0010
0001
0000
0100
0000
0010
,
1000
0100
0010
0100
1000
0010
0100
0001
,
0010
0000
0100
0000
1000
0000
0010
0000
0100
0000
0001
0000
0010
0100
0010
0100
,
0010
0001
0100
0010
1000
0100
0010
0001
,
0000
0100
0010
0100
0010
0000
1000
0100
0000
0010
0001
0000
0100
0010
0100
0000
,
0001
0010
0000
0000
0100
0000
1000
0010
0000
1000
0000
0000
0010
0000
0100
0001
,
0000
0100
0000
0000
0001
0000
0010
0100
0000
0010
0000
0000
0100
0000
1000
0001
,
0000
1000
0000
0000
0100
0000
0010
0000
0001
0000
0100
0000
1000
0000
0100
0000
,
0001
0010
0100
1000
0010
0100
0001
0010
,
0100
1000
0000
0000
0001
0000
0100
0010
0000
0100
0000
0000
0001
0000
0010
0100
,
0000
0010
0000
0000
0001
0000
1000
0010
0000
1000
0000
0000
0100
0000
0010
0001
,
0000
0010
0000
0000
0100
0000
1000
0000
0010
0000
0001
0000
0010
0000
1000
0000
,
0000
0100
0010
0100
0010
0000
0001
0100
0000
0010
1000
0000
0100
0010
0100
0000
,
1000
0000
0000
0010
0000
0001
0000
0000
0010
0000
0000
1000
0000
0010
0000
0000
,
0100
0000
0001
0000
0010
0000
0100
1000
0000
0000
0010
0000
0100
0000
0001
0000
,
0010
0000
0000
0100
0000
1000
0000
0000
0010
0000
0000
0001
0000
0010
0000
0000
,
1000
0000
0100
0000
0010
0000
0001
0100
0000
0000
0010
0000
1000
0000
0100
0000
,
0010
0001
0000
0000
0100
0000
0010
0000
1000
0000
0100
0000
0001
0000
0100
0000
,
1000
0010
0100
0001
0010
0100
1000
0001
,
0100
0010
0000
0000
1000
0000
0100
0000
0010
0000
0001
0000
0100
0000
0010
0000
,
0000
1000
0001
1000
0001
0000
0010
0100
0000
1000
0010
0000
0100
0001
0100
0000
,
0010
0000
0000
1000
0000
0100
0000
0000
0010
0000
0000
0100
0000
1000
0000
0000
,
0010
0000
0100
0000
0001
0000
0010
1000
0000
0000
0010
0000
0001
0000
0100
0000
,
0010
0000
0000
1000
0000
0001
0000
0000
0100
0010
0000
1000
0000
0001
0000
0000
,
0010
0000
0100
0000
1000
0000
0010
0001
0000
0000
0010
0000
1000
0000
0100
0000
,
0010
0001
0000
0000
0100
0000
0010
0000
1000
0000
0100
0000
0001
0000
0100
0000
,
1000
0010
0100
0001
0010
0100
1000
0010
,
0100
0001
0000
0000
0010
0000
0100
0000
1000
0000
0010
0000
0100
0000
0001
0000
,
0000
0010
0100
0010
0100
0000
1000
0010
0000
0100
0001
0000
1000
0100
1000
0000
,
0010
0000
0010
0000
0000
0100
0000
0000
0001
0000
1000
0100
0000
1000
0100
0000
,
0010
0000
0010
0000
0000
0001
0000
0000
0100
0000
0010
1000
0000
0010
1000
0000
,
0100
0000
0100
0000
0000
0010
0000
0000
0001
0000
0100
0010
0000
0100
0010
0000
,
1000
0100
1000
0000
0010
0000
0100
0001
0000
1000
0100
0000
0010
0000
0001
0000
,
0100
0000
0010
0000
0000
1000
0000
0000
0100
0000
0010
0001
0000
0010
0001
0000
,
0100
0000
0010
0000
0000
1000
0000
0000
0001
0000
0010
0100
0000
0010
0100
0000
,
1000
0000
0010
0000
0000
0100
0000
0000
0001
0000
0010
0100
0000
0010
0100
0000
,
1000
0010
0000
1000
0010
0000
0100
0001
0000
1000
0100
1000
0100
0000
0010
0000
,
0001
0100
1000
0100
0001
0010
0100
0010
,
0001
0100
0010
1000
0100
0001
0100
1000
,
0010
0100
0001
0010
0001
0100
0010
1000
,
0100
1000
0010
0100
0001
0010
0100
1000
,
1100
0000
0000
0000
0010
0000
0000
0100
0001
0000
0010
0000
0100
0000
1000
0000
,
1001
0000
0000
0000
0100
0000
0000
0001
0010
0000
0100
0000
1000
0000
0010
0000
,
0100
0001
0010
0001
0100
1000
0100
0001
,
0010
0100
0010
0100
0010
0000
0001
0100
0000
0010
1000
0000
1001
0000
0100
0000
,
0010
0000
0000
0001
0000
0100
0000
0000
0010
0000
0000
1000
0000
0100
0000
0000
,
0010
0000
0001
0000
0100
0000
1000
0100
0000
0000
0001
0000
0010
0000
0100
0000
,
1000
0000
0000
0010
0000
0100
0000
0000
0001
0010
0000
0100
0000
1000
0000
0000
,
0010
0000
0100
0000
0001
0000
0010
1000
0000
0000
0010
0000
0001
0000
0100
0000
,
0010
1000
0000
0000
0100
0000
0010
0000
0001
0000
0100
0000
1000
0000
0100
0000
,
0001
0010
0100
1000
0010
0100
0001
0010
,
0100
1000
0000
0000
0010
0000
0100
0000
0001
0000
0010
0000
0100
0000
1000
0000
,
0000
0010
0100
0010
0100
0000
0001
0010
0000
0100
1000
0000
0001
1000
0001
0000
,
0100
0001
0000
0000
0010
0000
0100
1000
0000
0100
0010
0000
0001
0000
0100
0010
,
0000
1000
0100
0000
0010
0000
0001
0100
0000
0010
1000
0000
0100
0000
0010
0001
,
0000
0100
0010
0000
1000
0000
0100
0010
0000
0001
0100
0000
0010
0000
1000
0100
,
0000
0010
0001
0000
0100
0000
0010
1000
0000
0001
0100
0000
0010
0000
1000
0100
,
0000
0100
0000
0000
0010
0000
0001
0100
0000
0100
0000
0000
0010
0000
1000
0001
,
0000
0001
0000
0000
0010
0000
0100
1000
0000
1000
0000
0000
0010
0000
0100
0001
,
0000
0001
0000
0000
0010
0000
0001
0100
0000
0100
0000
0000
0010
0000
1000
0000
,
0000
0100
0010
0100
0010
0000
0001
0100
0000
0010
1000
0000
0001
1000
0001
1000
;

//---------------dance-double - ----------------
#NOTES:
     dance-double:
     :
     Hard:
     8:
     0.577,0.583,0.213,0.000,0.430,378.000,21.000,0.000,0.000,0.000:
00000000
01000000
00000000
00010000
00000000
00001000
00000000
00000100
,
00000000
00000001
00000000
00000100
00000000
00001000
00000000
00000100
,
00000000
00000001
00000000
00000010
00000000
00001000
00000000
00010000
,
00000000
00100000
00000000
10000000
00000000
00100000
00000000
01000000
,
00001000
00011000
00000100
00000110
,
00000001
00000101
00000010
00010010
,
00001000
00011000
01000000
01100000
,
00000000
10000000
01000000
00000000
00100000
00000000
00001000
00010000
00000000
00001000
00010000
00000000
00000100
00000000
00000010
00000000
,
00000001
00000000
00000000
00000001
00000000
00000000
00000001
00000000
00000100
00000000
00000000
00000100
00000000
00000000
00000100
00000000
,
00000010
00000000
00000000
00000010
00000000
00000000
00000010
00000000
00010000
00000000
00000000
00010000
00000000
00000000
00010000
00000000
,
00001000
01001000
00100000
10100000
,
01000000
01100000
00010000
01010000
,
00001000
00000000
00000000
00001000
00000000
00000000
00001000
00000000
00010000
00000000
00000000
00010000
00000000
00000000
00010000
00000000
,
00000100
00000000
00000000
00000100
00000000
00000000
00000100
00000000
00000010
00000000
00000000
00000010
00000000
00000000
00000010
00000000
,
00000001
00000101
00000010
00010010
,
00000000
00001000
01000000
00000000
00100000
00000000
10000000
01000000
00000000
10000000
01000000
00000000
00100000
00000000
00010000
00000000
,
01000000
00000000
00000000
00001000
00000000
00010000
00000000
00000000
00000100
00000000
00000000
00000010
00000000
00000001
00000000
00000000
,
00000100
00000000
00000010
00000000
00010000
00000000
00001000
01000000
00000000
00000000
00000000
00000000
00000000
00000000
00100000
00000000
,
10000000
00000000
00000000
01000000
00000000
00100000
00000000
00000000
00010000
00000000
00000000
01000000
00000000
00001000
00000000
00000000
,
00010000
00000000
00000100
00000000
00000010
00000000
00000001
00001000
00000000
00000000
00000000
00000000
00000000
00000000
00000010
00000000
,
00010000
00001000
00000000
00000000
01000000
00000000
00000000
00000000
00100000
00000000
00000000
00000000
10000000
00000000
00000000
00000000
,
01000000
00000000
00100000
00000000
00001000
00000000
00010000
00000100
,
00000010
00000001
00000000
00000000
00000100
00000000
00000000
00000000
00000010
00000000
00000000
00000000
00010000
00000000
00000000
00000000
,
00000000
00001000
00100000
00000000
00010000
00000000
01000000
00100000
00000000
01000000
00100000
00000000
10000000
00000000
01000000
00000000
,
00100000
00000000
00000000
00001000
00000000
00010000
00000000
00000000
00000100
00000000
00000000
00000010
00000000
00000001
00000000
00000000
,
00000100
00000000
00000010
00000000
00010000
00000000
00001000
00100000
00000000
00000000
00000000
00000000
00000000
00000000
01000000
00000000
,
10000000
00000000
00000000
00100000
00000000
01000000
00000000
00000000
00001000
00000000
00000000
00010000
00000000
00000100
00000000
00000000
,
00000010
00000000
00000001
00000000
00000100
00000000
00000010
00010000
00000000
00000000
00000000
00000000
00000000
00000000
00001000
00000000
,
01000000
00100000
00000000
00000000
10000000
00000000
00000000
00000000
01000000
00000000
00000000
00000000
00100000
00000000
00000000
00000000
,
00001000
00000000
00010000
00000000
00000100
00000000
00000010
00000001
,
00000100
00000010
00000000
00000000
00010000
00000000
00000000
00000000
00001000
00000000
00000000
00000000
01000000
00000000
00000000
00000000
,
00000000
00100000
10000000
00000000
01000000
00000000
00100000
00010000
00000000
00100000
00010000
00000000
01000000
00100000
01000000
00000000
,
00010000
00000000
00010000
00000000
00000000
00010000
00000000
00000000
00100000
00000000
00000000
00100000
00000000
00000000
00100000
00000000
,
00001000
00000000
00001000
00000000
00000000
00001000
00000000
00000000
00010000
00000000
00000000
00010000
00000000
00000000
00010000
00000000
,
00000100
00000000
00000100
00000000
00000000
00000100
00000000
00000000
00000010
00000000
00000000
00000010
00000000
00000000
00000010
00000000
,
00000001
00000100
00000010
00001000
00000100
00000000
00010000
00001000
,
00010000
00000000
00010000
00000000
00000000
00010000
00000000
00000000
00001000
00000000
00000000
00001000
00000000
00000000
00001000
00000000
,
00100000
00000000
00100000
00000000
00000000
00100000
00000000
00000000
01000000
00000000
00000000
01000000
00000000
00000000
01000000
00000000
,
10000000
00000000
10000000
00000000
00000000
10000000
00000000
00000000
00100000
00000000
00000000
00100000
00000000
00000000
00100000
00000000
,
01000000
00010000
00000000
01000000
00010000
00000000
10000000
01000000
00000000
10000000
01000000
00000000
00100000
00000000
00010000
00000000
,
01000000
00000000
01001000
00000000
00010000
00000100
00000010
00000001
,
00000100
00000000
00000101
00000000
00000010
00010000
00001000
01000000
,
00100000
00000000
10100000
00000000
01000000
00100000
00010000
01000000
,
00001000
00010000
00000100
00000010
00000001
00000000
00001000
00000010
,
00000100
00000001
00001000
00000100
00010000
00001000
01000000
00100000
,
10000000
01000000
00100000
00001000
00010000
00000100
00000010
00000001
,
00000100
00000010
00010000
00001000
01000000
00100000
10000000
01000000
,
00100000
00000000
00001000
00000000
00010000
00000000
00000100
00001000
00000000
00000100
00001000
00000000
00000001
00000000
00000010
00000000
,
00000100
00000000
00000000
00010000
00000000
00001000
00000000
00000000
01000000
00000000
00000000
00100000
00000000
10000000
00000000
00000000
,
01000000
00000000
00100000
00000000
00001000
00000000
00010000
00000100
00000000
00000000
00000000
00000000
00000000
00000000
00000010
00000000
,
00000001
00000000
00000000
00000100
00000000
00000010
00000000
00000000
00010000
00000000
00000000
00001000
00000000
01000000
00000000
00000000
,
00100000
00000000
10000000
00000000
01000000
00000000
00100000
00010000
00000000
00000000
00000000
00000000
00000000
00000000
01000000
00000000
,
00001000
00010000
00000000
00000000
00000100
00000000
00000000
00000000
00000010
00000000
00000000
00000000
00000001
00000000
00000000
00000000
,
00000100
00000000
00000010
00000000
00010000
00000000
00001000
01000000
,
00100000
10000000
00000000
00000000
01000000
00000000
00000000
00000000
00100000
00000000
00000000
00000000
00001000
00000000
00000000
00000000
,
00000000
00010000
00000100
00000000
00000010
00000000
00000001
00000100
00000000
00000001
00000100
00000000
00000010
00001000
00000010
00001000
,
00000010
00000000
00010000
00000000
00001000
00000000
01000000
00100000
,
10000000
00000000
01000000
00000000
00100000
00000000
00001000
00010000
,
00000100
00000000
00000010
00000000
00000001
00000000
00000100
00000010
,
00010000
00000000
00001000
00000000
01000000
00000000
00100000
10000000
,
01000000
00110000
00000000
00011000
,
00000000
00001100
00000000
00000011
,
00000000
00001001
00000000
00011000
,
00000000
01000000
00010000
00000000
00100000
00000000
01000000
10000000
00000000
01000000
10000000
00000000
00010000
10000000
00010000
10000000
;
