#TITLE:Hayden's OP;
#SUBTITLE:;
#ARTIST:Kil;
#TITLETRANSLIT:;
#SUBTITLETRANSLIT:;
#ARTISTTRANSLIT:;
#CREDIT:Arch0wl;
#BANNER:haydensop-bn.png;
#BACKGROUND:haydensop-bg.png;
#LYRICSPATH:;
#CDTITLE:!arch0wltitle.png;
#MUSIC:haydensop.ogg;
#OFFSET:1.101;
#SAMPLESTART:32.603;
#SAMPLELENGTH:13.075;
#SELECTABLE:YES;
#BPMS:0.000=220.000,353.000=110.000,361.000=220.000;
#STOPS:;
#BGCHANGES:0.000=haydensop-bg.png=1.000=0=0=1,
99999=-nosongbg-=1.000=0=0=0 // don't automatically add -songbackground-
;
// cache tags:
#FIRSTBEAT:12.000;
#LASTBEAT:366.000;
#SONGFILENAME:Songs/Archmage and Dark0wl Hammer of Thor UltraHyperMegaPack/Hayden's OP/haydensop.sm;
#HASMUSIC:1;
#HASBANNER:1;
#MUSICLENGTH:105.000;
// end cache tags

//---------------dance-single - Arch0wl----------------
#NOTES:
     dance-single:
     Arch0wl:
     Hard:
     13:
     0.856,1.000,0.543,0.352,0.338,535.000,57.000,37.000,0.000,7.000:
0000
0000
0000
0000
,
0000
0000
0000
0000
,
0000
0000
0000
0000
,
1000
1000
1000
1000
,
1000
0000
1000
0000
1000
0000
1000
1000
,
0001
0001
0001
0001
,
0001
0000
0000
0000
0001
0000
0000
0000
0001
0000
0000
0000
0001
0000
0001
0100
,
0010
0100
0010
0100
0010
0100
0010
0100
,
0010
0100
0010
0100
0010
0100
0010
0110
,
1000
0100
1000
0100
1000
0100
1000
0100
,
1000
0000
0100
0000
1000
0000
0100
0000
1000
0000
0010
0100
0010
0100
2001
0000
,
3001
0001
1000
0010
0001
0010
1000
0100
,
0010
0010
0001
0100
0010
0100
0001
0001
,
1000
1000
0001
0010
1000
0010
0001
0100
,
0010
0000
0010
0000
1000
0000
0001
0000
0100
0000
0001
0000
1000
0000
0010
0100
,
0001
0001
0100
0010
1000
0010
0100
0001
,
0100
0100
0001
0100
1000
0100
0001
0001
,
0010
0010
0100
1000
0001
1000
0100
0010
,
1020
0000
1000
0000
1000
0000
1000
0000
1030
0000
0100
0010
0100
0010
2001
0000
,
3001
0001
1000
0110
0001
0010
0001
0010
,
0100
0100
1000
0101
1000
0010
0100
0010
,
1000
1000
0100
1001
0010
0100
0010
1000
,
0100
0000
0100
0000
0010
0000
1100
0000
0001
0000
1000
0000
0010
0000
0010
0100
,
0001
0001
0010
1100
0010
0001
0010
1000
,
0001
0001
0100
1001
0100
0001
0100
0010
,
1000
1000
0100
1010
0100
1000
0001
1000
,
0101
0000
0001
0000
0101
0000
0001
0100
0001
0000
1000
0100
1000
0100
2001
0000
,
3001
0000
0010
0000
0100
0000
1000
0000
1001
0000
0101
0000
1000
0000
0100
0010
,
0100
0000
0010
0000
0001
0000
1000
0000
1001
0000
0101
0000
1000
0000
0010
0100
,
0010
0000
1000
0000
0010
0000
0100
0000
0101
0000
1001
0000
0100
0000
1000
0001
,
1000
0000
0001
0000
0100
0000
0010
0000
0110
0000
0101
0000
1000
0000
0001
0100
,
0001
0000
1000
0000
0001
0000
0010
0000
0110
0000
1100
0000
0010
0000
0001
0100
,
0001
0000
1000
0000
0001
0000
0100
0000
0110
0000
1010
0000
0001
0000
1000
0100
,
1000
0001
1000
1010
0110
1000
0001
0010
,
1100
0000
1001
0000
0101
0000
1001
0000
1100
0000
0100
0010
0100
0010
1002
0000
,
1003
0000
1000
0000
0010
0000
1001
0000
0101
0000
1100
0000
0001
0000
1000
0100
,
0010
0000
0010
0000
0100
0000
0110
0000
0011
0000
1001
0000
0011
0000
0001
1000
,
0100
0000
0100
0000
0010
0000
1001
0000
0101
0000
1001
0000
0100
0000
1000
0001
,
0010
0000
0010
0000
0011
0000
1001
0000
1100
0000
1001
0000
0001
0000
0100
0010
,
2000
0000
0000
0000
0000
0000
0000
0000
0000
0000
0000
0000
0000
0000
0000
0000
0000
0000
0000
0000
0000
0000
0000
0000
0000
0000
0000
0000
0000
0000
0000
0000
0000
0000
0000
0000
0000
0000
0000
0000
0000
0000
0000
0000
0000
0000
0000
0000
0000
0000
0000
0000
0000
0000
0000
0000
0000
0000
0000
0000
0000
0000
0000
0000
0000
0000
0000
0000
0000
0000
0000
0000
0000
0000
0000
0000
0000
0000
0000
0000
0000
0000
0000
0000
0000
0000
0000
0000
3002
0000
0000
0000
0000
0000
0000
0000
0000
0000
0000
0000
0000
0000
0000
0000
0000
0000
0000
0000
0000
0000
0000
0000
0000
0000
0000
0000
0000
0000
0000
0000
0000
0000
0000
0000
0000
0000
0000
0000
0000
0023
0000
0000
0000
0000
0000
0000
0000
0000
0000
0000
0000
0000
0000
0000
0000
0000
0000
0000
0032
0000
0000
0000
0000
0000
0000
0000
0000
0000
0000
0000
0000
0000
0000
0000
0000
0000
0000
0000
0000
0000
0000
0000
0000
0000
0000
0000
0000
0000
0000
0000
0000
0000
0000
0000
0000
0000
0000
0000
0000
2003
0000
0000
,
0000
0000
0000
0000
0000
0000
0000
0000
0000
0000
0000
0000
0000
0000
0000
0000
0000
0000
0000
0000
0000
0000
0000
0000
0000
0000
0000
0000
0000
0000
0000
0000
0000
0000
0000
0000
0000
0000
0000
0000
0000
0000
0000
0000
0000
3000
0000
0000
2000
0000
0000
0000
0000
0000
0000
0000
0000
0000
0000
0000
0000
0000
0000
0000
0000
0000
0000
0000
0000
0000
0000
0000
0000
0000
0000
0000
0000
0000
0000
0000
0000
0000
0000
0000
0000
0000
0000
0000
0000
0000
0000
0000
0000
0000
0000
0000
0000
0000
0000
0000
0000
0000
0000
0000
0000
0000
0000
0000
3020
0000
0000
0000
0000
0000
0000
0000
0000
0000
0000
0000
0000
0000
0000
0000
0000
0000
0000
0000
0000
0000
0000
0000
0000
0000
0000
0000
0000
0000
0000
0000
0000
0000
0000
0000
0000
0000
0000
0000
0000
0000
0000
0000
0000
0000
0000
0000
0000
0000
0000
0000
0000
0000
0000
0000
0000
0000
0000
0000
0000
0000
0000
0000
0000
0000
0000
0000
0000
0000
0000
0000
0000
0000
0000
0000
0232
0000
0000
0000
0000
0000
0000
0000
,
0000
0000
0000
0000
0000
0000
0000
0000
0000
0000
0000
0000
0000
0000
0000
0000
0000
0000
0000
0000
0000
0000
0000
0000
0000
0000
0000
0000
2323
0000
0000
0000
0000
0000
0000
0000
0000
0000
0000
0000
0000
0000
0000
0000
0000
0000
0000
0000
0000
0000
0000
0000
0000
0000
0000
0000
0000
0000
0000
0000
0000
0000
0000
0000
0000
0000
0000
0000
0000
0000
0000
0000
0000
0000
0000
0000
0000
0000
0000
0000
0000
0000
0000
0000
0000
0000
0000
0000
0000
0000
3032
0000
0000
0000
0000
0000
0000
0000
0000
0000
0000
0000
0000
0000
0000
0000
0000
0000
0000
0000
0000
0000
0000
0000
0000
0000
0000
0000
0000
0000
0203
0000
0000
0000
0000
0000
0000
0000
0000
0000
0000
0000
0000
0000
0000
0000
0000
0000
0000
0000
0000
0000
0000
0000
0000
0000
0000
0000
0000
0000
0000
0000
0000
0000
0000
0000
0000
0000
0000
0000
0000
0000
0302
0000
0000
0000
0000
0000
0000
0000
0000
0000
0000
0000
0000
0000
0000
0000
0000
0000
0000
0000
0000
0000
0000
0000
0000
0000
0000
0000
0000
0000
,
0000
0000
0000
0000
0023
0000
0000
0000
0000
0000
0000
0000
0000
0000
0000
0000
0230
0300
0000
0000
0000
0000
0000
0000
0000
0000
0000
0000
0000
0000
0000
0000
0000
0000
0000
0000
0000
0000
0000
0000
0000
0000
0000
0000
0000
0000
0000
0000
0000
0000
0000
0000
0000
0000
0000
0000
0000
0000
0000
0000
0000
0000
0000
0000
,
2000
0000
0000
0000
,
0000
0000
0000
0000
,
3200
0000
0000
0000
,
0000
0000
0000
0000
,
2300
0000
0000
0000
,
0000
0000
0000
0000
,
3200
0000
0000
0000
,
0000
0000
0000
0000
,
0320
0000
0000
0000
,
0000
0000
0000
0000
,
0230
0000
0000
0000
,
0000
0000
0000
0000
,
2300
0000
0000
0000
,
0000
0000
0000
0000
,
3200
0000
0000
0000
,
0000
0000
0000
0000
,
1310
0000
0000
0000
0000
0000
0000
0101
0000
0000
0000
0000
0000
0000
0000
0000
,
1000
0100
0010
0100
,
1000
1000
1000
0000
,
0001
0001
0001
0000
,
1000
0100
0010
0100
,
1000
1000
1000
1000
,
0001
0001
0010
0100
,
1001
0000
0000
0000
,
1000
0100
0010
0100
1000
0001
0100
0010
,
1000
0100
1000
0010
0100
0100
0001
1000
,
0010
0100
0001
0010
0100
1000
0100
0010
,
0001
0000
1000
0000
0010
0001
0010
1000
,
0001
0010
0100
0010
0001
0100
0010
1000
,
0100
0010
0100
1000
0001
0010
0100
1000
,
0100
0010
0001
1000
0100
0010
0001
0100
,
0010
1000
0010
1000
0010
1000
0010
1000
0010
1000
0010
1000
0010
1000
0010
1000
,
0010
1000
0010
1000
0010
1000
0010
1000
0010
1000
0010
1000
0010
1000
0010
1000
,
0010
1000
0010
1000
0010
1000
0010
1000
0010
1000
0010
1000
0010
1000
0010
1000
,
0010
1000
0010
1000
0010
1000
0010
1000
0010
1000
0010
1000
0010
1000
0010
1000
,
0001
0010
0100
0001
0010
0100
0001
0010
,
0001
0100
1000
0001
0100
1000
0001
0100
,
0010
0100
1000
0010
0100
1000
0010
0100
,
0001
0100
1000
0001
0100
1000
0001
0100
,
1002
0000
0000
0000
,
1003
0100
0010
0100
0001
0100
0010
0100
,
0000
1000
0010
0100
0010
0001
0010
0100
,
0010
0000
1000
0100
0010
1000
0000
0001
,
0000
0100
0000
1000
1000
0010
0010
0001
,
1000
0100
0200
0000
0000
0000
0000
0000
,
0000
0000
0000
0000
0300
0000
0000
0000
0000
0000
0000
0002
0000
2000
0000
0000
,
0000
3223
0000
0000
0000
0000
0000
0000
0000
0000
0000
0000
0000
0000
0000
2330
,
0000
3002
1103
0000
0000
0011
0000
0000
,
1000
0000
0010
0000
0100
0000
0001
0000
0000
0000
0000
0000
;
