#TITLE:Scream & Shout;
#SUBTITLE:Sexuality Violation;
#ARTIST:will.i.am feat. Britney Spears;
#TITLETRANSLIT:;
#SUBTITLETRANSLIT:;
#ARTISTTRANSLIT:;
#CREDIT:;
#BANNER:Scream & Shout-bn.png;
#BACKGROUND:Scream & Shout-bg.png;
#LYRICSPATH:;
#CDTITLE:GazeboCD.png;
#MUSIC:Scream & Shout.ogg;
#OFFSET:-0.091;
#SAMPLESTART:132.310;
#SAMPLELENGTH:29.900;
#SELECTABLE:YES;
#BPMS:0.000=130.000;
#STOPS:;
#BGCHANGES:;
// cache tags:
#FIRSTBEAT:19.500;
#LASTBEAT:351.000;
#SONGFILENAME:Songs/Sexuality Violation 2/Scream & Shout - [Gazebo]/Scream & Shout.sm;
#HASMUSIC:1;
#HASBANNER:1;
#MUSICLENGTH:163.202;
// end cache tags

//---------------dance-single - Gazebo----------------
#NOTES:
     dance-single:
     Gazebo:
     Challenge:
     12:
     0.825,1.000,0.116,0.025,1.000,919.000,19.000,4.000,16.000,0.000:
0000
0000
0000
0000
,
0000
0000
0000
0000
,
0000
0000
0000
0000
,
0000
0000
0000
0000
,
4000
0000
0000
0000
0000
0000
0000
3001
,
0400
0000
0000
0000
,
0340
0000
0000
0000
0000
0000
0000
1030
,
0001
0000
MM00
00MM
,
1000
0000
0100
0010
0100
1000
0001
0100
0010
0000
0000
0000
1000
0000
0001
0010
,
0000
0001
0010
0100
0010
0001
1000
0000
0010
0000
0000
0000
1000
0000
0001
0010
,
0000
0001
0010
0100
0010
0001
1000
0000
0010
0000
0000
0000
1000
0000
0001
0010
,
0000
0000
0000
0001
0000
0000
0010
0000
0000
0100
0000
0000
0010
0000
0000
0001
0000
0000
1000
0000
0000
0000
0000
0000
0010
0000
0000
0000
0000
0000
0000
0000
0000
1000
0000
0000
0000
0000
0000
0000
1000
0000
0100
0000
0000
0000
0000
0000
,
1000
0000
0001
0100
0010
0000
0100
0001
1000
0000
0000
0000
0001
0000
0010
0100
,
0000
0010
0001
0000
0001
0000
0001
0000
1000
0000
0000
0000
0001
0000
0100
0010
,
0000
0100
0001
0000
0001
0000
0001
0000
1000
0000
0000
0000
0001
0000
0010
0100
,
0000
0000
0000
0010
0000
0000
0001
0000
0000
0000
0000
0000
0001
0000
0000
0000
0000
0000
0001
0000
0000
0000
0000
0000
1000
0000
0000
0000
0000
0000
0000
0000
0000
0001
0000
0000
0000
0000
0000
0000
0001
0000
0100
0000
0000
0000
0100
0000
,
0010
0000
1000
0010
1000
0000
0001
0010
0100
0000
0000
1000
0000
1000
0001
0100
,
0000
0010
1000
0000
1000
0000
1000
0000
0001
0000
0000
1000
0000
1000
0001
0010
,
0000
0100
1000
0000
1000
0000
1000
0000
0001
0000
0000
1000
0000
1000
0001
0100
,
0000
0000
0000
0010
0000
0000
1000
0000
0000
0000
0000
0000
1000
0000
0000
0000
0000
0000
1000
0000
0000
0000
0000
0000
0001
0000
0000
0000
0000
0000
0000
0000
0000
1000
0000
0000
0000
0000
0000
0000
1000
0000
0100
0000
0000
0000
0000
0000
,
1000
0000
0010
0100
0010
1000
0001
0010
0100
0000
0000
1000
0000
1000
0001
0100
,
0000
0010
1000
0000
1000
0000
1000
0000
0001
0000
0000
1000
0000
1000
0001
0010
,
0000
0100
1000
0000
1000
0000
1000
0000
0001
0000
0000
1000
0000
1000
0001
0100
,
0000
0010
1000
0000
1000
0000
1000
0000
0001
0000
0010
0000
0010
0000
0010
0000
,
0001
0000
1000
0100
1000
0000
0001
0100
0010
0000
1000
0010
1000
0000
0001
0000
,
0001
0000
0010
0100
1000
0000
0001
0010
0001
0000
1000
0001
1000
0000
0010
0000
,
0010
0000
1000
0010
1000
0000
0001
0010
0100
0000
1000
0100
1000
0000
0001
0000
,
0001
0000
0100
0000
0100
0000
0010
1000
0010
0000
1000
0000
4000
0000
0000
0000
,
3001
0010
0001
1000
0001
0010
0100
1000
0001
0100
0001
1000
0010
1000
0001
1000
0001
0100
0001
1000
0100
0010
0001
0010
,
0001
1000
0001
0100
0001
1000
0010
1000
0001
0100
0001
1000
0001
0000
0000
1000
0000
0000
4000
0000
0000
0000
0000
0000
,
3001
0010
0001
1000
0001
0010
0100
1000
0001
0100
0001
1000
0010
1000
0001
1000
0001
0100
0001
1000
0100
0010
0001
0010
,
0001
1000
0001
0100
0001
1000
0010
1000
0001
0100
0001
1000
0001
0000
0000
0010
0000
0000
0010
0000
0000
0010
0000
0000
,
0001
0000
1000
0010
1000
0000
0001
0010
0100
0000
1000
0100
1000
0000
0001
0000
,
0001
0000
0100
0010
1000
0000
0001
0100
0001
0000
1000
0001
1000
0000
0100
0000
,
0100
0000
1000
0100
1000
0000
0001
0100
0010
0000
1000
0010
1000
0000
0001
0000
,
0001
0000
0010
0000
0010
0000
0100
1000
0100
0000
1000
0000
4000
0000
0000
0000
,
3001
0100
0001
1000
0001
0100
0010
1000
0001
0010
0001
1000
0100
1000
0001
1000
0001
0010
0001
1000
0010
0100
0001
0100
,
0001
1000
0001
0010
0001
1000
0100
1000
0001
0010
0001
1000
0001
0000
0000
0100
0000
0000
0010
0000
0000
0010
0000
0000
,
2000
0000
0000
3000
2000
0000
0000
0000
3001
0000
0010
0000
0100
0000
0000
0000
,
0010
0010
0010
0001
MM00
00MM
0MM0
0000
,
1000
0000
0011
0000
0001
0000
1010
0000
1000
0000
0000
1000
0000
1000
0001
0010
,
0000
0000
0000
0100
0000
0000
1000
0000
0000
0000
0000
0000
0001
0000
0000
0000
0000
0000
1010
0000
0000
0000
0000
0000
1000
0000
0000
0000
0000
0000
0000
0000
0000
1000
0000
0000
0001
0000
0100
0000
0001
0000
1000
0000
0001
0000
0010
0000
,
0100
0000
0000
0000
1000
0000
0001
0000
0000
0000
0000
0000
1000
0000
0000
0000
0000
0000
0101
0000
0000
0000
0000
0000
0001
0000
0000
0000
0000
0000
0000
0000
0000
0001
0000
0000
0000
0000
0000
0001
0000
0000
1000
0000
0000
0100
0000
0000
,
0000
0000
0000
0010
0000
0000
0001
0000
0000
0000
0000
0000
1000
0000
0000
0000
0000
0000
0101
0000
0000
0000
0000
0000
0001
0000
0000
0000
0000
0000
0000
0000
0000
1000
0000
0000
0001
0000
0100
0000
0001
0000
1000
0000
0001
0000
0010
0000
,
0100
0000
1100
0000
1000
0000
0101
0000
0001
0000
0000
0001
0000
0001
1000
0100
,
0000
0000
0000
0010
0000
0000
0001
0000
0000
0000
0000
0000
1000
0000
0000
0000
0000
0000
0101
0000
0000
0000
0000
0000
0001
0000
0000
0000
0000
0000
0000
0000
0000
0001
0000
0000
1000
0000
0010
0000
1000
0000
0001
0000
1000
0000
0100
0000
,
0010
0000
0000
0000
0001
0000
1000
0000
0000
0000
0000
0000
0001
0000
0000
0000
0000
0000
1010
0000
0000
0000
0000
0000
1000
0000
0000
0000
0000
0000
0000
0000
0000
1000
0000
0000
0000
0000
0000
1000
0000
0000
0001
0000
0000
0010
0000
0000
,
0000
0100
0000
0000
1000
0000
0000
0000
0000
0000
0000
0000
0000
0000
0000
0000
,
0001
0000
0001
0000
0001
0000
0000
0000
0000
0000
0000
0000
,
0100
0000
0100
0000
0100
0000
0000
0000
0000
0000
0000
0000
,
0010
0000
0010
0000
0010
0000
0000
0000
0000
0000
0000
0000
,
1000
0000
1000
0000
1000
0000
0000
0000
0000
0000
0000
0000
,
0001
0000
0001
0000
0001
0000
0000
0000
0000
0000
0000
0000
,
0010
0000
0010
0000
0010
0000
0000
0000
0000
0000
0000
0000
,
0100
0000
0100
0000
0100
0000
0000
0000
0000
0000
0000
0000
,
1000
0000
1000
0000
1000
0000
0000
0000
0000
0000
0000
0000
,
0001
0000
1000
0000
0010
0000
0100
0000
0001
0000
0010
0000
,
0100
0000
0010
0000
0001
0000
1000
0000
0001
0000
0100
0000
,
0010
0000
0100
0000
0001
0000
1000
0000
0100
0000
0010
0000
,
0001
1000
0010
1000
0001
0100
0001
0010
,
0100
0010
0001
1000
0001
0100
0010
0100
,
0001
1000
0100
0010
0001
0100
0010
1000
,
0001
0100
0001
1000
0100
0010
0001
0010
0100
1000
0001
0001
,
0100
0000
0000
0000
0010
0000
0000
0000
1000
0000
0000
0000
0001
0000
0000
0100
0000
0000
0001
0000
0000
1000
0000
0000
0001
0000
0010
0000
0100
0000
1000
0000
0001
0000
1000
0000
0001
0000
0100
0000
0010
0000
1000
0000
0100
0000
0010
0000
,
0001
1000
0100
1000
0001
1000
0010
0100
0001
1000
0001
0100
0001
1000
0100
0010
,
0001
1000
0010
1000
0001
0010
0001
0010
0001
1000
0001
1000
0100
0010
0001
0100
,
0001
1000
0010
1000
0001
1000
0100
0010
0001
1000
0001
0010
0001
1000
0010
0100
,
0001
1000
0100
1000
0001
0010
0001
1000
0001
0100
0010
0100
0004
0000
0000
0000
,
1003
0100
1000
0001
1000
0100
0010
0001
1000
0010
1000
0001
0100
0001
1000
0001
1000
0010
1000
0001
0010
0100
1000
0100
,
1000
0001
1000
0010
1000
0001
0100
0001
1000
0010
1000
0001
1000
0000
0000
0001
0000
0000
0004
0000
0000
0000
0000
0000
,
1003
0100
1000
0001
1000
0100
0010
0001
1000
0010
1000
0001
0100
0001
1000
0001
1000
0010
1000
0001
0010
0100
1000
0100
,
1000
0001
1000
0010
1000
0001
0100
0001
1000
0010
1000
0001
1000
0000
0000
0100
0000
0000
0010
0000
0000
0010
0000
0000
,
0001
1000
0010
1000
0001
1000
0100
0010
0001
1000
0001
0010
0001
1000
0010
0100
,
0001
1000
0100
1000
0001
0100
0001
0100
0001
1000
0001
1000
0010
0100
0001
0010
,
0001
1000
0100
1000
0001
1000
0010
0100
0001
1000
0001
0100
0001
1000
0100
0010
,
0001
1000
0010
1000
0001
0100
0001
1000
0001
0010
0100
0010
0004
0000
0000
0000
,
1003
0010
1000
0001
1000
0010
0100
0001
1000
0100
1000
0001
0010
0001
1000
0001
1000
0100
1000
0001
0100
0010
1000
0010
,
1000
0001
1000
0100
1000
0001
0010
0001
1000
0100
1000
0001
1000
0000
0000
0001
0000
0000
0004
0000
0000
0000
0000
0000
,
1003
0010
1000
0001
1000
0010
0100
0001
1000
0100
1000
0001
0010
0001
1000
0001
1000
0100
1000
0001
0100
0010
1000
0010
,
1000
0001
1000
0100
1000
0001
0010
0001
1000
0100
1000
0001
1000
0000
0000
0010
0000
0000
0100
0000
0000
0100
0000
0000
,
0001
1000
0100
1000
0001
1000
0010
0100
0001
1000
0001
0100
0001
1000
0100
0010
,
0001
1000
0010
1000
0001
0010
0001
0010
0001
1000
0001
1000
0100
0010
0001
0100
,
0001
1000
0010
1000
0001
1000
0100
0010
0001
1000
0001
0010
0001
1000
0010
0100
,
0001
1000
0100
1000
0001
0010
0001
1000
0001
0100
0010
0100
0004
0000
0000
0000
,
1003
0100
1000
0001
1000
0100
0010
0001
1000
0010
1000
0001
0100
0001
1000
0001
1000
0010
1000
0001
0010
0100
1000
0100
,
1000
0001
1000
0010
1000
0001
0100
0001
1000
0010
1000
0001
1000
0000
0000
0100
0000
0000
0010
0000
0000
0010
0000
0000
,
0002
0000
0000
0003
0002
0000
0000
0000
1003
0000
0010
0000
0100
0000
0000
0000
,
0010
0010
0010
1000
00MM
MM00
0MM0
0000
;

//---------------dance-single - Gazebo----------------
#NOTES:
     dance-single:
     Gazebo:
     Hard:
     11:
     0.736,0.887,0.116,0.025,1.000,817.000,19.000,4.000,16.000,0.000:

0000
0000
0000
0000
,
0000
0000
0000
0000
,
0000
0000
0000
0000
,
0000
0000
0000
0000
,
4000
0000
0000
0000
0000
0000
0000
3001
,
0400
0000
0000
0000
,
0340
0000
0000
0000
0000
0000
0000
1030
,
0001
0000
MM00
00MM
,
1000
0000
0100
0010
0100
1000
0001
0100
0010
0000
0000
0000
1000
0000
0001
0010
,
0000
0001
0010
0100
0010
0001
1000
0000
0010
0000
0000
0000
1000
0000
0001
0010
,
0000
0001
0010
0100
0010
0001
1000
0000
0010
0000
0000
0000
1000
0000
0001
0010
,
0000
0000
0000
0001
0000
0000
0010
0000
0000
0100
0000
0000
0010
0000
0000
0001
0000
0000
1000
0000
0000
0000
0000
0000
0010
0000
0000
0000
0000
0000
0000
0000
0000
1000
0000
0000
0000
0000
0000
0000
1000
0000
0100
0000
0000
0000
0000
0000
,
1000
0000
0001
0100
0010
0000
0100
0001
1000
0000
0000
0000
0001
0000
0010
0100
,
0000
0010
0001
0000
0001
0000
0001
0000
1000
0000
0000
0000
0001
0000
0100
0010
,
0000
0100
0001
0000
0001
0000
0001
0000
1000
0000
0000
0000
0001
0000
0010
0100
,
0000
0000
0000
0010
0000
0000
0001
0000
0000
0000
0000
0000
0001
0000
0000
0000
0000
0000
0001
0000
0000
0000
0000
0000
1000
0000
0000
0000
0000
0000
0000
0000
0000
0001
0000
0000
0000
0000
0000
0000
0001
0000
0100
0000
0000
0000
0100
0000
,
0010
0000
1000
0010
1000
0000
0001
0010
0100
0000
0000
1000
0000
1000
0001
0100
,
0000
0010
1000
0000
1000
0000
1000
0000
0001
0000
0000
1000
0000
1000
0001
0010
,
0000
0100
1000
0000
1000
0000
1000
0000
0001
0000
0000
1000
0000
1000
0001
0100
,
0000
0000
0000
0010
0000
0000
1000
0000
0000
0000
0000
0000
1000
0000
0000
0000
0000
0000
1000
0000
0000
0000
0000
0000
0001
0000
0000
0000
0000
0000
0000
0000
0000
1000
0000
0000
0000
0000
0000
0000
1000
0000
0100
0000
0000
0000
0000
0000
,
1000
0000
0010
0100
0010
1000
0001
0010
0100
0000
0000
1000
0000
1000
0001
0100
,
0000
0010
1000
0000
1000
0000
1000
0000
0001
0000
0000
1000
0000
1000
0001
0010
,
0000
0100
1000
0000
1000
0000
1000
0000
0001
0000
0000
1000
0000
1000
0001
0100
,
0000
0010
1000
0000
1000
0000
1000
0000
0001
0000
0010
0000
0010
0000
0010
0000
,
0001
0000
1000
0100
1000
0000
0001
0100
0010
0000
1000
0010
1000
0000
0001
0000
,
0001
0000
0010
0100
1000
0000
0001
0010
0001
0000
1000
0001
1000
0000
0010
0000
,
0010
0000
1000
0010
1000
0000
0001
0010
0100
0000
1000
0100
1000
0000
0001
0000
,
0001
0000
0100
0000
0100
0000
0010
1000
0010
0000
1000
0000
4000
0000
0000
0000
,
3001
0010
0001
1000
0001
1000
0010
0100
0001
1000
0010
1000
0001
1000
0100
0010
,
0001
0100
0010
1000
0001
0010
0001
1000
0001
0000
1000
0000
4000
0000
0000
0000
,
3001
0010
0001
1000
0001
1000
0010
0100
0001
1000
0010
1000
0001
1000
0100
0010
,
0001
0100
0010
1000
0001
0010
0001
1000
0001
0000
0010
0000
0010
0000
0010
0000
,
0001
0000
1000
0010
1000
0000
0001
0010
0100
0000
1000
0100
1000
0000
0001
0000
,
0001
0000
0100
0010
1000
0000
0001
0100
0001
0000
1000
0001
1000
0000
0100
0000
,
0100
0000
1000
0100
1000
0000
0001
0100
0010
0000
1000
0010
1000
0000
0001
0000
,
0001
0000
0010
0000
0010
0000
0100
1000
0100
0000
1000
0000
4000
0000
0000
0000
,
3001
0100
0001
1000
0001
1000
0100
0010
0001
1000
0100
1000
0001
1000
0010
0100
,
0001
0010
0100
1000
0001
0100
0001
1000
0001
0000
0100
0000
0010
0000
0010
0000
,
2000
0000
0000
3000
2000
0000
0000
0000
3001
0000
0010
0000
0100
0000
0000
0000
,
0010
0010
0010
0001
MM00
00MM
0MM0
0000
,
1000
0000
0011
0000
0001
0000
1010
0000
1000
0000
0000
1000
0000
1000
0001
0010
,
0000
0100
1000
0000
0001
0000
1010
0000
1000
0000
0000
1000
0001
0010
0001
0010
,
0100
0000
0000
0000
1000
0000
0001
0000
0000
0000
0000
0000
1000
0000
0000
0000
0000
0000
0101
0000
0000
0000
0000
0000
0001
0000
0000
0000
0000
0000
0000
0000
0000
0001
0000
0000
0000
0000
0000
0001
0000
0000
1000
0000
0000
0100
0000
0000
,
0000
0010
0001
0000
1000
0000
0101
0000
0001
0000
0000
1000
0001
0010
0001
0010
,
0100
0000
1100
0000
1000
0000
0101
0000
0001
0000
0000
0001
0000
0001
1000
0100
,
0000
0010
0001
0000
1000
0000
0101
0000
0001
0000
0000
0001
1000
0100
1000
0100
,
0010
0000
0000
0000
0001
0000
1000
0000
0000
0000
0000
0000
0001
0000
0000
0000
0000
0000
1010
0000
0000
0000
0000
0000
1000
0000
0000
0000
0000
0000
0000
0000
0000
1000
0000
0000
0000
0000
0000
1000
0000
0000
0001
0000
0000
0010
0000
0000
,
0000
0100
0000
0000
1000
0000
0000
0000
0000
0000
0000
0000
0000
0000
0000
0000
,
0001
0000
0001
0000
0001
0000
0000
0000
0000
0000
0000
0000
,
0100
0000
0100
0000
0100
0000
0000
0000
0000
0000
0000
0000
,
0010
0000
0010
0000
0010
0000
0000
0000
0000
0000
0000
0000
,
1000
0000
1000
0000
1000
0000
0000
0000
0000
0000
0000
0000
,
0001
0000
0001
0000
0001
0000
0000
0000
0000
0000
0000
0000
,
0010
0000
0010
0000
0010
0000
0000
0000
0000
0000
0000
0000
,
0100
0000
0100
0000
0100
0000
0000
0000
0000
0000
0000
0000
,
1000
0000
1000
0000
1000
0000
0000
0000
0000
0000
0000
0000
,
0001
0000
1000
0000
0010
0000
0100
0000
0001
0000
0010
0000
,
0100
0000
0010
0000
0001
0000
1000
0000
0001
0000
0100
0000
,
0010
0000
0100
0000
0001
0000
1000
0000
0100
0000
0010
0000
,
0001
1000
0010
1000
0001
0100
0001
0010
,
0100
0010
0001
1000
0001
0100
0010
0100
,
0001
1000
0100
0010
0001
0100
0010
1000
,
0001
0100
0001
1000
0100
0010
0001
0010
0100
1000
0001
0001
,
0100
0000
0000
0000
0010
0000
0000
0000
1000
0000
0000
0000
0001
0000
0000
0100
0000
0000
0001
0000
0000
1000
0000
0000
0001
0000
0010
0000
0100
0000
1000
0000
0001
0000
1000
0000
0001
0000
0100
0000
0001
0000
0100
0000
0010
0000
1000
0000
,
0001
1000
0100
1000
0001
1000
0010
0100
0001
1000
0001
0100
0001
1000
0100
0010
,
0001
1000
0010
1000
0001
0010
0001
0010
0001
1000
0001
1000
0100
0010
0001
0100
,
0001
1000
0010
1000
0001
1000
0100
0010
0001
1000
0001
0010
0001
1000
0010
0100
,
0001
1000
0100
1000
0001
0010
0001
1000
0001
0100
0010
0100
0004
0000
0000
0000
,
1003
0100
1000
0001
1000
0001
0100
0010
1000
0001
0100
0001
1000
0001
0010
0100
,
1000
0010
0100
0001
1000
0100
1000
0001
1000
0000
0001
0000
0004
0000
0000
0000
,
1003
0100
1000
0001
1000
0001
0100
0010
1000
0001
0100
0001
1000
0001
0010
0100
,
1000
0010
0100
0001
1000
0100
1000
0001
1000
0000
0100
0000
0010
0000
0010
0000
,
0001
1000
0010
1000
0001
1000
0100
0010
0001
1000
0001
0010
0001
1000
0010
0100
,
0001
1000
0100
1000
0001
0100
0001
0100
0001
1000
0001
1000
0010
0100
0001
0010
,
0001
1000
0100
1000
0001
1000
0010
0100
0001
1000
0001
0100
0001
1000
0100
0010
,
0001
1000
0010
1000
0001
0100
0001
1000
0001
0010
0100
0010
0004
0000
0000
0000
,
1003
0010
1000
0001
1000
0001
0010
0100
1000
0001
0010
0001
1000
0001
0100
0010
,
1000
0100
0010
0001
1000
0010
1000
0001
1000
0000
0001
0000
0004
0000
0000
0000
,
1003
0010
1000
0001
1000
0001
0010
0100
1000
0001
0010
0001
1000
0001
0100
0010
,
1000
0100
0010
0001
1000
0010
1000
0001
1000
0000
0010
0000
0100
0000
0100
0000
,
0001
1000
0100
1000
0001
1000
0010
0100
0001
1000
0001
0100
0001
1000
0100
0010
,
0001
1000
0010
1000
0001
0010
0001
0010
0001
1000
0001
1000
0100
0010
0001
0100
,
0001
1000
0010
1000
0001
1000
0100
0010
0001
1000
0001
0010
0001
1000
0010
0100
,
0001
1000
0100
1000
0001
0010
0001
1000
0001
0100
0010
0100
0004
0000
0000
0000
,
1003
0100
1000
0001
1000
0001
0100
0010
1000
0001
0100
0001
1000
0001
0010
0100
,
1000
0010
0100
0001
1000
0100
1000
0001
1000
0000
0100
0000
0010
0000
0010
0000
,
0002
0000
0000
0003
0002
0000
0000
0000
1003
0000
0010
0000
0100
0000
0000
0000
,
0010
0010
0010
1000
00MM
MM00
0MM0
0000
;
