#TITLE:Banjo Tooie Intro;
#SUBTITLE:;
#ARTIST:Rareware;
#TITLETRANSLIT:;
#SUBTITLETRANSLIT:;
#ARTISTTRANSLIT:;
#CREDIT:;
#BANNER:intro.png;
#BACKGROUND:intro-bg.png;
#LYRICSPATH:;
#CDTITLE:kykaCD.png;
#MUSIC:Banjo-Tooie Intro.mp3;
#OFFSET:0.020;
#SAMPLESTART:16.060;
#SAMPLELENGTH:16.020;
#SELECTABLE:YES;
#BPMS:0.000=130.040,33.167=220.360,36.000=135.020;
#STOPS:;
#BGCHANGES:;
// cache tags:
#FIRSTBEAT:0.000;
#LASTBEAT:114.000;
#SONGFILENAME:Songs/toune 2/Banjo Tooie Intro/kyka's dwi's.sm;
#HASMUSIC:1;
#HASBANNER:1;
#MUSICLENGTH:51.617;
// end cache tags

//---------------dance-single - ----------------
#NOTES:
     dance-single:
     :
     Beginner:
     1:
     0.163,0.359,0.077,0.329,0.000,38.000,4.000,17.000,0.000,0.000:
2002
0000
0000
0000
,
0000
0000
0000
0000
,
0000
0000
0000
0000
,
0000
0000
0000
0000
,
0000
0000
0000
0000
,
0000
0000
0000
0000
,
0000
0000
0000
0000
,
0000
0000
0000
0000
,
0000
0000
0000
0000
,
0000
0000
0000
3003
,
1000
0000
0100
0000
,
0010
0000
0100
0000
,
1000
0000
0001
0000
,
0100
0000
0001
0000
,
2000
0000
3002
0000
,
0203
0320
2030
3002
,
0203
0000
0000
0000
,
0320
0000
0000
0000
,
1030
0000
0001
0000
,
0100
0000
0001
0000
,
2000
0000
3002
0000
,
0203
0010
0010
0310
,
1001
0000
0000
0000
,
0110
0000
0000
0000
,
1100
0000
0000
0000
,
0001
0000
0001
0001
,
2000
0000
3002
0000
,
0203
0000
0000
0000
0000
0000
0000
0320
,
0000
0000
1030
0000
;

//---------------dance-single - ----------------
#NOTES:
     dance-single:
     :
     Easy:
     4:
     0.280,0.359,0.077,0.407,0.010,76.000,4.000,21.000,0.000,0.000:
2002
0000
0000
0000
,
0000
0000
0000
0000
,
0000
0000
0000
0000
,
0000
0000
0000
3003
,
1000
0000
0000
0000
0000
0001
0000
0000
,
0000
1000
0000
0000
0000
0001
0000
0000
,
0000
1000
0000
0000
,
0000
0000
0100
0000
,
0000
0010
0000
0000
0000
0000
0000
0000
0000
0000
0000
0000
0000
0000
0000
0000
0000
0000
0000
0000
0000
0000
0000
0000
,
1000
0100
0010
0001
,
0000
1000
0000
1000
0000
0100
0000
0100
,
0000
0010
0000
0010
0000
0001
0000
0001
,
1000
0100
0010
0000
,
0001
0010
0100
0000
,
2000
0000
3002
0203
,
0320
0000
2030
3200
,
0310
0001
0100
0001
,
1000
0001
1000
0000
1000
0001
1000
0000
,
0001
0100
0000
0100
0000
0010
0000
0010
,
0000
1000
0000
1000
0000
0001
0000
0001
,
0010
0001
0100
0001
,
2000
3200
0320
0032
,
1003
0100
0010
0001
,
2002
0000
0000
3003
,
0001
0010
0100
1000
,
2002
0000
0000
3003
,
2000
0000
0000
3001
0002
0000
0000
0103
,
0200
0000
0000
0000
0000
0000
0000
0310
,
0000
2002
3003
0000
;

//---------------dance-single - ----------------
#NOTES:
     dance-single:
     :
     Medium:
     7:
     0.404,0.497,0.407,0.174,0.019,116.000,21.000,9.000,0.000,0.000:
2002
0000
0000
0000
,
0000
0000
0000
0000
,
0000
0000
0000
0000
,
0000
0000
0000
3003
,
1000
0000
0100
0000
0010
0001
0000
0000
,
0000
1000
0000
0010
0000
0110
0000
0000
,
0000
1000
0001
0100
,
0001
0000
1000
0010
,
0000
0100
0000
0000
0000
0000
0000
0100
0000
0000
0000
0000
0000
0000
0000
0000
0000
0000
0000
0000
0000
0000
0000
0000
,
0001
0010
0100
1000
0001
0100
0001
1000
,
0001
0110
0000
0110
0000
0110
0000
0110
,
0000
1001
0000
1001
0000
1001
0000
1000
,
0001
0010
0100
1000
,
0010
0100
0001
1000
,
0001
1000
0001
0000
0100
0010
0100
0010
,
0100
0001
0100
0000
0001
1000
0001
1000
,
0001
1000
0001
0100
,
0010
0100
0010
0010
0100
0010
0100
0100
,
0001
1100
0000
1100
0000
1100
0000
1100
,
0000
0011
0000
0011
0000
0011
0000
0001
,
1000
0001
0100
0001
,
1001
0110
1001
0110
,
1000
0100
1000
0000
0010
0000
0010
0000
,
0001
0100
0001
0000
0010
0000
0010
0000
,
0100
1000
0100
0000
0100
0000
0100
0000
,
0100
0001
1000
0001
,
2200
0000
3300
0002
0200
0000
0303
0020
,
1030
0001
1000
0001
0100
0100
0010
0020
,
0000
2000
3030
0000
;

//---------------dance-single - ----------------
#NOTES:
     dance-single:
     :
     Hard:
     10:
     0.692,0.911,0.329,0.077,0.823,229.000,17.000,4.000,0.000,0.000:
2002
0000
0000
0000
,
0000
0000
0000
0000
,
0000
0000
0000
0000
,
0000
0000
0000
3003
,
1000
0000
0100
0000
1000
0000
0010
0000
0100
0001
0100
0000
0000
0000
0000
0000
,
0000
0000
0010
0000
1000
0000
0010
0000
0100
0000
0010
0100
0000
0000
0000
0000
,
0000
0000
0000
0000
0000
0000
0001
0000
0000
0010
0000
0000
0100
0000
0000
0000
0000
0000
0000
0000
1000
0001
0000
1000
,
0001
0000
0000
0000
0000
0000
1100
0000
0010
0100
0000
0000
,
0000
1100
0000
0000
0010
0000
0000
0110
0000
0000
0000
0000
0000
0000
0000
0000
0000
0000
0000
0000
0000
0000
0000
0000
,
1000
0100
1000
0100
1000
0100
1000
0100
0010
0001
0010
0001
0010
0001
0010
0001
,
0010
0100
1000
0100
0010
0001
0100
0001
0100
0001
0100
0001
0010
0001
0010
0001
,
1000
0100
1000
0100
1000
0010
1000
0010
0100
0010
0100
0010
0100
0001
0100
0001
,
1000
0000
0000
0000
0001
0000
0000
0100
0001
0000
0000
0000
1000
0000
0000
0000
,
0110
0000
0000
0000
0001
0000
0000
1000
0100
0000
0000
0000
0110
0000
0000
0000
,
1000
0000
0001
0100
0001
0000
0001
0000
1000
0100
1000
0100
0010
0001
0010
0001
,
0100
0000
0010
0100
0010
0000
0010
0000
1000
0001
1000
0001
0100
0010
0100
0010
,
1000
0000
0000
0000
0001
0000
0000
1000
0010
0000
0000
0000
0100
0000
0000
0000
,
0001
0010
0001
0010
0001
0000
0001
0000
1000
0100
1000
0100
1000
0000
1000
0000
,
0010
1000
0010
1000
0001
0100
0001
0100
0001
0010
0001
0010
0100
1000
0100
1000
,
0100
0010
0100
0010
0100
0001
0100
0001
0100
1000
0100
1000
0010
1000
0010
1000
,
0010
0000
0000
0000
0001
0000
0000
1000
0100
0000
0000
0000
0010
0000
0000
0000
,
1100
1100
0011
0011
,
1000
0000
0100
0010
0100
0000
1000
0000
0001
0010
0001
0010
0001
0010
0001
0010
,
0001
0000
1000
0100
1000
0000
0010
0000
1000
0001
1000
0001
1000
0001
1000
0001
,
1000
0000
0001
0100
0001
0000
0001
0000
0100
0010
0100
0010
0100
0010
0100
0010
,
0100
0000
0000
0000
1000
0000
0000
0001
0100
0000
0000
0000
1000
0000
0000
0000
,
1001
0000
0000
0110
0110
0000
0000
1001
,
1001
0000
1000
0100
1000
0000
0010
0000
0100
0001
1000
0001
0100
0000
0110
0000
,
0000
2002
3003
0000
;

//---------------dance-single - ----------------
#NOTES:
     dance-single:
     :
     Challenge:
     10:
     0.783,0.939,0.775,0.232,0.833,231.000,40.000,12.000,0.000,0.000:
2002
0000
0000
0000
,
0000
0000
0000
0000
,
0000
0000
0000
0000
,
0000
0000
0000
3003
,
1000
0000
0010
0000
0001
0000
0100
0000
0010
1000
0010
0000
0000
0000
0000
0000
,
0000
0000
1000
0000
0100
0000
0010
0000
0100
0000
1000
0010
0000
0000
0000
0000
,
0000
0000
0000
0000
0000
0000
1000
0000
0000
0100
0000
0000
0010
0000
0000
0001
0000
0100
0000
0000
0001
1000
0000
0001
,
0100
0000
0000
0000
0000
0000
1100
0000
0100
0011
0000
0000
,
0000
1100
0000
0000
0010
0000
0000
0110
0000
0000
0000
0000
0000
0000
0000
0000
0000
0000
0000
0000
0000
0000
0000
0000
,
1100
0100
0010
0001
0100
0001
1000
0100
0010
0001
0100
0010
1000
0100
1000
0010
,
0100
0001
1000
0100
0010
0001
0100
0001
0010
0100
1000
0010
0100
0001
1000
0001
,
1000
0100
1000
0010
0100
0001
0010
0001
0100
0010
1000
0100
0010
0100
1000
0010
,
0101
0000
0000
0000
1001
0000
0000
1000
0100
0000
0000
0000
0110
0000
0000
0000
,
0101
0000
0000
0000
1100
0000
0000
1000
0100
0000
0000
0000
0101
0000
0000
0000
,
1100
0000
0100
0010
0100
0000
0011
0000
1000
0100
0010
0001
0100
0001
1000
0001
,
0101
0000
0010
1000
0010
0000
1100
0000
0001
0010
0100
1000
0001
0100
0010
1000
,
0101
0000
0000
0000
1100
0000
0000
0001
0100
0000
0000
0000
0110
0000
0000
0000
,
1000
0100
0010
0001
0010
0000
0010
0000
0100
1000
0100
0010
0001
0000
0001
0000
,
0100
0010
1000
0001
0100
0001
1000
0100
0010
0001
0100
0001
1000
0100
1000
0010
,
0100
0010
0001
1000
0100
0001
0010
0100
1000
0100
0010
0100
1000
0001
0100
0001
,
1000
0000
0000
0000
0101
0000
0000
1000
0100
0000
0000
0000
0110
0000
0000
0000
,
1001
1100
0110
1001
,
0101
0000
0010
1000
0010
0000
0110
0000
1000
0100
0010
0001
1000
0100
0010
0001
,
1001
0000
1000
0010
1000
0000
0110
0000
0001
0010
0100
1000
0001
0010
0100
1000
,
0001
0000
0010
0100
0010
0000
1001
0000
1000
0100
1000
0010
0100
0001
0100
0001
,
0010
0000
0000
0000
1100
0000
0000
0010
0100
0000
0000
0000
1001
0000
0000
0000
,
2200
0000
0000
0000
3300
0000
0022
0033
2200
0000
0000
0000
0000
3300
0022
0033
,
1001
0000
1000
0100
1000
0000
0110
0000
0001
0010
0100
1000
0001
0000
1001
0000
,
0000
2200
3300
0000
;
