#TITLE:mind the gap;
#SUBTITLE:;
#ARTIST:Osamu Kubota;
#TITLETRANSLIT:;
#SUBTITLETRANSLIT:;
#ARTISTTRANSLIT:;
#CREDIT:;
#BANNER:mind the gap_bn.png;
#BACKGROUND:mind the gap_bg.png;
#LYRICSPATH:;
#CDTITLE:ducky.png;
#MUSIC:19. mind the gap.mp3;
#OFFSET:-4.780;
#SAMPLESTART:61.224;
#SAMPLELENGTH:12.000;
#SELECTABLE:YES;
#BPMS:0.000=98.000,27.000=196.000,53.000=147.000,104.000=98.000,126.000=147.000,150.000=98.000,177.000=196.000,220.000=49.000;
#STOPS:;
#BGCHANGES:;
// cache tags:
#FIRSTBEAT:0.000;
#LASTBEAT:225.167;
#SONGFILENAME:Songs/Fabulously Fresh Flock of Fantastic Files F5/(Ducky) Mind The Gap/mind the gap.sm;
#HASMUSIC:1;
#HASBANNER:1;
#MUSICLENGTH:113.711;
// end cache tags

//---------------dance-single - ----------------
#NOTES:
     dance-single:
     :
     Hard:
     12:
     0.882,1.000,1.000,0.141,1.000,549.000,137.000,16.000,0.000,0.000:
1000
0000
0100
0000
0010
0000
0001
0100
0000
0010
0000
1000
0000
0001
0100
0000
,
0010
0000
1000
0000
0100
0010
0000
1000
0000
0001
0000
0100
1000
0000
0010
0000
,
0001
0000
1000
0100
0000
0001
0000
1000
0000
0100
0001
0000
0100
0000
1000
0000
,
0001
0100
0000
0010
0000
0001
0000
0010
1000
0000
0100
0000
0010
0000
0001
0200
,
0000
0010
0000
1000
0000
0310
1000
0000
0100
0000
0001
0000
0100
0020
0000
0000
,
0000
0200
0000
0330
0001
1000
0100
0001
0000
0100
1000
0010
0001
0010
0000
1000
,
0100
0010
1000
0010
0000
0001
0100
0000
0010
0001
0000
1000
1001
0001
0100
0001
,
0010
0100
1000
0100
0010
0001
0010
0100
0010
0001
1000
0100
0010
0100
1000
0001
,
0100
0010
1000
0001
0100
0010
1000
0001
1000
0100
0010
0100
1000
0001
0010
0001
,
0100
0000
0000
0001
0000
0000
1000
0000
0000
0100
0000
0000
1001
0000
0000
0000
0000
0000
0000
0000
1000
0000
0000
0000
0000
0000
0000
0000
0000
0000
0001
0000
0000
0100
0000
0000
1001
0000
0000
0000
0000
0000
0000
0000
0000
0000
0000
0000
,
0000
0010
0000
0100
0000
1000
0000
0000
0000
0001
0000
1000
0000
0100
0000
0000
0000
0010
0000
0001
0000
0100
0000
0010
,
0000
0001
0000
1000
0000
0010
0000
0100
0000
0001
0000
0000
0000
0000
0100
0000
0010
0000
1001
0000
0000
0000
0000
0000
,
0000
0000
0000
0000
0000
0000
0000
0000
0000
0000
0000
0000
1000
0000
0001
0000
1000
0000
0001
0000
1000
0000
0001
0000
1000
0000
0000
0000
0000
0000
0000
0000
0000
0000
0000
0000
0001
0000
0000
0010
0000
0000
0001
0000
0000
0100
0000
0000
,
0010
1000
0001
0100
1001
0000
0000
0000
0000
0000
0000
0000
0110
0000
1100
1001
,
0101
0000
1000
0100
0010
0001
0100
1100
0000
0001
1000
0100
0010
1001
0000
1000
,
0001
0100
0010
0001
1100
0010
0000
0010
1001
0000
0001
0000
1100
0000
0001
0000
,
0100
0010
1001
0100
0010
0001
1100
0001
,
0100
0000
0010
1000
0101
0000
0010
0001
1000
0000
0100
0010
1001
0000
0100
1000
,
0001
0000
0001
0010
1100
0000
0010
0001
0100
0000
0001
0100
1010
0000
0001
1000
,
0010
0000
1000
0100
0011
0000
0100
1000
0020
0000
0000
0000
0000
0000
0030
0000
,
0110
0000
0110
0000
1010
0100
0000
0010
1001
0000
0100
1001
0000
0000
0010
0000
,
0001
1000
1000
0001
0100
0010
1000
0100
0001
0100
0010
0001
0010
1000
0010
0100
,
1000
0010
0100
1000
0100
0001
0010
1000
0010
0001
1000
0020
0000
0000
0100
0000
,
1000
0000
0001
0000
0100
0000
0001
0000
1000
0000
0100
0000
0031
0000
0100
1000
,
0001
0000
0001
1000
0000
1000
0100
0000
0100
0010
0000
0010
0001
0000
0001
0100
,
0000
0100
1000
0000
1000
0100
0000
0100
0010
0000
0010
2000
0000
0000
0000
3000
,
1001
0001
0100
1010
0100
0001
1100
0010
,
0001
0110
1100
1001
0100
0010
0101
1000
,
0010
0000
0101
0000
1000
0000
0001
0000
1100
0000
0110
0000
0011
0000
1000
0101
,
0010
1000
0101
0000
0000
1010
0100
0001
1010
0000
0000
1001
0100
0010
1001
0001
,
1010
0000
0000
1100
0000
0000
1000
0000
0001
0000
1000
0000
0001
0000
0100
0000
0010
0000
1000
0000
0100
0000
0010
0000
0100
0000
1000
0000
0001
0000
0100
0000
1000
0000
0100
0000
0001
0000
0010
0000
0100
0000
0010
0000
1000
0000
0001
0000
,
0100
0000
0000
0000
0000
0000
0000
0000
1000
0000
0000
0000
0000
0000
0000
0000
0010
0000
0000
0000
0000
0000
0000
0000
0100
0000
0000
0000
0000
0000
0000
0000
0001
0000
0000
0000
0000
0000
0000
0000
1000
0000
0000
0000
0000
0000
0000
0000
0001
0000
0000
0000
0000
0000
0000
0000
0100
0000
0000
0000
0000
0000
0000
0000
0010
0000
0000
0000
0000
0000
0000
0000
1000
0000
0000
0000
0000
0000
0000
0000
0000
0000
0000
0000
0001
0000
0000
0000
0000
0000
1000
0000
0000
0000
0000
0000
0110
0000
0000
0000
0000
0000
0000
0000
0000
0000
0000
0000
0000
0000
0000
0000
0000
0000
0000
0000
0000
0000
0000
0000
2020
0000
0000
0000
0000
0000
0000
0000
0000
0000
0000
0000
0000
0000
0000
0000
0000
0000
0000
0000
0000
0000
0000
0000
3030
0000
0000
0000
0000
0000
0000
0000
0000
0000
0000
0000
0202
0000
0000
0000
0000
0000
0000
0000
0000
0000
0000
0000
0000
0000
0000
0000
0000
0000
0000
0000
0000
0000
0000
0000
0303
0000
0000
0000
0000
0000
0000
0000
0000
0000
0000
0000
,
2020
0000
0000
3030
0001
0000
1000
0000
0001
1000
0100
0010
0101
0000
0001
1100
,
0000
1000
0101
0000
0100
1001
0000
0010
1001
0000
0100
1010
0000
0001
1100
0000
,
0101
0000
0000
0000
0000
0000
1010
0000
0000
0000
0000
0000
1001
0000
0000
0100
0000
0000
0000
0000
0000
0101
0000
0000
0000
0000
0000
1010
0000
0000
0000
0000
1100
0000
0000
0000
0101
0000
0000
0000
0000
0000
0000
0000
0001
0000
0000
0000
,
0000
0100
0010
0001
0000
0010
1000
0100
0000
0010
0001
1000
,
0001
0000
0000
1000
0010
0100
0001
1000
0010
0100
0001
1000
0010
0100
0001
1000
0010
0100
0001
1000
0010
0100
0001
1000
,
0010
0000
0100
0000
0001
0000
1000
0000
0100
0000
0010
0000
0001
0000
0000
1000
0000
0000
0010
0000
0000
0100
0000
0000
1001
0000
0000
0000
0000
0000
1100
0000
0000
0000
0000
0000
0110
0000
0000
0000
0000
0000
0001
0000
0000
1010
0000
0000
,
0000
0110
0000
0101
0000
0010
1001
0000
0101
0000
1010
0000
0100
0011
0000
1100
,
0000
1001
0000
0010
0101
0000
1010
0000
1001
0000
0010
1100
0000
0011
0000
1010
,
0000
1000
0101
0000
0110
0000
1100
0000
0010
1001
0000
0101
0000
1010
0000
0100
,
1001
0000
1100
0000
0110
0000
0101
1020
0000
0001
0000
0100
0030
0001
1001
0000
,
1100
0000
0011
0000
0101
1020
0000
0000
0000
0100
0000
0130
0001
0010
0100
0010
,
0000
0001
0100
1000
0100
0001
0000
1000
0101
1000
0001
1100
0001
1000
0100
0011
,
0011
1100
1010
0110
1001
0000
0000
0000
1100
0000
0000
0000
0110
0000
0010
0000
,
0001
1100
0000
0011
0000
0110
0010
1000
,
0101
0000
1100
0000
0110
1000
0100
0011
,
0000
0000
0000
1100
0000
0000
0000
0000
0000
1001
0000
0000
0100
0000
0000
0001
0000
0000
1010
0000
0001
0000
0100
0000
,
0010
0000
1000
0000
0100
0000
1001
0000
0000
0000
0000
0000
0100
0000
0000
1010
0000
0000
0000
0000
0000
0101
0000
0000
,
0000
1001
0001
0100
1010
0000
0101
0000
,
1001
0010
0100
1001
0000
0110
0000
1100
,
0000
0000
0000
0110
0000
0000
0000
0000
1100
0000
0000
0000
0000
0000
0101
0000
0000
0000
0000
0000
0000
0000
0110
0000
,
0000
0000
1001
0000
0000
0000
0011
0000
0000
1100
0000
0000
,
0000
1001
0010
0001
0100
0001
1000
0110
,
0000
0000
0000
0000
,
0220
0000
0000
0000
,
0000
0000
0000
0000
0000
0000
0000
0000
0000
0000
0330
0000
1000
0001
0100
0000
0000
0000
0000
0000
0000
0000
0000
0000
0000
0000
0000
0000
0000
0000
0000
0000
0000
0000
0000
0000
0000
0000
0000
0000
0000
0000
0000
0000
0000
0000
0000
0000
;
