#TITLE:Land of Immortals;
#SUBTITLE:;
#ARTIST:Rhapsody;
#TITLETRANSLIT:;
#SUBTITLETRANSLIT:;
#ARTISTTRANSLIT:;
#CREDIT:Arvin;
#BANNER:../bn-Rhapsody.png;
#BACKGROUND:../Rhapsody-bg.png;
#LYRICSPATH:;
#CDTITLE:;
#MUSIC:07 - Land Of Immortals.ogg;
#OFFSET:0.081;
#SAMPLESTART:37.500;
#SAMPLELENGTH:10.000;
#SELECTABLE:YES;
#DISPLAYBPM:185.000;
#BPMS:0.000=185.000,589.000=92.500,651.000=46.250,652.000=185.000;
#STOPS:;
#BGCHANGES:;
// cache tags:
#FIRSTBEAT:0.500;
#LASTBEAT:824.000;
#SONGFILENAME:Songs/Rhapsody of Fire/Land of Immortals - [Arvin]/immortals.sm;
#HASMUSIC:1;
#HASBANNER:1;
#MUSICLENGTH:294.400;
// end cache tags

//---------------dance-single - Blank----------------
#NOTES:
     dance-single:
     Blank:
     Challenge:
     13:
     0.935,1.000,0.200,0.622,0.832,1684.000,59.000,183.000,41.000,0.000:

0000
0000
1010
0000
2MM2
0000
0000
0000
3003
0000
1000
0100
0010
0000
0001
0000
,
0100
0000
0101
0000
2MM2
0000
0000
0000
3003
0000
0001
0010
0100
0000
1000
0000
,
0001
0000
0011
0000
2MM2
0000
0000
0000
3003
0000
1000
0100
0010
0000
0001
0000
,
1000
0000
1010
0000
0010
0100
0002
0000
0003
0000
1001
0000
0001
0010
0200
0000
,
0300
0000
1100
0000
2MM2
0000
0000
0000
3003
0000
0001
0100
0010
0000
1000
0000
,
0001
0000
0101
0000
2MM2
0000
0000
0000
3003
0000
1000
0010
0100
0000
0001
0000
,
1000
0000
1100
0000
0100
0010
0001
0000
1000
0000
0010
0000
0100
0001
1000
0000
,
0100
1100
2MM2
0000
3003
1010
2MM2
0000
,
3003
0000
0001
0000
2000
0000
0000
0000
0000
0000
3001
0010
0100
0000
1000
0000
,
0001
0000
0100
0000
0020
0000
0000
0000
0000
0000
1030
0001
0100
0000
0001
0000
,
0100
0000
0010
0000
2000
0000
0000
0000
0000
0000
3010
0100
0001
0000
1000
0000
,
0100
0000
0010
0000
0001
0010
0002
0000
0000
0000
0013
0000
0100
1000
0200
0000
,
0000
0000
1300
0000
0002
0000
0000
0000
0000
0000
1003
0100
0010
0000
0001
0000
,
1000
0000
0010
0000
0200
0000
0000
0000
0000
0000
0301
1000
0010
0000
1000
0000
,
0010
0000
0100
0000
0001
1000
0002
0000
0000
0000
0103
0000
0001
1000
0002
0000
,
0000
0000
1003
0000
0200
0000
0000
0000
0000
0000
0310
0001
2000
0000
0000
0000
,
0000
0000
3002
0000
0000
0000
0000
1003
,
0100
0010
0002
0000
0000
0000
0000
0103
,
0010
0100
0001
1000
0100
0010
0001
0010
,
0100
1000
0001
0100
0001
1000
0010
1000
,
0001
0100
0010
1000
0001
0010
0100
1000
,
0001
0100
0010
1000
0100
0010
0001
0100
,
0010
1000
0001
0010
0001
1000
0100
0010
,
0001
1000
0100
1000
0010
0100
0002
0000
,
0000
0003
1000
0100
0010
0100
1000
0001
,
0010
0100
2000
0000
0000
3010
0200
0000
,
0000
0000
0000
0000
0301
0010
0100
1000
0010
0100
0001
0010
0100
1000
0001
0100
,
0001
1000
0100
0010
0001
0100
0010
1000
0100
0010
0001
1000
0010
1000
0001
0100
,
0001
1000
0010
0100
0001
0100
0010
1000
0100
0010
0001
0010
0100
1000
0001
0100
,
0001
1000
0010
0100
0001
0100
0010
1000
0100
0010
0001
0010
0100
1000
0001
0010
,
0100
1000
0001
1000
0010
0100
0010
1000
0100
0010
0100
1000
0001
0010
0100
0010
,
0001
1000
0100
0010
0001
0100
0001
1000
0010
1000
0001
0100
0010
1000
0001
1000
,
0010
0100
0001
0000
1000
0000
0010
0000
0100
0000
0001
0000
0100
0000
0010
0000
,
1000
0001
1001
1000
1010
0110
0100
0110
,
0000
0000
0020
0000
1030
0100
0010
0001
0100
0010
1000
0100
0010
0001
1000
0010
,
1000
0001
0010
0100
1000
0010
0100
0001
0010
0100
1000
0001
0100
0001
1000
0010
,
1000
0001
0100
0010
1000
0010
0100
0001
0010
0100
1000
0100
0010
0001
1000
0010
,
1000
0001
0100
0010
1000
0010
0100
0001
0010
0100
1000
0100
0010
0001
1000
0100
,
0010
0001
1000
0001
0100
0010
0100
0001
0010
0100
0010
0001
1000
0100
0010
0100
,
1000
0001
0010
0100
1000
0010
1000
0001
0100
0001
1000
0010
0100
0001
1000
0001
,
0100
0010
1000
0000
0001
0000
0010
0000
0100
0000
1000
0000
0001
0000
0100
0000
,
0001
1000
1001
0001
0101
0100
0110
0010
,
0110
0100
0002
0000
0000
0003
1000
0000
,
0100
0020
0000
0032
,
0000
2003
0000
3020
,
0230
0000
0302
0000
0000
2003
0000
0000
,
0000
3000
0000
0000
0001
0000
0010
0000
,
0100
1000
0010
0100
,
0001
0000
1000
1000
0100
0100
0010
0010
,
0001
0001
1000
1000
0010
0010
0100
0100
,
0001
0001
2000
0000
0000
3000
0001
0000
,
0010
0200
0000
2300
,
0000
3002
0000
0203
,
0320
0000
2030
0000
3001
0200
0000
0000
,
0000
0300
0001
0010
,
0100
1000
0010
0100
,
0001
0000
1000
1000
0100
0100
0010
0010
,
0001
0001
1000
1000
0010
0010
0100
0100
,
0001
0001
2000
0000
0000
0000
0000
3001
,
0010
0100
2000
0000
0000
0000
0000
3010
,
0100
0010
1000
0001
0010
0100
1000
0100
,
0010
0001
1000
0010
1000
0001
0100
0001
,
1000
0010
0100
0001
1000
0100
0010
0001
,
1000
0010
0100
0001
0010
0100
1000
0010
,
0100
0001
1000
0100
1000
0001
0010
0100
,
1000
0001
0010
0001
0100
0010
2000
0000
,
0000
3000
0001
0010
0100
0010
0001
1000
,
0100
0010
0002
0000
0000
0103
0020
0000
,
0000
0000
0000
0000
1030
0100
0010
0001
0100
0010
1000
0100
0010
0001
1000
0010
,
1000
0001
0010
0100
1000
0010
0100
0001
0010
0100
1000
0001
0100
0001
1000
0010
,
1000
0001
0100
0010
1000
0010
0100
0001
0010
0100
1000
0100
0010
0001
1000
0010
,
1000
0001
0100
0010
1000
0010
0100
0001
0010
0100
1000
0100
0010
0001
1000
0100
,
0010
0001
1000
0001
0100
0010
0100
0001
0010
0100
0010
0001
1000
0100
0010
0100
,
1000
0001
0010
0100
1000
0010
1000
0001
0100
0001
1000
0010
0100
0001
1000
0001
,
0100
0010
1000
0000
0001
0000
0100
0000
0010
0000
1000
0000
0010
0000
0100
0000
,
0001
1000
1001
0001
0101
0110
0010
0110
,
0000
0000
0200
0000
0301
0010
0100
1000
0010
0100
0001
0010
0100
1000
0001
0100
,
0001
1000
0100
0010
0001
0100
0010
1000
0100
0010
0001
1000
0010
1000
0001
0100
,
0001
1000
0010
0100
0001
0100
0010
1000
0100
0010
0001
0010
0100
1000
0001
0100
,
0001
1000
0010
0100
0001
0100
0010
1000
0100
0010
0001
0010
0100
1000
0001
0010
,
0100
1000
0001
1000
0010
0100
0010
1000
0100
0010
0100
1000
0001
0010
0100
0010
,
0001
1000
0100
0010
0001
0100
0001
1000
0010
1000
0001
0100
0010
1000
0001
1000
,
0010
0100
0001
0000
1000
0000
0100
0000
0010
0000
0001
0000
1000
0000
0010
0000
,
1000
0001
1001
1000
1010
0010
0110
0100
,
0110
0010
2000
0000
0000
3000
0001
0000
,
0010
0200
0000
2300
,
0000
3002
0000
0203
,
0320
0000
2030
0000
0000
3002
0000
0000
,
0000
0003
0000
0000
1000
0000
0100
0000
,
0010
0001
0100
0010
,
1000
0000
0001
0001
0010
0010
0100
0100
,
1000
1000
0001
0001
0100
0100
0010
0010
,
1000
1000
0002
0000
0000
0003
1000
0000
,
0100
0020
0000
0032
,
0000
0003
0000
0000
2000
0000
3020
0000
,
0230
0000
0302
0000
1003
0020
0000
0000
,
0000
0030
1000
0100
,
0010
0001
0100
0010
,
1000
0000
0001
0001
0010
0010
0100
0100
,
1000
1000
0001
0001
0100
0100
0010
0010
,
1000
0000
1010
0000
2MM2
0000
0000
0000
3003
0000
1000
0100
0010
0000
0001
0000
,
0100
0000
0101
0000
2MM2
0000
0000
0000
3003
0000
0001
0010
0100
0000
1000
0000
,
0001
0000
0011
0000
2MM2
0000
0000
0000
3003
0000
1000
0100
0010
0000
0001
0000
,
1000
0000
1010
0000
0010
0100
0002
0000
0003
0000
1001
0000
0001
0010
0100
0000
,
0000
0000
1100
0000
2MM2
0000
0000
0000
3003
0000
0001
0100
0010
0000
1000
0000
,
0001
0000
0101
0000
2MM2
0000
0000
0000
3003
0000
1000
0010
0100
0000
0001
0000
,
1000
0000
1100
0000
0100
0010
0001
0000
1000
0000
0010
0000
0100
0001
1000
0000
,
0100
1100
2MM2
0000
3003
1010
2MM2
0000
,
3003
0000
1000
0000
0002
0000
0000
0000
0000
0000
1003
0100
0010
0000
0001
0000
,
1000
0000
0010
0000
0200
0000
0000
0000
0000
0000
0301
1000
0010
0000
1000
0000
,
0010
0000
0100
0000
0002
0000
0000
0000
0000
0000
0103
0010
1000
0000
0001
0000
,
0010
0000
0100
0000
1000
0100
2000
0000
0000
0000
3100
0000
0010
0001
0020
0000
,
0000
0000
0031
0000
2000
0000
0000
0000
0000
0000
3001
0010
0100
0000
1000
0000
,
0001
0000
0100
0000
0020
0000
0000
0000
0000
0000
1030
0001
0100
0000
0001
0000
,
0100
0000
0010
0000
1000
0001
2000
0000
0000
0000
3010
0000
1000
0001
2000
0000
,
0000
0000
3001
0000
0020
0000
0000
0000
0000
0000
0130
1000
0002
0000
0000
0000
,
0000
0000
0000
0000
0000
0000
0000
0000
0000
0000
0000
0000
0000
0000
0000
0003
0000
0000
1001
0000
0000
1000
0010
0100
,
0001
0000
1000
0000
0001
0000
0100
0000
0020
0000
0000
0030
2000
0000
0000
0000
,
3001
0000
0010
0000
0200
0000
0000
0000
0000
0000
1300
0100
0010
0000
0001
0100
,
0010
0000
1000
0000
0010
0000
0100
0000
0001
0000
1000
0100
0010
0000
0001
0000
,
1000
0000
0010
0000
0100
0001
0200
0000
0000
0000
0300
0000
0010
0000
1000
0000
,
0010
0100
0001
0100
0010
1000
0100
0010
,
0100
1000
0001
0010
0100
1000
0001
0010
,
0100
0010
0001
1000
0100
0010
0001
1000
,
0010
1000
1MM1
0000
M1M1
0000
MM11
0000
,
0000
0000
0001
1000
0020
0000
0130
0001
0100
0000
0010
0000
1000
0000
0002
0000
,
0000
0000
1003
0000
0001
0000
1000
0010
0100
0000
0001
0000
2000
0000
0000
0000
,
3000
0000
0001
0100
0010
0000
2000
0000
0000
0000
3001
0000
0010
0100
0010
0100
,
1000
0001
1000
0010
1000
0010
1000
0001
0100
0010
1000
0010
4000
0000
0000
0000
,
3000
0000
2000
0000
0000
3010
0100
0010
,
1000
0000
0001
0000
0020
0000
0000
0000
0000
0000
0130
0000
1000
0001
0010
0100
,
2000
0000
0000
0000
3001
0000
0000
1000
0001
0000
0100
0000
0010
0000
0000
1000
,
0001
0000
0000
0000
0100
0000
0000
0010
0000
0000
1000
0000
0002
0000
0000
0000
,
0000
0000
0000
0000
1003
0100
0010
0001
0010
0100
1000
0010
0100
0001
0010
0100
,
1000
0001
1000
0001
0100
0010
1000
0001
0100
0010
0100
0001
1000
0100
0010
0001
,
0010
0100
1000
0001
0100
0010
0100
0001
1000
0100
0010
0100
1000
0001
0010
0100
,
1000
0001
0100
0010
0100
0001
1000
0100
0010
0100
1000
0001
0010
0100
1000
0001
,
1000
0010
0100
0010
1000
0100
1000
0100
0010
0001
1000
0100
1000
0100
0010
0001
,
1000
0010
0100
0001
1000
0010
1000
0010
0100
0001
1000
0010
1000
0010
0100
0001
,
1000
0100
0010
0001
1000
0010
1000
0010
0100
0001
0100
0001
1000
0100
1000
0100
,
0010
0001
0010
0001
1000
0100
1000
0100
0010
0001
1000
0100
1000
0100
0010
0001
,
1000
0100
0010
0001
1000
0000
0100
0010
0001
0010
0100
1000
0001
0000
0100
0010
,
0100
0001
1000
0100
0010
0000
0001
0010
0100
1000
0001
1000
0010
0000
0100
0001
,
0100
0010
1000
0001
0100
0000
0010
1000
0010
0100
0001
1000
0200
0000
0000
0000
,
0320
0000
0000
0000
0031
0010
0100
1000
0010
0100
0001
1000
0020
0000
0030
0000
,
0000
0000
0000
1000
0000
0100
0000
1000
0000
0100
0000
0010
,
0000
0100
0000
0010
0000
0001
0000
0010
0000
0002
0000
0000
,
0000
2MM3
3200
0000
,
0310
0001
2000
0000
3020
0000
0000
0000
,
0030
0200
0302
0023
,
0000
0230
2300
0000
0000
0000
3000
0000
,
0002
0203
0320
0000
0000
0000
2030
0000
,
3000
0002
0023
0000
0230
0000
0300
2000
,
3002
0203
0320
0000
2030
0000
3002
0000
,
2003
3200
0000
0300
,
0000
2000
3200
0000
,
0310
0001
2000
0000
0000
0000
0000
0000
,
3000
0020
2030
3200
,
0000
0320
0032
0000
0000
0000
0203
0000
,
0302
0003
0200
0000
0320
0000
2030
0000
,
3002
0023
0230
2300
,
3002
0000
0000
0000
0203
0000
0000
0000
0300
0000
0002
0000
2003
0000
3000
0200
,
0000
0320
M032
0000
0M00
0000
00M0
0M00
,
10M3
0100
0010
0001
0010
0100
1000
0010
0100
0001
0010
0100
1000
0010
0100
0001
,
2000
0000
0000
0000
3001
0010
0001
1000
0001
0100
0001
0010
0001
1000
0001
0010
,
0100
0000
0000
1000
0000
0000
0001
0000
0000
1000
0000
0000
0010
0000
0000
0100
0000
0000
0001
0000
0000
0100
0000
0000
0010
0000
0000
0000
1000
0000
0000
0000
0001
0000
0000
0000
1000
0000
0000
0000
0001
0000
0000
0000
0100
0000
0000
0000
,
0001
1000
0010
0100
0001
0010
0100
1000
0001
0100
0010
1000
,
0001
0000
0010
0001
1000
0000
0001
0000
1000
0010
1000
0001
0100
0010
1000
0000
,
0100
0010
0001
0000
0100
0010
1000
0000
0001
0100
0010
0000
1000
0100
0010
0000
,
0001
0010
0001
0100
0001
0010
0100
1000
0010
0100
0010
1000
0010
0100
0001
1000
,
0100
0010
0100
0010
0001
1000
0010
1000
0010
0100
0001
1000
0100
0010
0001
1000
,
0001
0010
0100
1000
0100
0010
0001
1000
0001
0100
0001
0010
,
0100
0000
0000
1000
0000
0000
0001
0000
0000
0100
0000
0000
0010
0000
0000
0000
1000
0000
0000
0000
0010
0000
0000
0000
0200
0000
0000
0000
0000
0000
0000
0000
0000
0000
0000
0000
0000
0000
0000
0000
0000
0000
0000
0000
0000
0000
0000
0000
,
0301
0000
0000
0000
0100
0000
0000
0000
0010
0000
0000
0000
1000
0000
0000
0000
0001
0000
0000
0000
1000
0000
0000
0000
0010
0000
0000
1000
0000
0000
0100
0000
0000
0010
0000
0000
0001
0000
0000
1000
0000
0000
0001
0000
0000
0100
0000
0000
,
0001
1000
0010
1000
0001
0100
0010
0100
0001
1000
0100
1000
0001
0010
0001
1000
,
0010
0100
0010
1000
0100
0010
0001
0010
0100
1000
0010
0100
,
0001
0000
0000
0000
0100
0000
0000
0000
0010
0000
0000
0000
1000
0000
0000
0000
0010
0000
0000
0000
0100
0000
0000
0000
0001
0000
0000
1000
0000
0000
0100
0000
0000
0010
0000
0000
0001
0000
0000
1000
0000
0000
0010
0000
0000
1000
0000
0000
,
0001
0010
0001
1000
0001
0010
0001
1000
0001
0100
0010
0100
0001
0100
0010
0100
,
0001
1000
0010
1000
0001
1000
0010
1000
0100
0010
0100
1000
0100
0010
0100
1000
,
0002
0000
0000
0003
1000
0000
0100
0000
,
0020
0000
0032
0000
,
2003
0000
3020
0230
,
0302
0000
0000
2003
0000
0000
0000
3000
,
0000
0001
0010
0100
,
1000
0010
0100
0001
,
1000
1000
0100
0100
0010
0010
0001
0001
,
1000
1000
0010
0010
0100
0100
0001
0001
,
2000
0000
0000
3000
0001
0000
0010
0000
,
0200
0000
2300
0000
,
3002
0000
0203
0320
,
2030
0000
3001
0200
0000
0000
0000
0000
,
0300
0001
0010
0100
,
1000
0010
0100
0001
,
1000
1000
0100
0100
0010
0010
0001
0001
,
1000
1000
0010
0010
0100
0100
0001
0001
,
2000
0000
0000
0000
0000
3100
0010
0001
,
2000
0000
0000
0000
0000
3010
0100
0010
,
1000
0001
0010
0100
1000
0001
0100
0001
,
1001
1000
0100
0110
0010
0001
1001
1000
,
0001
0010
0100
1000
0010
0100
0001
0010
0100
1000
0100
0010
0001
0100
0010
1000
,
0100
0010
0001
1000
0001
1000
0010
0100
0001
1000
0001
1000
0010
0100
0001
0010
,
0100
1000
0100
0010
0001
1000
0010
1000
0001
0100
0001
1000
0010
0100
0010
1000
,
0100
1000
0001
0010
0100
1000
0100
0010
0001
0100
0010
0100
0001
0010
0100
1000
,
0001
1000
0010
1010
1000
0010
0110
0100
,
0002
0000
0000
1003
0200
0000
0000
0000
,
0000
0000
0000
0000
0000
0000
0000
0000
0000
0000
0000
0000
0000
0000
0000
0000
0000
0000
0000
0000
0000
0000
0000
0000
1300
0000
0000
0100
0000
0000
0010
0000
0000
0001
0000
0000
0010
0000
0100
0000
1000
0000
0001
0000
0000
0100
0000
0000
,
0010
0000
0000
0000
;
