#TITLE:Reload;
#SUBTITLE:;
#ARTIST:Rob Zombie;
#TITLETRANSLIT:;
#SUBTITLETRANSLIT:;
#ARTISTTRANSLIT:;
#CREDIT:Arch0wl;
#BANNER:reload-bn.png;
#BACKGROUND:reload-bg.png;
#LYRICSPATH:;
#CDTITLE:!Arch0wlTitle.png;
#MUSIC:reload.ogg;
#OFFSET:0.011;
#SAMPLESTART:70.273;
#SAMPLELENGTH:27.433;
#SELECTABLE:YES;
#BPMS:0.000=140.000;
#STOPS:;
#BGCHANGES:0.000=reload.avi=1.000=1=1=0,
272.000=reload-bg.png=1.000=0=0=1,
99999=-nosongbg-=1.000=0=0=0 // don't automatically add -songbackground-
;
// cache tags:
#FIRSTBEAT:33.000;
#LASTBEAT:272.000;
#SONGFILENAME:Songs/Archmage and Dark0wl Hammer of Thor UltraHyperMegaPack/Reload/reload.sm;
#HASMUSIC:1;
#HASBANNER:1;
#MUSICLENGTH:105.000;
// end cache tags

//---------------dance-single - Arch0wl----------------
#NOTES:
     dance-single:
     Arch0wl:
     Hard:
     12:
     0.940,1.000,0.952,0.248,0.810,530.000,100.000,26.000,0.000,48.000:
0000
0000
0000
0000
,
0000
0000
0000
0000
,
0000
0000
0000
0000
,
0000
0000
0000
0000
,
0000
0000
0000
0000
,
0000
0000
0000
0000
,
0000
0000
0000
0000
,
0000
0000
0000
0000
,
0000
0000
0002
0000
0020
0000
0200
0333
,
1011
0000
0000
1101
0000
0000
0000
0000
,
1110
0000
0000
0111
0000
0000
1011
0000
,
1110
0000
0000
1101
0000
0000
0000
0000
,
1011
0000
0000
0111
0000
0000
1110
0000
,
1101
0000
0000
1011
0000
0000
0000
0000
,
1110
0000
0000
0111
0000
0000
1011
0000
,
1110
0000
0000
1101
0000
0000
0000
0000
,
0111
0000
0000
1101
0000
0000
1110
0000
,
1000
0000
0100
0000
1000
0000
0100
0010
0000
0010
0100
0000
1000
0010
1000
0010
,
0100
0000
0001
0000
0100
0000
0010
1000
0000
1000
0010
0000
0100
0001
0100
0001
,
1000
0000
0010
0000
1000
0000
0001
0010
0000
0010
0001
0000
0100
0010
0100
0010
,
1000
0000
0001
0000
1000
0000
0100
0010
0000
0010
0100
0000
1000
0010
1000
0010
,
0100
0000
0001
0000
0100
0000
0010
1000
0000
1000
0010
0000
0100
0001
0100
0001
,
0010
0000
0100
0000
0010
0000
0001
1000
0000
1000
0001
0000
0100
0010
0100
0010
,
1000
0000
0100
0000
1000
0000
0001
0100
0000
0100
0001
0000
0010
0100
0010
0100
,
1000
0000
0100
0000
1000
0000
0001
0100
0001
0100
0010
0000
0010
0000
0010
0100
,
1010
0000
0100
0000
0010
0000
1000
0100
0000
0100
1000
0000
0001
0100
0010
1000
,
0100
0000
0001
0000
0100
0000
0010
0001
0000
0001
0010
0000
0100
1000
0001
0100
,
0010
0000
0001
0000
0010
0000
1000
0100
0000
0100
1000
0000
0010
0100
0001
0010
,
0100
0000
0001
0000
0100
0000
1000
0010
0000
0010
1000
0000
0001
0100
0010
1000
,
0100
0000
0001
0000
0100
0000
1000
0010
0000
0010
1000
0000
0001
0010
0100
1000
,
0010
0000
0001
0000
0010
0000
1000
0001
0000
0001
1000
0000
0010
0100
0001
1000
,
0100
0000
0001
0000
0100
0000
1000
0010
0000
0010
1000
0000
0001
0010
0100
1000
,
0100
0000
0001
0000
0100
0000
0010
0100
1001
0000
0000
0000
0000
0000
0000
0000
,
1100
0110
0011
0110
1100
1010
0110
0101
,
1100
0110
0011
0110
0011
0220
0000
0000
,
1331
0101
1001
0101
1001
1010
1001
1010
,
0110
0101
0110
0101
1100
0110
0011
0000
,
1010
0110
0101
1010
0110
0101
0110
0011
,
1010
0011
1010
1100
0101
1100
0110
0000
,
1100
0110
1100
0110
0011
0110
0011
1100
,
1100
0110
0110
0011
0011
1001
1001
0000
,
2201
3310
0000
1101
0000
0000
0000
0000
,
0122
1033
0000
0111
0000
0000
0000
0000
,
2201
3310
0000
1101
0000
0000
0000
0000
,
2210
3301
0000
1010
0000
1010
0000
0000
,
2201
3310
0000
1101
0000
0000
0000
0000
,
0122
1033
0000
0111
0000
0000
0000
0000
,
2201
3310
0000
1101
0000
0000
0000
0000
,
2210
3301
0000
1010
0000
1010
0000
0000
,
0010
0000
0001
0000
0010
0000
1000
0100
0000
0100
0001
0000
0100
1000
0010
0001
,
1000
0000
0001
0000
1000
0000
0100
0010
0000
0010
0001
0000
0010
1000
0100
0001
,
1000
0000
0001
0000
1000
0000
0010
0100
0000
0100
0001
0000
0100
1000
0001
0100
,
1000
0000
0001
0000
1000
0000
0100
0010
0000
0010
0001
0000
0001
0010
1000
0100
,
0001
0000
1000
0000
0001
0000
0100
0010
0000
0010
1000
0000
0010
0001
0100
0010
,
0001
0000
1000
0000
0001
0000
0010
0001
0000
0001
0100
0000
0001
0010
1000
0100
,
0010
0000
1000
0000
0010
0000
0001
0100
0000
0100
1000
0000
0100
0010
1000
0100
,
0001
0000
1000
0000
0001
0000
0100
0000
1000
0010
1000
0010
1000
0010
1000
0010
,
1000
0100
0001
0100
1000
0010
0100
0001
1000
0001
0010
0100
0001
0100
1000
0010
,
0100
1000
0001
1000
0100
0010
0001
0010
1000
0100
0001
0100
1000
0100
0010
1000
,
0001
1000
0010
0100
0001
0100
0010
0001
0100
0001
0010
0100
0001
0100
0010
0001
,
0100
0001
0010
0001
0100
0010
0001
0010
0100
0010
0001
1000
0001
0010
0100
1000
,
0001
1000
0100
1000
0001
0010
0100
0001
0010
1000
0010
0001
1000
0010
0001
1000
,
0100
0001
0100
0010
1000
0100
1000
0010
0001
0010
0100
0001
0010
1000
0001
0100
,
0001
1000
0010
0001
1000
0100
0001
0100
1000
0001
0100
0010
0001
0010
0100
0001
,
1000
0010
0001
0100
0001
0010
1000
0100
1000
0001
0010
0100
0001
0100
1000
0010
,
0100
0001
0010
0100
0001
0100
0010
1000
0001
1000
0010
0001
0010
0100
1000
0010
,
0001
0010
0100
0001
1000
0100
0001
0100
1000
0010
0100
0001
2000
0000
0000
0000
,
0020
0000
0200
0000
3032
0000
0020
0333
,
1101
0000
0000
0000
;
