#TITLE:Set the World on Fire;
#SUBTITLE:Paradise Lost (2007);
#ARTIST:Symphony X;
#TITLETRANSLIT:;
#SUBTITLETRANSLIT:;
#ARTISTTRANSLIT:;
#CREDIT:SulferDragon;
#BANNER:Set the World on Fire-banner.png;
#BACKGROUND:Set the World on Fire-bg.png;
#LYRICSPATH:;
#CDTITLE:!SulferDragon.png;
#MUSIC:Set the World on Fire.mp3;
#OFFSET:0.104;
#SAMPLESTART:166.314;
#SAMPLELENGTH:13.700;
#SELECTABLE:YES;
#BPMS:0.000=168.000;
#STOPS:;
#BGCHANGES:;
// cache tags:
#FIRSTBEAT:28.000;
#LASTBEAT:920.000;
#SONGFILENAME:Songs/KBU/Set the World on Fire (SulferDragon)/Set the World on Fire.sm;
#HASMUSIC:1;
#HASBANNER:1;
#MUSICLENGTH:339.931;
// end cache tags

//---------------dance-single - ----------------
#NOTES:
     dance-single:
     :
     Hard:
     14:
     1.000,1.000,1.000,0.662,1.000,2614.000,556.000,225.000,0.000,25.000:
0000
0000
0000
0000
,
0000
0000
0000
0000
,
0000
0000
0000
0000
,
0000
0000
0000
0000
,
0000
0000
0000
0000
,
0000
0000
0000
0000
,
0000
0000
0000
0000
,
1001
0010
0100
0001
0000
0010
0000
0001
,
0000
0010
0100
0000
0010
0100
1000
0010
,
1001
1000
1000
1010
0010
0110
0100
0202
,
0000
0000
0000
0000
0303
0000
1000
0100
0011
0000
0100
0000
0000
0000
0000
0000
,
1001
0010
0100
0001
0000
0010
0000
0001
,
0000
0010
0100
0000
0010
0100
1000
0010
,
1001
1000
1000
1010
0010
0110
0100
0202
,
0303
0000
1000
0100
1000
0100
0010
0001
0100
1000
0100
1000
0100
0010
0100
0010
,
1001
0000
1100
0000
1000
0000
1010
0000
0010
0000
0110
0000
0100
0000
0010
0100
,
1000
0000
1000
0000
1010
0000
0010
0000
0110
0000
0101
0000
0011
0100
0010
0100
,
1001
1100
1000
1010
0010
0110
0100
0020
,
0100
0000
2030
0000
3100
0000
1000
0000
0010
0100
1000
0000
1000
0100
1000
0100
,
1001
0000
1100
0000
1000
0000
1010
0000
0010
0000
0110
0000
0100
0000
0010
0100
,
1000
0000
1000
0000
1010
0000
0010
0000
0110
0000
0101
0000
0011
0100
0010
0100
,
1001
1100
1000
1010
0010
0110
0100
0020
,
0100
0000
2030
0000
3100
0000
1000
0000
0010
0100
1000
0000
1000
0100
1000
0100
,
1020
0130
0010
0010
0201
0320
1030
0201
,
1300
0101
0100
2000
3011
0200
0321
1030
,
0100
0100
1020
0032
0103
0012
1003
0101
,
0100
0000
0000
0000
0000
0000
0100
0000
0000
0000
0000
0000
1010
0001
0000
0000
0000
0000
1000
0000
0000
0000
0000
0000
0011
0000
0000
0000
0000
0000
0110
0000
0000
0000
0000
0000
1020
0000
0000
0000
0000
0000
0130
0000
0000
0000
0000
0000
,
0010
0010
0201
0320
1030
0201
1300
0101
,
0100
2000
3011
0200
0321
1030
0100
0100
,
1020
0031
0200
0312
1003
0101
1010
0101
,
0000
0011
1100
0011
0000
0001
0110
0001
,
0000
0000
0110
0000
0101
0000
0011
0000
1001
0010
0100
0001
0010
0100
0010
1000
,
0001
0010
0001
0100
0010
1000
0001
0010
0001
0100
0010
1000
0001
0010
0001
0100
,
0021
0000
0000
0000
,
1031
0110
1001
0110
0000
0000
1001
0110
1001
0110
0000
0000
1001
0110
1001
0110
,
0000
0000
1001
0110
1001
0110
0001
0100
0011
0100
0011
0100
0011
0100
0011
0100
,
1001
0110
1001
0110
0000
0000
1001
0110
1001
0110
0000
0000
1001
0110
1001
0110
,
0000
0000
1001
0110
1001
0110
0001
0100
0011
0100
0011
0100
0011
0100
0011
0100
,
1001
0110
1001
0110
0001
0100
1001
0110
1001
0110
0001
0100
1001
0110
1001
0110
,
0001
0100
1001
0110
1001
0110
0001
0100
0001
0010
0001
0010
0001
0010
0001
0010
,
1001
0110
1001
0110
0000
0000
0010
0100
0010
0100
0000
0000
0010
0100
0010
0100
,
0000
0000
0010
0100
0010
0100
0001
0100
1001
0110
0001
0010
0001
0010
0001
0010
,
1100
0010
0100
0010
1100
0000
0100
0010
0100
0010
0000
0000
1100
0010
0100
0010
,
0000
0000
0100
0010
1100
0010
1000
0010
1000
0100
1000
0100
1001
0100
1000
0100
,
0010
0100
0010
0100
0011
0000
0010
0100
0010
0100
0000
0000
0011
0100
0010
0100
,
0000
0000
0010
0100
0011
0100
0001
0100
0001
0010
0001
0010
1001
0010
0001
0010
,
0100
0010
0100
0010
1100
0000
0100
0010
0100
0010
0000
0000
1100
0010
0100
0010
,
0000
0000
0100
0010
1100
0010
1000
0010
1000
0100
1000
0100
2001
0100
0010
0100
,
3021
0000
0000
1000
0100
0000
0032
0000
0000
0000
0100
0000
2003
0000
0010
0000
,
0001
0000
3200
1000
0010
0000
0001
0000
0320
0000
0001
0100
0032
0010
1000
0010
,
1103
0010
0100
0010
1100
0000
0100
0010
0100
0010
0000
0000
1100
0010
0100
0010
,
0000
0000
0100
0010
1100
0010
1000
0010
1000
0100
1000
0100
1001
0100
1000
0100
,
0010
0100
0010
0100
0011
0000
0010
0100
0010
0100
0000
0000
0011
0100
0010
0100
,
0000
0000
0010
0100
0011
0100
0001
0100
0001
0010
0001
0010
1001
0010
0001
0010
,
0100
0010
0100
0010
1100
0000
0100
0010
0100
0010
0000
0000
1100
0010
0100
0010
,
0000
0000
0100
0010
1100
0010
1000
0010
1000
0100
1000
0100
2001
0100
0010
0100
,
3021
0000
0000
1000
0100
0000
0032
0000
0000
0000
0100
0000
2003
0000
0010
0000
,
0001
0000
0000
0000
3200
0010
0001
1000
0010
0000
0000
0000
1000
0000
0001
0000
0320
0000
0001
0000
1000
0000
0100
0000
0032
0000
0100
0000
1000
0000
0100
0000
,
1013
0000
0000
0100
1001
0100
0010
1000
,
0110
0000
0000
0000
1000
0000
0010
0100
1001
0000
0100
0000
1010
0000
1010
0000
,
0101
0000
0000
0000
1000
0000
0010
0100
1001
0000
1001
0000
0110
0000
0000
0000
,
1100
0000
0000
0000
0000
0000
0001
0000
0010
0000
0001
0000
0010
0001
0100
0000
0010
0000
0100
0000
1000
0000
0100
0000
,
1020
0000
0000
0000
0000
0000
0000
0000
1000
0000
0000
0000
0000
0000
0000
0000
1000
0000
0000
0000
0000
0000
0000
0000
1000
0000
0000
0000
0000
0000
0000
0030
,
1020
0000
0000
0000
0000
0000
0000
0030
1020
0000
0000
0000
0000
0000
0000
0030
1020
0000
0000
0000
0000
0000
0000
0030
1020
0000
0000
0000
0000
0000
0000
0030
,
1020
0000
0000
0000
0000
0000
0000
0000
1000
0000
0000
0000
0000
0000
0000
0030
1001
0000
0000
0000
0100
0000
1000
0000
0001
0000
0010
0000
0001
0000
0010
0000
,
0100
0010
0100
1000
0011
1100
0011
1100
0011
1100
0010
1000
0010
1000
0010
1000
,
0011
0000
0100
0010
1100
0000
0100
0010
0101
0000
0100
0010
1200
0000
0310
0100
,
0001
0100
0010
0100
1001
0100
0010
0100
0001
0100
0010
0100
1001
0100
0010
0100
,
0012
0000
0103
0010
1100
0000
0100
0010
0101
0000
0100
0010
1200
0000
0310
0100
,
0001
0100
0010
0100
1001
0100
0010
0100
0001
0100
0010
0100
1001
0100
0010
0100
,
0012
0000
0103
0010
1100
0000
0100
0010
0101
0000
0100
0010
1200
0000
0310
0100
,
0001
0100
0010
0100
1001
0100
0010
0100
0011
0100
0010
0100
1001
0100
0010
0100
,
0012
0000
0103
0010
1100
0000
0100
0010
0101
0000
0100
0010
1200
0000
0310
0100
,
0001
0100
0010
0100
1001
0100
0010
0100
0011
1100
0011
1100
0011
1000
0010
0100
,
0012
0000
0103
0010
1100
0000
0100
0010
0101
0000
0100
0010
1200
0000
0310
0100
,
0001
0100
0010
0100
1001
0100
0010
0100
0001
0100
0010
0100
1001
0100
0010
0100
,
0012
0000
0103
0010
1100
0000
0100
0010
0101
0000
0100
0010
1200
0000
0310
0100
,
0001
0100
0010
0100
1001
0100
0010
0100
0001
0100
0010
0100
1001
0100
0010
0100
,
0012
0000
0103
0010
1100
0000
0100
0010
0101
0000
0100
0010
1200
0000
0310
0100
,
0001
0100
0010
0100
1001
0100
0010
0100
0011
0100
0010
0100
1001
0100
0010
0100
,
0012
0000
0103
0010
1100
0000
0100
0010
0100
0000
0100
0010
1100
0000
0100
0010
,
1001
0010
0100
0001
1100
0010
0100
1000
0101
0010
0100
0001
1100
0010
0100
1000
,
0110
0000
0011
0000
0001
0000
0101
0000
0100
0000
0110
0000
0010
0000
0100
0010
,
0001
0000
0001
0000
0101
0000
0100
0000
0110
0000
1010
0000
1100
0010
0100
0010
,
1001
0011
0001
0101
0100
0110
0010
0200
,
0010
0000
0302
0000
0013
0000
0001
0000
0100
0010
0100
0010
0001
0010
0001
0010
,
1001
0000
0011
0000
0001
0000
0101
0000
0100
0000
0110
0000
0010
0000
0100
0010
,
0001
0000
0001
0000
0101
0000
0100
0000
0110
0000
1010
0000
1100
0010
0100
0010
,
1001
0011
0001
0101
0100
0110
0010
0202
,
0303
1100
0010
0202
0303
1010
0100
2002
,
3003
0000
0000
0010
1001
0110
1000
0010
1001
0100
1001
0010
0100
0001
1000
0000
,
0100
0000
0010
0000
0001
0000
1000
0000
0010
0100
1001
0000
0110
0000
1001
0000
0110
0000
1001
0000
0100
0000
1000
0000
0100
0000
1000
0000
0100
0000
0010
0000
,
1001
0110
1001
0110
0000
0000
1001
0110
1001
0110
0000
0000
1001
0110
1001
0110
,
0000
0000
0000
0000
0000
0000
0100
0000
0000
0010
0000
0000
0100
0000
0000
0010
0000
0000
0000
0000
0000
0000
0000
0000
1001
0000
0000
0100
0000
0000
0001
0000
0010
0000
0100
0000
1000
0000
0000
0000
0000
0000
0000
0000
0000
0000
0000
0000
,
0000
0000
0000
0000
0000
0000
0000
0000
0011
1000
0001
1000
0011
0000
0001
1000
,
0001
1000
0000
0000
0011
1000
0001
1000
0000
0000
0001
1000
0011
1000
0010
1000
,
0010
0001
0010
0001
0110
0001
0010
0001
1000
0001
1000
0001
1100
0000
1000
0001
,
1000
0001
0000
0000
1100
0001
1000
0001
0000
0000
1000
0001
1100
0001
0100
0001
,
0100
1000
0100
1000
0110
1000
0100
1000
0001
1000
0001
1000
0011
0000
0001
1000
,
0001
1000
0000
0000
0011
1000
0001
1000
0000
0000
0001
1000
0011
1000
0010
1000
,
0010
0001
0010
0001
1020
0001
0100
0001
1230
0000
0000
0001
0010
0000
2300
0000
,
0000
0000
0010
0000
3002
0000
0100
0000
1000
0000
0023
0001
0100
0000
1000
0000
,
0230
0010
1000
0010
2300
0100
0001
0100
3011
1000
0001
1000
0011
0000
0001
1000
,
0001
1000
0000
0000
0011
1000
0001
1000
0000
0000
0001
1000
0011
1000
0010
1000
,
0010
0001
0010
0001
0110
0001
0010
0001
1000
0001
1000
0001
1100
0000
1000
0001
,
1000
0001
0000
0000
1100
0001
1000
0001
0000
0000
1000
0001
1100
0001
0100
0001
,
0100
1000
0100
1000
0110
1000
0100
1000
0001
1000
0001
1000
0011
0000
0001
1000
,
0001
1000
0000
0000
0011
1000
0001
1000
0000
0000
0001
1000
0011
1000
0010
1000
,
0010
0001
0010
0001
1020
0001
0100
0001
1230
0000
0000
0001
0010
0000
2300
0000
,
0000
0000
0010
0000
3002
0000
0100
0000
1000
0000
0023
1000
0100
1000
0100
1000
,
0230
0010
0001
0010
2300
0010
0100
0010
3101
0000
0000
0000
0000
0000
0010
0000
,
1001
0000
0010
0000
0100
0000
0001
0000
0110
0000
0000
0000
0001
0000
0100
0010
,
1001
0010
0101
0101
1010
0000
0001
0100
,
1001
0110
1001
0110
1001
0000
0000
0000
0011
0000
0000
0000
1001
0110
1000
0100
,
0010
0100
0010
0100
0010
0001
0010
0001
0210
0000
0000
0000
0010
0000
0000
0000
,
0010
0000
0000
0000
0000
0000
0000
0000
0010
0000
0000
0000
0000
0000
0000
0300
0210
0000
0000
0000
0000
0000
0000
0300
0210
0000
0000
0000
0000
0000
0000
0300
,
0210
0000
0000
0000
0000
0000
0000
0300
0210
0000
0000
0000
0000
0000
0000
0300
0101
0000
0010
0000
0100
0000
0001
0000
1000
0000
0100
0000
1000
0000
0001
0000
,
1100
0010
0100
0001
1000
0100
1000
0010
1001
0110
1001
0010
1000
0100
1000
0001
,
0100
1000
0100
0010
0002
0010
0100
0010
1103
0000
0010
0100
0011
0000
0010
0100
,
1010
0000
0010
0100
0021
0000
0130
0010
1000
0010
0100
0010
1001
0010
0100
0010
,
1000
0010
0100
0010
1001
0010
0100
0010
2100
0000
3010
0100
0011
0000
0010
0100
,
1010
0000
0010
0100
0021
0000
0130
0010
1000
0010
0100
0010
1001
0010
0100
0010
,
1000
0010
0100
0010
1001
0010
0100
0010
2100
0000
3010
0100
0011
0000
0010
0100
,
1010
0000
0010
0100
0021
0000
0130
0010
1000
0010
0100
0010
1001
0010
0100
0010
,
1100
0010
0100
0010
1001
0010
0100
0010
2100
0000
3010
0100
0011
0000
0010
0100
,
1010
0000
0010
0100
0021
0000
0130
0010
1000
0010
0100
0010
1001
0010
0100
0010
,
1100
0011
1100
0011
1100
0011
1100
0001
2100
0000
3010
0100
0011
0000
0010
0100
,
1010
0000
0010
0100
0021
0000
0130
0010
1000
0010
0100
0010
1001
0010
0100
0010
,
1000
0010
0100
0010
1001
0010
0100
0010
2100
0000
3010
0100
0011
0000
0010
0100
,
1010
0000
0010
0100
0021
0000
0130
0010
1000
0010
0100
0010
1001
0010
0100
0010
,
1000
0010
0100
0010
1001
0010
0100
0010
2100
0000
3010
0100
0011
0000
0010
0100
,
1010
0000
0010
0100
0021
0000
0130
0010
1000
0010
0100
0010
1001
0010
0100
0010
,
1100
0010
0100
0010
1001
0010
0100
0010
2100
0000
3010
0100
0011
0000
0010
0100
,
0010
0000
0000
0000
0000
0000
0010
0000
0000
0100
0000
0000
0011
0000
0000
0000
0000
0000
0010
0000
0000
0100
0000
0000
1001
0000
0010
0000
0100
0000
0010
0000
0100
0000
0001
0000
1000
0000
0100
0000
0010
0000
0100
0000
0010
0000
0001
0000
,
1000
0100
0010
0100
0010
0001
1000
0100
0010
0100
0010
0001
1200
0000
0000
0310
0000
0000
0100
0000
0000
0100
0000
0000
,
1020
0230
0301
1020
0031
1010
0010
0002
,
2103
3020
1230
0301
0010
0010
0201
2300
,
3010
0000
2100
0000
3001
0000
1010
0000
0010
0000
0010
0000
1100
0010
0001
0000
,
1100
0000
0001
1000
0201
0000
0310
0000
0100
0000
0100
0000
1020
0000
0230
0000
,
0301
1020
0031
1010
0010
0002
1103
0020
,
1230
0301
0010
0010
0201
2300
3010
2100
,
3001
0000
0000
0000
0000
0000
1010
0000
0000
0000
0000
0000
0101
1000
0000
0000
0000
0000
0010
0000
0000
0000
0000
0000
0100
0000
0000
0010
0000
0000
0001
0000
0000
0000
0000
0000
1100
0000
0000
0010
0000
0000
0100
0000
0000
0010
0000
0000
,
0201
0310
0100
0100
1020
0230
0301
1020
,
0031
1010
0010
0002
2103
3020
1230
0301
,
0010
0010
0201
2300
3010
2100
3001
1010
,
0010
0000
0010
0000
1100
0010
0001
0000
1100
0001
0100
0010
0201
0000
0310
0000
,
0100
0100
1020
0230
0301
1020
0031
1010
,
0010
0100
0002
0000
1103
0000
0020
0000
1230
0000
0301
0000
0010
0000
0010
0000
,
0201
2300
3010
2100
3001
1010
0101
0010
,
0101
0000
0010
0000
0100
0010
0100
0010
1001
0100
0010
0001
0010
0100
0001
0010
,
0001
1000
0010
0100
0010
0100
1000
0100
1000
0010
1000
0010
0001
0100
0001
0010
,
0100
1000
0001
1000
0110
0001
1010
0100
0001
0010
0001
0100
0010
0001
0010
0100
,
1000
0010
1000
0100
1000
0100
0010
0100
0010
0001
0010
1000
0100
0010
0100
0010
,
1001
0100
0010
0001
0010
0100
0001
0010
0001
1000
0010
0100
0010
0100
1000
0100
,
1000
0010
1000
0010
0100
0010
0100
0001
0010
0100
0010
1000
0101
0010
0001
0100
,
0010
0001
0110
1000
0100
0010
0100
1000
0110
0001
0010
0100
0001
0010
1001
0100
,
0010
0100
1000
0100
1010
0001
0010
0100
0011
0100
1000
0100
1001
0100
0010
0001
,
0010
0100
0001
0010
0001
1000
0010
0100
0010
0100
1000
0100
1000
0010
1000
0010
,
1001
0100
0001
0010
0100
1000
0001
1000
0010
0001
0010
0100
0001
0010
1001
0100
,
0010
0001
1010
0100
1000
0010
1000
0100
1000
0100
0010
0100
1010
0001
0010
1000
,
0101
1010
0101
1010
0101
1000
0010
0001
0010
0100
1001
0010
0001
1000
0011
0100
,
0010
0100
1000
0100
1000
0010
1000
0010
1100
0010
0100
0001
0010
0100
0010
1000
,
0210
0001
1000
0320
1000
0100
0032
0100
,
0010
0000
2003
0000
0010
0000
0001
0000
3200
0001
0010
0001
0320
0100
1000
0100
,
1032
0000
0000
0000
0000
0000
0000
0000
0000
0000
0000
0000
0000
0000
0000
0000
0000
0000
0000
0000
0000
0000
0000
0000
0000
0000
0000
0000
0000
0000
0000
0000
0000
0000
0000
0000
0000
0000
0000
0000
0000
0000
0000
0000
0000
0000
0000
0000
0000
0000
0000
0000
0000
0000
0000
0000
0000
0000
0000
0000
0000
0000
0000
0000
0000
0000
0000
0000
0000
0000
0000
0000
0000
0000
0000
0000
0000
0000
0003
0000
1000
0000
0000
0000
0000
0000
0000
0000
0010
0000
0000
0000
0000
0000
0000
0000
0000
0000
0000
0000
0000
0000
0000
0000
0000
0000
0000
0000
0100
0000
0000
0000
0000
0000
0000
0000
0000
0000
0000
0000
0000
0000
0000
0000
0000
0000
0010
0000
0000
0000
0000
0000
0000
0000
0000
0000
0000
0000
0000
0000
0000
0100
0000
0000
0000
0000
0000
0000
0000
0000
0000
0000
0000
0000
0000
0000
0010
0000
0000
0000
0000
0000
0000
0000
0000
0000
0000
0000
0000
0000
0000
0000
0000
0000
0100
0000
0000
0000
0000
0000
0000
0000
0000
0000
0000
0000
0000
0000
0000
0000
0000
0000
,
0010
0000
0000
0000
0000
0000
0000
0000
0000
0000
0000
0000
0000
0000
0000
0000
0100
0000
0000
0000
0000
0000
0000
0000
0000
0000
0000
0000
0000
0000
0010
0000
0000
0000
0000
0000
0000
0000
0000
0000
0000
0000
0000
0000
0000
0000
0000
0000
0100
0000
0000
0000
0000
0000
0000
0000
0000
0000
0000
0000
0000
0000
0000
0020
0000
0000
0000
0000
0000
0000
0000
0000
0000
0000
0000
0000
0000
0000
0000
0000
0000
0000
0000
0000
0000
0000
0000
0000
0000
0000
0000
0000
0000
0000
0000
0000
0000
0000
0000
0000
0000
0000
0000
0000
0000
0000
0000
0000
0000
0000
0000
0000
0000
0000
0000
0000
0000
0000
0000
0000
0000
0000
0000
0000
0000
0000
0000
0000
0000
0000
0000
0000
0000
0000
0000
0000
0000
0000
0000
0000
0000
0000
0000
0000
0030
0000
0000
0000
0000
0000
0000
0000
0000
0000
0000
0000
0100
0000
0000
0000
0000
0000
0000
0000
0000
0000
0000
0000
0010
0000
0000
0000
0000
0000
0000
0000
0000
0000
0000
0000
0001
0000
0000
0000
0000
0000
0000
0000
0000
0000
0000
0000
,
2000
0000
0000
0000
0000
0000
0000
0000
0000
0000
0000
0000
0000
0000
0000
0000
0000
0000
0000
0000
0000
0000
0000
0000
0000
0000
0000
0000
0000
0000
0000
0000
0000
0000
0000
0000
0000
0000
0000
0000
0000
0000
0000
0000
0000
0000
0000
0000
0000
0000
0000
0000
0000
0000
0000
0000
0000
0000
0000
0000
0000
0000
0000
0000
0000
0000
0000
0000
0000
0000
0000
0000
3010
0000
0000
0000
0000
0000
0000
0000
0000
0000
0000
0000
1000
0000
0000
0000
0000
0000
0000
0000
0000
0000
0000
0000
0200
0000
0000
0000
0000
0000
0000
0000
0300
0020
0000
0000
0000
0000
0000
0000
0000
0000
0000
0000
0000
0000
0000
0000
0000
0000
0000
0000
0000
0000
0000
0000
0000
0000
0000
0000
0000
0000
0000
0000
0000
0000
0000
0000
0000
0000
0000
0000
0000
0000
0000
0000
0000
0000
0000
0000
0000
0000
0000
0000
0000
0000
0000
0000
0000
0000
0000
0000
0000
0000
0000
0000
0000
0000
0000
0000
0000
0000
0000
0000
0000
0000
0000
0000
0000
0000
0000
0000
0000
0000
0000
0000
0000
0000
0000
0000
,
0130
0000
0000
0001
0000
0000
1000
0000
0000
0010
0000
0000
0100
0000
0000
0001
0000
0000
0100
0000
0000
0010
0000
0000
0100
0000
0010
0000
0100
0000
0001
0000
0000
0010
0000
0000
0100
0000
0010
0000
0100
0000
1000
0000
0000
0010
0000
0000
,
0100
0000
0000
0001
0000
0000
1000
0000
0001
0000
0010
0000
0100
0000
0000
0010
0000
0000
1000
0000
0001
0000
0010
0000
0100
0000
0000
0000
0000
0000
0010
0000
0001
0000
0010
0000
0100
0000
0000
1000
0000
0000
0001
0000
0000
0100
0000
0000
,
0010
0000
0000
0000
0000
0000
0000
0000
0000
0000
0000
0000
0100
0000
0000
0000
0000
0000
0000
0000
0010
0000
0000
0000
0000
0000
0000
0001
0000
0000
0000
0000
0000
0000
0000
0000
0200
0000
0000
0000
0000
0000
0000
0000
0000
0000
0000
0000
0300
0000
0000
0000
0000
0000
0000
0000
0000
2000
0000
0000
0000
0000
0000
0000
0000
0000
0000
0000
0000
0000
0000
0000
0000
0000
0000
0000
0000
0000
0000
0000
0000
0000
0000
0000
0000
0000
0000
0000
0000
0000
0000
0000
0000
0000
0000
0000
3100
0000
0000
0000
0000
0000
0000
0000
0010
0000
0000
0000
0000
0000
0000
0000
0001
0000
0000
0000
0000
0000
0000
0000
0010
0000
0000
0000
0000
0000
0000
0000
0100
0000
0000
0000
0000
0000
0000
0000
1000
0000
0000
0000
0000
0000
0000
0000
0010
0000
0000
0000
0000
0000
0000
0000
0100
0000
0000
0000
0000
0000
0000
0000
0001
0000
0000
0000
0000
0000
0000
0000
0100
0000
0000
0000
0000
0000
0000
0000
1000
0000
0000
0000
0000
0000
0000
0000
0001
0000
0000
0000
0000
0000
0000
0000
,
0010
0000
0200
0000
0000
0000
0000
0000
0000
0000
0000
0000
0000
0000
0300
0100
0000
0000
0010
0000
0000
1000
0000
0000
0100
0000
0000
1000
0000
0000
0010
0000
0000
0100
0000
0000
0001
0000
0000
0000
0000
0000
0100
0000
0000
0000
0000
0000
,
0010
0000
0000
0000
0000
0000
0000
0000
0000
0000
0000
0000
0100
0000
0000
0000
0000
0000
0000
0000
0000
0000
0000
0000
0001
0000
0000
0000
0000
0000
0000
0000
0000
0000
0000
0000
0000
0000
0000
0000
0000
0000
0000
0000
0000
0000
0000
0000
0100
0000
0000
0000
0000
0000
0000
0000
0000
0000
0000
0000
0000
0000
0000
0000
0010
0000
0000
0000
0000
0000
0000
0000
0000
0000
0000
0000
0000
0000
0000
0000
0000
0000
0000
0000
0000
0000
0000
0000
0000
0000
0100
0000
0000
0000
0000
0000
0000
0000
0000
0000
0000
0000
0000
0000
0010
0000
0000
0000
0000
0000
0000
0000
0000
0000
0000
0000
0100
0000
0000
0000
0000
0000
0000
0000
0000
0000
0000
0000
0000
0010
0000
0000
0000
0000
0000
0000
0000
0000
0000
0000
0000
0000
0000
0000
2000
0000
0000
0000
0000
0000
0000
0000
0000
0000
0000
0000
0000
0000
0000
0000
0000
0000
0000
0000
0000
0000
0000
0000
0000
0000
0000
3000
0000
0000
0000
0000
0000
0000
0000
0000
0000
0000
0000
0000
0000
0000
0000
0000
0000
0000
0000
0000
,
0001
0100
0010
0100
1000
0010
0001
1000
0100
0001
0100
0010
0001
0100
1000
0010
0100
1000
0010
0100
0001
0010
1000
0001
,
1000
0000
0000
0000
0000
0000
0000
0000
0100
0000
0000
0000
0000
0000
0000
0000
0010
0000
0000
0000
0000
0000
0000
0000
0100
0000
0000
0000
0000
0000
0000
0000
0010
0000
0000
0000
0000
0000
0000
0000
0001
0000
0000
0000
0000
0000
0000
0000
0100
0000
0000
0000
0000
0000
0000
0000
0010
0000
0000
0000
0000
0000
0000
0000
0001
0000
0000
0000
0000
0000
0000
0000
0100
0000
0000
0000
0000
0000
0000
0000
1000
0000
0000
0000
0000
0000
0000
0000
0010
0000
0000
0000
0000
0000
0000
0000
0100
0000
0000
0000
0000
0000
0000
0000
1000
0000
0000
0000
0000
0000
0000
0000
0010
0000
0000
0000
0000
0000
0000
0000
0001
0000
0000
0000
0000
0000
0100
0000
0000
0000
0000
0000
0010
0000
0000
0000
0000
0000
0100
0000
0000
0000
0000
0000
0010
0000
0000
0000
0000
0000
1000
0000
0000
0000
0000
0000
0100
0000
0000
0000
0000
0000
0010
0000
0000
0000
0000
0000
0001
0000
0000
0000
0000
0000
0000
0000
0100
0000
0000
0000
0000
0000
0000
0000
1000
0000
0000
0000
0000
0000
0000
0000
,
0100
0000
0000
0000
0000
0000
0000
0000
0001
0000
0000
0000
0000
0000
0000
0000
0100
0000
0000
0000
0000
0000
0000
0000
0010
0000
0000
0000
0000
0000
0000
0000
1000
0000
0000
0000
0000
0000
0000
0100
0000
0000
0000
0000
0000
0010
0000
0000
0000
0000
0000
0000
0001
0000
0000
0000
0000
1000
0000
0000
0000
0000
0000
0000
0100
0000
0000
0000
0000
0010
0000
0000
0000
0000
0000
0001
0000
0000
0000
0000
0100
0000
0000
0000
0000
0000
0000
0000
0010
0000
0000
0000
0000
1000
0000
0000
0000
0000
0000
0001
0000
0000
0000
0000
0100
0000
0000
0000
0000
0000
0000
0000
0010
0000
0000
0000
0000
0000
0000
0000
1000
0000
0000
0000
0000
0000
0000
0000
0100
0000
0000
0000
0010
0000
0000
0000
1000
0000
0000
0000
0000
0000
0000
0000
0001
0000
0000
0000
0000
0000
0100
0000
0000
0000
0000
0000
0010
0000
0000
0000
1000
0000
0000
0000
0100
0000
0000
0000
0001
0000
0000
0000
0010
0000
0000
0000
1000
0000
0000
0000
0100
0000
0000
0000
0000
0000
0001
0000
0000
0000
0000
0000
,
0010
0000
0100
0000
0010
0000
1000
0100
0010
0000
0001
0000
0100
0000
0010
0000
0100
0000
1000
0000
0001
0000
0010
0000
0100
0000
1000
0000
0100
0000
0010
0000
0100
0000
0001
0000
0010
0000
0100
0000
1000
0000
0100
0000
0010
0000
0100
0000
,
0020
0000
0000
0000
0000
0000
0000
0000
0000
0000
0000
0000
0000
0000
0000
0000
0000
0000
0100
0000
0000
0030
0000
0000
1000
0000
0000
0000
0000
0000
0000
0000
0010
0000
0000
0000
0000
0000
0000
0000
0000
0000
0001
0000
0000
0000
0000
0000
,
0100
0000
0000
1000
0000
0000
0100
0000
0002
0000
0000
0000
0000
0000
0003
0000
,
0200
0000
0000
0300
0000
0000
0020
0000
0000
0000
0000
0000
0000
0000
0000
0000
0000
0000
0030
0100
0000
1000
0000
0000
0002
0000
0000
0000
0000
0000
0000
0000
0000
0000
0000
0000
0000
0000
0000
0000
0000
0000
0003
0000
0000
0000
0000
0000
,
0002
0000
0000
0003
0000
0000
0000
0000
0010
0000
0000
0000
0100
0000
0000
0000
0001
0000
0000
0000
1000
0000
0000
0000
0100
0000
0000
0000
0000
0000
0000
0000
0020
0000
0000
0000
0000
0000
0000
0000
0000
0000
0000
0000
0000
0000
0000
0000
0000
0000
0000
0000
0000
0000
0000
0000
0030
0000
0000
0000
0000
0000
0000
0000
,
0001
0010
0100
0010
0001
0010
0100
1000
0010
0100
0010
0100
1000
0010
0100
0010
,
1000
0100
0010
0100
0010
0001
0100
0010
1000
0010
0100
1000
0100
0010
0100
0010
,
0001
0000
0000
0000
0100
0000
0010
0000
1000
0000
0000
0000
0001
0000
0010
0000
0100
0000
0001
0000
0010
0000
0100
0000
1000
0000
0010
0000
0100
0010
1000
0000
,
0001
0100
0010
0100
0010
0001
1000
0100
1000
0100
0010
0100
0010
0001
0010
0001
,
0210
0000
0000
0000
0000
0000
0000
0000
0000
0000
0000
0000
0000
0000
0000
0000
0000
0000
0300
0000
0000
0100
0000
0000
0010
0000
0000
0001
0000
0000
0010
0000
0100
0000
1000
0000
0100
0000
0010
0000
0001
0000
0100
0000
0010
0000
0001
0000
,
0010
0000
0000
0000
0000
0000
0000
0000
0100
0000
0000
0000
0000
0000
0000
0000
0001
0000
0000
0000
0000
0000
0000
0000
0010
0000
0000
0000
0000
0000
0000
0000
1000
0000
0000
0000
0000
0000
0000
0000
0010
0000
0000
0000
0000
0000
0000
0000
0100
0000
0000
0000
0000
0000
0000
0000
0001
0000
0000
0000
0000
0000
0000
0000
0010
0000
0000
0000
0000
0000
0000
0000
0100
0000
0000
0000
0000
0000
0000
0000
0010
0000
0000
0000
0000
0000
0000
0000
0100
0000
0000
0000
0000
0000
0000
0000
1000
0000
0000
0000
0000
0000
0000
0000
0100
0000
0000
0000
0000
0000
0000
0000
1000
0000
0000
0000
0000
0000
0000
0000
0010
0000
0000
0000
0000
0000
0001
0000
0000
0000
0000
0000
0100
0000
0000
0000
0000
0000
0010
0000
0000
0000
0000
0000
1000
0000
0000
0000
0000
0000
0100
0000
0000
0000
0000
0000
0010
0000
0000
0000
0001
0000
0000
0000
0100
0000
0000
0000
1000
0000
0000
0000
0000
0000
0000
0000
0010
0000
0000
0000
0000
0000
0000
0000
0200
0000
0000
0000
0000
0000
0000
0000
,
0000
0000
0000
0000
0000
0000
0000
0000
0000
0000
0000
0000
0310
0000
1000
0000
0010
0000
0100
0000
0010
0000
0001
0000
0010
1000
0100
0000
0010
0000
1000
0000
,
0010
0000
0000
0000
0000
0000
0000
0000
0000
0000
0000
0000
0100
0000
0000
0000
0000
0000
0000
0000
0000
0000
0000
0000
0010
0000
0000
0000
0000
0000
0000
0000
0000
0000
0000
0000
0001
0000
0000
0000
0000
0000
0000
0000
0000
0000
0000
0000
0010
0000
0000
0000
0000
0000
1000
0000
0000
0000
0000
0000
0100
0000
0000
0000
0000
0000
0000
0000
0000
0000
0000
0000
0010
0000
0000
0000
0000
0000
0000
0000
0000
0000
0000
0000
1000
0000
0000
0000
0000
0000
0000
0000
0000
0000
0000
0000
0100
0000
0000
0000
0010
0000
0000
0000
0000
0000
0000
0000
0000
0000
0000
0000
0000
0000
0000
0000
0000
0000
0000
0000
0002
0000
0000
0000
0000
0000
0000
0000
0000
0000
0000
0000
0000
0000
0000
0000
0000
0000
0000
0000
0000
0000
0000
0000
0000
0000
0000
0000
0000
0000
0000
0000
0000
0000
0000
0000
0000
0000
0000
0000
0000
0000
0000
0000
0000
0000
0000
0000
0000
0000
0000
0000
0000
0000
0000
0000
0000
0000
0000
0000
0003
0000
0000
0000
0000
0000
0000
0000
0000
0000
0000
0000
,
0010
0001
0010
0100
0010
0001
0100
0010
0100
0001
0100
0010
0100
0000
0010
0100
,
1000
0000
0100
0000
0010
0000
0001
0000
0100
0000
0010
0000
1000
0100
0010
0000
0001
0000
0100
0000
0010
0000
1000
0000
0100
0000
1000
0000
0100
0000
0010
0000
,
0100
0010
0001
0000
0100
0000
0001
0000
0010
0000
0000
0000
0001
0000
0010
0000
0100
0000
0000
0000
0010
0000
0100
0000
1000
0000
0000
0000
0100
0000
1000
0000
,
0100
0010
0001
0100
0010
0100
0001
0010
1000
0010
0100
0001
0010
0100
0010
0100
,
0002
0000
0000
0000
0000
0000
0000
0000
0000
0000
0000
0000
0000
0000
0000
0000
0000
0000
0000
0000
0000
0000
0000
0000
0000
0000
0000
0000
0000
0000
0000
0000
0000
0000
0000
0000
0000
0000
0000
0000
0003
0000
0000
0000
0000
0000
0000
0000
1000
0000
0000
0000
0000
0000
0000
0000
0000
0000
0000
0000
0000
0000
0000
0000
0000
0000
0000
0000
0000
0000
0000
0000
0100
0000
0000
0000
0000
0000
0010
0000
0000
0000
0000
0000
0000
0000
0000
0001
0000
0000
0000
0000
0000
0000
0000
0000
0000
0000
0000
0200
0000
0000
0000
0000
0000
0000
0000
0000
0000
0000
0000
0000
0000
0000
0000
0000
0000
0000
0000
0000
0000
0000
0000
0000
0000
0000
0000
0000
0000
0000
0000
0000
0000
0000
0000
0000
0000
0000
0000
0000
0000
0000
0000
0000
0300
0000
0000
0000
0000
0000
0000
0000
0000
0000
0000
0000
0000
0000
0000
0000
0000
0000
0000
0000
0000
0000
0000
0000
0010
0000
0000
0000
0000
0000
0100
0000
0000
0000
0000
0000
1000
0000
0000
0000
0000
0000
0000
0000
0000
0000
0000
0000
,
0020
0000
0000
0000
0000
0000
0000
0000
0030
0000
0000
0000
0100
0010
0001
0000
0200
0000
0000
0000
0000
0000
0000
0000
0300
0000
0000
0000
0010
0100
0001
0000
,
0010
0100
0010
0001
0100
0010
0100
1000
0010
0100
0001
1000
0100
0001
0100
0010
,
1000
0000
0000
0001
0000
0000
0010
0000
0000
0100
0000
0000
0001
0000
0010
0000
0100
0000
1000
0000
0100
0000
0001
0000
1000
0000
0100
0000
0010
0000
0001
0000
0010
0000
0100
0000
0001
0000
0000
0010
0000
0000
0100
0000
0000
1000
0000
0000
,
0010
0001
0100
0001
0100
0010
0100
1000
0010
0001
0100
0001
0100
0010
0100
1000
,
0201
0000
1300
0001
1010
0000
1000
0001
1100
0000
1000
0001
2010
0000
3001
1000
,
0010
1000
0001
1000
0110
1000
0001
1000
0010
1000
0001
1000
0110
1000
0001
1000
,
0201
0000
1300
0001
1010
0000
1000
0001
1100
0000
1000
0001
2010
0000
3001
1000
,
0010
1000
0001
1000
0110
1000
0001
1000
0010
1000
0001
1000
0110
1000
0001
1000
,
0201
0000
1300
0001
1010
0000
1000
0001
1100
0000
1000
0001
2010
0000
3001
1000
,
0010
1000
0001
1000
0110
1000
0001
1000
0011
1000
0001
1000
0110
1000
0001
1000
,
0201
0000
1300
0001
1010
0000
1000
0001
1100
0000
1000
0001
2010
0000
3001
1000
,
0010
1000
0001
1000
0110
1000
0001
1000
0011
1100
0011
1100
0011
0100
0001
1000
,
0201
0000
1300
0001
1010
0000
1000
0001
1100
0000
1000
0001
2010
0000
3001
1000
,
0010
1000
0001
1000
0110
1000
0001
1000
0010
1000
0001
1000
0110
1000
0001
1000
,
0201
0000
1300
0001
1010
0000
1000
0001
1100
0000
1000
0001
2010
0000
3001
1000
,
0010
1000
0001
1000
0110
1000
0001
1000
0010
1000
0001
1000
0110
1000
0001
1000
,
0201
0000
1300
0001
1010
0000
1000
0001
1100
0000
1000
0001
2010
0000
3001
1000
,
0010
1000
0001
1000
0110
1000
0001
1000
0011
1000
0001
1000
0110
1000
0001
1000
,
0012
0000
0010
0000
,
1013
0100
1001
0000
1010
0000
1001
0000
1010
0000
1001
0000
1010
0000
0110
0000
0101
0000
0011
0000
0101
0000
0011
0000
,
2002
0000
0000
0000
0000
0000
0000
0000
0000
0000
0000
0000
0000
0000
0000
0000
0000
0000
0000
0000
0000
0000
0000
0000
0000
0000
0000
0000
0000
0000
0000
3003
,
1001
0100
0010
0100
0010
1000
0100
0010
0001
1000
0010
0100
1001
0100
0010
0100
0010
1000
0100
0010
0001
1000
0010
0100
,
2001
0000
0000
0000
0000
3000
0000
0000
1010
0000
0010
0000
0200
0000
0000
0000
,
1300
0010
0010
0100
1010
0010
1000
0010
,
0002
0000
0000
0000
0000
0000
1003
0010
0201
0000
0000
0300
0002
0000
0000
0003
,
1200
0000
0000
0300
0020
0000
0000
0030
2001
0000
0000
0000
0000
0000
3000
0000
,
1010
0010
0200
0000
1300
0010
0010
0100
,
1010
0000
0010
0000
1000
0000
0010
0000
0002
0000
0000
0000
0000
0000
1003
0010
,
0201
0000
0000
0300
0002
0000
0000
0003
0011
0000
2020
0000
0000
0000
3030
0000
,
0101
0000
2200
0000
0000
0000
3300
0000
2001
0000
0000
0000
0000
3000
0000
0000
,
1010
0010
0200
0000
1300
0010
0010
0100
,
1010
0000
0010
0000
1000
0000
0010
0000
0002
0000
0000
0000
0000
0000
1003
0010
,
0201
0000
0000
0300
0002
0000
0000
0003
1200
0000
0000
0300
0020
0000
0000
0030
,
2001
0000
0000
3000
1010
0010
0200
0000
,
1300
0010
0010
0100
1010
0010
1000
0010
,
0002
0000
0000
0000
0000
0000
1003
0010
0201
0000
1000
0300
0102
0000
1000
0003
,
0011
2020
0000
3030
0101
2200
0000
3300
,
1001
0000
0000
0000
;
