#TITLE:Pokemon Rival final;
#SUBTITLE:;
#ARTIST:Unknown artist;
#TITLETRANSLIT:;
#SUBTITLETRANSLIT:;
#ARTISTTRANSLIT:;
#CREDIT:;
#BANNER:pokemon_rival_final.gif;
#BACKGROUND:pokemon_rival_final-bg.gif;
#LYRICSPATH:;
#CDTITLE:;
#MUSIC:Pokemon Rival Final.mp3;
#OFFSET:-0.530;
#SAMPLESTART:35.699;
#SAMPLELENGTH:12.000;
#SELECTABLE:YES;
#BPMS:0.000=170.686;
#STOPS:;
#BGCHANGES:;
// cache tags:
#FIRSTBEAT:8.000;
#LASTBEAT:410.500;
#SONGFILENAME:Songs/new encore/Pokemon Rival final/Pokemon Final Rival.sm;
#HASMUSIC:1;
#HASBANNER:1;
#MUSICLENGTH:154.801;
// end cache tags

//---------------dance-single - ----------------
#NOTES:
     dance-single:
     :
     Hard:
     10:
     0.686,0.961,0.265,1.000,0.333,547.000,41.000,155.000,0.000,0.000:  // measure 1
0000
0000
0000
0000
,  // measure 2
0000
0000
0000
0000
,  // measure 3
1000
0100
0000
0000
0000
0000
0000
0000
0100
0010
0000
0000
0000
0000
0000
0000
,  // measure 4
0010
0001
0000
0000
0000
0000
0000
0000
0001
1000
0000
0000
0010
0000
0000
0000
,  // measure 5
0010
0100
0000
0000
0100
0000
0000
0000
0100
0001
0000
0000
0001
0000
0000
0000
,  // measure 6
0001
1000
0000
0000
1000
0000
0000
0000
1000
0010
0000
0000
0010
0000
0000
0000
,  // measure 7
0010
0000
1000
0100
0010
0001
0010
0100
1000
0000
0001
0010
0100
1000
0100
0010
,  // measure 8
0001
0000
0010
0100
0010
0100
0010
0100
0010
0000
0001
1000
0001
1000
0001
1000
,  // measure 9
0001
0000
1000
0100
0010
0001
0010
0100
1000
0000
0001
0010
0100
1000
0100
0010
,  // measure 10
0001
0000
0100
0010
0100
0010
0100
0010
0100
0010
0000
0000
1000
0000
0000
0000
,  // measure 11
2000
0100
3002
0010
,  // measure 12
0203
0001
0320
1000
,  // measure 13
2030
0000
0000
0000
3200
0000
0000
0300
0010
0000
0001
0000
1000
0100
0000
0100
,  // measure 14
1000
0000
0010
0000
0100
0001
1000
0001
0100
0000
0001
0010
0000
0010
0001
0000
,  // measure 15
0200
0010
0320
1000
,  // measure 16
2030
0001
3002
0100
,  // measure 17
0023
0230
0000
0000
,  // measure 18
0320
0032
0000
0000
,  // measure 19
0023
0000
0230
0000
,  // measure 20
2300
0000
3002
0000
,  // measure 21
0013
0100
0000
0000
0100
0000
0000
0000
0100
1000
0000
0000
1000
0000
0000
0000
,  // measure 22
1000
0001
0000
0000
0001
0000
0000
0000
0001
0010
0000
0000
0010
0000
0000
0000
,  // measure 23
0100
0000
1000
0100
0010
0100
1000
0100
0010
0000
0001
0010
0100
0010
0001
0010
,  // measure 24
0100
0000
1000
0100
0010
0001
0010
0100
1000
0000
0001
0010
0100
1000
0100
0010
,  // measure 25
0002
0000
0000
0000
0023
0000
0130
1000
0100
0000
1000
0001
1000
0000
0001
0010
,  // measure 26
0001
0100
0001
0010
0100
1000
0001
0100
,  // measure 27
0020
0000
0000
0000
0230
0000
0301
1000
0001
0000
1000
0010
1000
0000
0010
0100
,  // measure 28
0010
1000
0100
0010
1000
0010
0001
0100
,  // measure 29
0020
0000
0000
0000
2030
0000
3001
0100
0001
0000
0100
0010
0100
0000
0010
1000
,  // measure 30
0010
0100
0001
1000
0100
0010
0001
1000
,  // measure 31
2020
0000
0000
0000
0030
0000
0001
0000
0100
0000
0010
0000
3100
0000
0001
0010
,  // measure 32
0202
0000
0000
0000
0000
0000
0000
0303
,  // measure 33
2002
0000
0000
0000
0000
0000
0000
3003
,  // measure 34
0200
0320
0001
0001
,  // measure 35
0032
0000
0000
0000
,  // measure 36
0203
0000
0000
0000
0000
0000
0000
0300
,  // measure 37
2020
0000
0000
0000
0000
0000
0000
3030
,  // measure 38
0202
0000
0000
0000
0000
0000
0000
0303
,  // measure 39
0020
0000
0000
0030
2200
0000
0000
3300
,  // measure 40
0020
0000
2000
0000
0000
0000
0000
3030
,  // measure 41
0002
0000
0200
0000
0000
0000
0000
0303
,  // measure 42
1000
0100
0010
0001
0100
0010
1000
0100
,  // measure 43
0000
0010
0100
1000
0010
0001
0010
1000
,  // measure 44
0202
0000
0000
0303
2020
0000
0000
3030
,  // measure 45
2200
0000
0000
3300
0022
0000
0000
0033
,  // measure 46
0220
0330
2002
0000
0000
0000
0000
3003
,  // measure 47
0200
0000
0000
0300
0020
0000
0000
0030
,  // measure 48
2200
0000
0000
3300
0022
0000
0000
0033
,  // measure 49
2020
0000
0000
3030
0202
0000
0000
0303
,  // measure 50
2002
3003
0220
0000
0000
0000
0000
0330
,  // measure 51
2000
0000
0000
3000
0002
0000
0000
0003
,  // measure 52
2200
0000
0000
0000
0000
0000
0000
3300
,  // measure 53
0020
0030
0202
0000
0000
0000
0000
0303
,  // measure 54
2200
0000
0000
3300
0202
0000
0000
0303
,  // measure 55
0022
0000
0000
0033
2020
0000
0000
3030
,  // measure 56
0200
0000
0300
0000
0020
0000
0000
0000
0031
0000
0100
0000
0010
1000
0000
1000
,  // measure 57
0010
0000
0100
0000
0001
0010
1000
0010
0001
0000
0100
0010
0000
0010
0100
0000
,  // measure 58
2020
0000
0000
3030
0200
0000
0000
0300
,  // measure 59
0022
0000
0000
0033
2000
0000
0000
3000
,  // measure 60
0020
0030
0202
0000
0000
0000
0000
0303
,  // measure 61
2000
0000
0020
0000
0000
0000
0000
3030
,  // measure 62
0200
0000
0000
0300
0002
0000
0000
0003
,  // measure 63
0020
0000
0000
0030
0200
0000
0000
0300
,  // measure 64
1000
0100
0000
0000
0100
0000
0000
0000
0100
0001
0000
0000
0001
0000
0000
0000
,  // measure 65
0001
0100
0000
0000
0100
0000
0000
0000
0100
1000
0000
0000
1000
0000
0000
0000
,  // measure 66
1000
0000
0001
0010
0001
0010
0001
0010
0001
0010
0100
1000
0100
1000
0100
1000
,  // measure 67
0100
1000
0001
0010
0100
1000
0100
0010
0001
1000
0001
0010
0100
1000
0100
0010
,  // measure 68
0002
0000
0000
0000
0023
0000
0130
1000
0100
0000
1000
0010
1000
0000
0010
0100
,  // measure 69
0010
1000
0001
0010
0100
0010
0001
1000
,  // measure 70
0200
0000
0000
0000
0320
0000
0031
0100
0001
0000
0100
0010
0100
0000
0010
1000
,  // measure 71
0010
0100
0001
1000
0100
0010
1000
0010
,  // measure 72
0002
0000
0000
0000
2003
0000
3100
0010
0100
0000
0010
0001
0010
0000
0001
1000
,  // measure 73
0001
0010
0100
1000
0010
0100
0010
1000
,  // measure 74
0002
0000
0010
0000
0100
0000
1000
0000
0010
0000
1000
0000
0100
0000
0013
0100
,  // measure 75
0010
1000
0100
0010
0001
0010
0001
0100
,  // measure 76
0010
1000
0100
0001
0100
1000
0010
0100
,  // measure 77
0001
0100
0010
0001
0010
1000
0100
0010
,  // measure 78
0001
1000
0010
1000
0001
0010
0001
0010
,  // measure 79
0100
1000
0001
0100
0001
1000
0100
1000
,  // measure 80
0010
0100
0010
1000
0100
1000
0100
0010
,  // measure 81
0100
0010
0001
0100
0001
1000
0010
0100
,  // measure 82
0001
0100
0010
1000
0001
0010
0100
0001
,  // measure 83
0100
0010
0001
1000
0100
0010
0100
0010
,  // measure 84
0001
0010
0100
1000
0010
0001
0010
0000
,  // measure 85
1000
0100
0010
0100
1000
0001
0010
0100
,  // measure 86
0000
0100
0010
0001
0100
1000
0100
0001
,  // measure 87
0020
0000
0000
0030
0200
0000
0000
0300
,  // measure 88
0022
0000
0000
0033
2000
0000
0000
3000
,  // measure 89
2200
3300
0022
0000
0000
0000
0000
0033
,  // measure 90
0200
0000
0000
0300
2020
0000
0000
3030
,  // measure 91
0002
0000
0000
0003
2200
0000
0000
3300
,  // measure 92
0020
0000
0000
0030
0022
0000
0000
0033
,  // measure 93
0220
0330
2002
0000
0000
0000
0000
3003
,  // measure 94
0200
0000
0000
0300
0020
0000
0000
0030
,  // measure 95
2200
0000
0000
0000
0000
0000
0000
3300
,  // measure 96
0020
0000
0002
0000
0000
0000
0000
0033
,  // measure 97
0200
0000
0000
0300
0002
0000
0000
0003
,  // measure 98
2020
0000
0000
3030
0200
0000
0000
0300
,  // measure 99
0020
0000
0000
0000
0032
0000
0000
0000
0013
0000
0100
0000
1000
0001
0000
0001
,  // measure 100
1000
0000
0100
0000
0010
0001
1000
0100
0010
0000
0001
1000
0000
1000
0001
0000
,  // measure 101
0200
0000
0000
0300
2020
0000
0000
3030
,  // measure 102
0002
0000
0000
0003
0220
0000
0000
0330
,  // measure 103
0022
0033
2200
0000
0000
3300
0000
0000
;

//---------------dance-single - ----------------
#NOTES:
     dance-single:
     :
     Medium:
     7:
     0.473,0.530,0.052,0.724,0.000,393.000,8.000,112.000,0.000,0.000:  // measure 1
0000
0000
0000
0000
,  // measure 2
0000
0000
0000
0000
,  // measure 3
1000
0000
1000
0000
,  // measure 4
0001
0000
0001
0010
,  // measure 5
0010
0100
0100
0001
,  // measure 6
0001
0000
1000
0000
1000
0001
0100
0010
,  // measure 7
0000
0010
0100
0001
0000
0001
1000
0100
,  // measure 8
0000
0100
0010
0001
0000
0001
0100
0010
,  // measure 9
0000
0010
1000
0001
0000
0001
0010
1000
,  // measure 10
0000
1000
0010
0001
0000
0000
0001
0000
,  // measure 11
0002
0013
0020
0130
,  // measure 12
0200
1300
2000
3010
,  // measure 13
0020
0000
0230
0000
0301
1000
0100
0000
,  // measure 14
0010
0001
0100
0000
0001
0100
0000
0100
,  // measure 15
0020
0130
0200
0301
,  // measure 16
0002
1003
2000
3010
,  // measure 17
0010
0020
0000
0000
,  // measure 18
0130
0200
0000
0000
,  // measure 19
2300
0000
3002
0000
,  // measure 20
2003
0000
3020
0000
,  // measure 21
0130
0100
1000
1000
,  // measure 22
0001
0001
0010
0010
,  // measure 23
0000
0001
0010
0001
0000
1000
0100
1000
,  // measure 24
0000
0010
0100
0010
0000
1000
0001
1000
,  // measure 25
0002
0000
2003
3100
0100
0010
0010
0001
,  // measure 26
0001
0000
1000
0100
1000
0000
0100
0010
,  // measure 27
0200
0000
0320
0031
0001
1000
1000
0010
,  // measure 28
0010
0000
0100
0001
0100
0000
0010
1000
,  // measure 29
0200
0000
2300
3010
0010
0100
0100
0001
,  // measure 30
0001
0000
1000
0100
1000
0000
0001
0010
,  // measure 31
0002
0000
0000
0000
0000
1000
0000
1003
,  // measure 32
0200
0000
0000
0000
0000
0000
0000
0300
,  // measure 33
0002
0000
0000
0000
0000
0000
0000
0003
,  // measure 34
0200
0000
0320
0000
0000
0000
0000
0030
,  // measure 35
2000
0000
0000
0000
0000
0000
0000
3000
,  // measure 36
0002
0000
0000
0000
0000
0000
0000
0003
,  // measure 37
0200
0000
0000
0000
0000
0000
0000
0300
,  // measure 38
0020
0000
0000
0000
0000
0000
0000
0030
,  // measure 39
2000
0000
0000
3000
0022
0000
0000
0033
,  // measure 40
2000
0000
3200
0000
0000
0000
0000
0300
,  // measure 41
0020
0000
0032
0000
0000
0000
0000
0003
,  // measure 42
1000
0010
1000
0000
0100
0010
0100
0001
,  // measure 43
0000
1000
0100
0010
0000
0100
0010
0001
,  // measure 44
2000
0000
0000
3000
0200
0000
0000
0300
,  // measure 45
0020
0000
0000
0030
0002
0000
0000
0003
,  // measure 46
1000
0000
0220
0000
0000
0000
0000
0330
,  // measure 47
0002
0000
0000
0003
0020
0000
0000
0030
,  // measure 48
0200
0000
0000
0300
2000
0000
0000
3000
,  // measure 49
0020
0000
0000
0030
0200
0000
0000
0300
,  // measure 50
1000
0000
0022
0000
0000
0000
0000
0033
,  // measure 51
2000
0000
0000
3000
0020
0000
0000
0030
,  // measure 52
0200
0000
0000
0000
0000
0000
0000
0300
,  // measure 53
0010
0000
0022
0000
0000
0000
0000
0033
,  // measure 54
0200
0000
0000
0300
0020
0000
0000
0030
,  // measure 55
2000
0000
0000
3000
0002
0000
0000
0003
,  // measure 56
0010
0000
2000
0000
3100
0010
0001
0000
,  // measure 57
0100
0010
0100
0000
0001
0010
0000
0100
,  // measure 58
2000
0000
0000
3000
0020
0000
0000
0030
,  // measure 59
0200
0000
0000
0300
0002
0000
0000
0003
,  // measure 60
1000
0000
2020
0000
0000
0000
0000
3030
,  // measure 61
0001
0000
0200
0000
0000
0000
0000
0300
,  // measure 62
0020
0000
0000
0030
2000
0000
0000
3000
,  // measure 63
0200
0000
0000
0300
0002
0000
0000
0003
,  // measure 64
1000
1000
0100
0100
,  // measure 65
0010
0010
0001
0001
,  // measure 66
0001
0010
0100
1000
0000
0010
0100
0010
,  // measure 67
0000
1000
0001
1000
0000
0010
0100
0001
,  // measure 68
2000
0000
3020
0130
0100
0001
0001
1000
,  // measure 69
1000
0000
0100
0001
0100
0000
1000
0010
,  // measure 70
2000
0000
3002
0013
0010
0100
0100
1000
,  // measure 71
1000
0000
0001
0010
0001
0000
0100
0010
,  // measure 72
0200
0000
0302
1003
1000
0100
0100
0010
,  // measure 73
0010
0000
0100
1000
0100
0000
0010
0001
,  // measure 74
0020
0000
0000
0000
1000
0000
0000
0130
,  // measure 75
1000
0100
0010
0001
0010
0100
1000
0000
,  // measure 76
0001
0010
0100
0010
0001
0100
0010
0000
,  // measure 77
1000
0100
0010
0001
0100
0010
1000
0000
,  // measure 78
0001
0010
0100
0001
0100
1000
0010
0000
,  // measure 79
0100
0001
0010
0100
1000
0100
0010
0000
,  // measure 80
0010
0001
1000
0010
0100
0010
1000
0000
,  // measure 81
0001
0010
0100
1000
0010
0100
0001
0000
,  // measure 82
1000
0100
1000
0010
0100
0010
0100
0000
,  // measure 83
0001
1000
0010
0001
0010
1000
0100
0000
,  // measure 84
0010
0100
1000
0001
0010
0001
0100
0000
,  // measure 85
0010
0100
1000
0000
0100
0010
0001
0010
,  // measure 86
0000
0010
0100
1000
0000
1000
0100
0010
,  // measure 87
0002
0000
0000
0003
0020
0000
0000
0030
,  // measure 88
0200
0000
0000
0300
2000
0000
0000
3000
,  // measure 89
0010
0000
2020
0000
0000
0000
0000
3030
,  // measure 90
0200
0000
0000
0300
0002
0000
0000
0003
,  // measure 91
2000
0000
0000
3000
0020
0000
0000
0030
,  // measure 92
0200
0000
0000
0300
0002
0000
0000
0003
,  // measure 93
0010
0000
0202
0000
0000
0000
0000
0303
,  // measure 94
2000
0000
0000
3000
0020
0000
0000
0030
,  // measure 95
2002
0000
0000
0000
0000
0000
0000
3003
,  // measure 96
0020
0030
0200
0000
0000
0000
0000
0300
,  // measure 97
0020
0000
0000
0030
2000
0000
0000
3000
,  // measure 98
0200
0000
0000
0300
0002
0000
0000
0003
,  // measure 99
0020
0000
0230
0000
1300
0010
0100
0000
,  // measure 100
0001
1000
0010
0000
0100
1000
0000
1000
,  // measure 101
0002
0000
0000
0003
0200
0000
0000
0300
,  // measure 102
0020
0000
0000
0030
2000
0000
0000
3000
,  // measure 103
0020
0030
0002
0000
0000
0003
0000
0000
;
