#TITLE:Melody of Happiness;
#SUBTITLE:- The Solitary Melody -;
#ARTIST:Xenothium ft. gmtn;
#TITLETRANSLIT:;
#SUBTITLETRANSLIT:;
#ARTISTTRANSLIT:;
#CREDIT:;
#BANNER:../Zeppelin_bn.png;
#BACKGROUND:../bg_Zeppelin.png;
#LYRICSPATH:;
#CDTITLE:../cdtitle_ZAiA.png;
#MUSIC:Xenothium ft. gmtn - Melody of Happiness.ogg;
#OFFSET:-0.035;
#SAMPLESTART:40.034;
#SAMPLELENGTH:23.800;
#SELECTABLE:YES;
#BPMS:0.000=162.000;
#STOPS:;
#BGCHANGES:;
// cache tags:
#FIRSTBEAT:8.000;
#LASTBEAT:388.000;
#SONGFILENAME:Songs/Cirque du Zeppelin/Melody of Happiness - [Zaia]/Melody of Happiness.sm;
#HASMUSIC:1;
#HASBANNER:1;
#MUSICLENGTH:144.744;
// end cache tags

//---------------dance-single - 12/11-3/4----------------
#NOTES:
     dance-single:
     12/11-3/4:
     Challenge:
     13:
     1.000,1.000,0.187,0.394,1.000,972.000,27.000,57.000,0.000,9.000:
0000
0000
0000
0000
,
0000
0000
0000
0000
,
2000
0000
0000
0000
,
3002
0000
0000
0000
,
0023
0000
0000
0000
,
0230
0000
0000
0000
,
2300
0000
0000
0000
,
3020
0000
0000
0000
,
0230
0000
0000
0000
,
0302
0000
0000
0000
,
0003
0000
0000
0000
0000
0000
0000
0000
0000
0000
0000
0000
1000
0100
0010
0001
,
1000
0100
1000
0001
1000
0010
0100
0010
1000
0001
0010
0100
1000
0010
1000
0001
,
0100
0001
0010
0001
0100
0010
1000
0001
1000
0100
1000
0001
0100
0001
0010
0001
,
1000
0010
0100
0001
1000
0001
0010
0100
1000
0001
0100
0010
0100
0001
0010
0100
,
0010
0001
1000
0001
0100
0001
1000
0010
1000
0100
1000
0001
0100
0001
0010
0100
,
1000
0001
0100
0001
1000
0001
0010
0100
0010
0001
1000
0010
0100
0001
0010
0001
,
1000
0100
1000
0010
1000
0100
0010
0001
1000
0001
0100
0001
1000
0100
1000
0010
,
1000
0001
0010
0100
1000
0001
1000
0010
0100
0001
1000
0100
0010
0100
1000
0010
,
0100
0010
1000
0001
1000
0100
1000
0001
0010
0001
0100
0001
1000
0100
1000
0010
,
0100
0010
1000
0001
1000
0100
0010
0100
1000
0001
0100
0010
1000
0100
1000
0001
,
0010
0001
0100
0001
0010
0100
1000
0001
1000
0010
1000
0001
0010
0001
0100
0001
,
1000
0100
0010
0001
1000
0001
0100
0010
1000
0001
0010
0100
0010
0001
0100
0010
,
0100
0001
1000
0001
0010
0001
1000
0100
1000
0010
1000
0001
0010
0001
0100
0010
,
1000
0100
0010
0100
1000
0010
0100
0001
,
0011
0010
0100
1000
0010
1000
0001
0010
,
0001
0000
0000
0100
0000
0000
0010
0000
0000
0000
0000
0000
1000
0000
0001
0000
1000
0000
0010
0000
1000
0000
0001
0000
0100
0000
0000
0010
0000
0000
1000
0000
0000
0000
0000
0000
0004
0000
0000
0000
0000
0000
0000
0000
0000
0000
0000
0000
,
1003
0000
0100
0000
0010
0100
0010
0100
1000
0000
0000
0001
0000
0000
0100
0000
,
0110
1000
0001
1111
1000
0010
1111
0001
,
1000
1111
0010
0100
1111
0000
1001
0000
,
1111
0100
0010
1111
0001
1000
1111
0100
,
1000
0000
1111
0000
0001
0000
0010
0000
1111
0000
0000
0001
0000
0000
1000
0000
,
1001
0001
0100
0101
0001
1000
1100
0100
,
0010
0011
0001
1000
1010
0000
0110
0000
,
0001
0100
0010
1000
0100
1000
0010
0100
,
0001
0000
0000
0010
0000
0000
0100
0000
0000
1000
0000
0000
0010
0000
0000
0100
0000
0000
0001
0000
0000
0010
0000
0000
0100
0000
0000
0000
0000
0000
0000
0000
0000
1000
0000
0000
0000
0000
0000
0000
0000
0000
0001
0000
1000
0000
0001
0000
,
0100
0000
0010
0000
1000
0100
0010
0000
0100
1000
0000
0010
0100
0000
0001
1000
,
0010
0000
0000
0000
0000
0000
0100
0000
0000
0000
0000
0000
0001
0000
0000
0010
0000
0000
0100
0000
0000
0000
0000
0000
1000
0000
0010
0000
0100
0000
0001
0000
0000
1000
0000
0000
0100
0000
0000
0000
0000
0000
0010
0000
0000
0000
0000
0000
,
0001
0000
0100
0000
0010
1000
0100
0000
0010
0001
0000
1000
0001
0000
0100
0010
,
1000
0000
0000
0000
0000
0000
0100
0000
0000
0000
0000
0000
1000
0000
0000
0001
0000
0000
0100
0000
0000
0000
0000
0000
0001
0000
1000
0000
0001
0000
0010
0000
0000
0100
0000
0000
0010
0000
0000
0000
0000
0000
0001
0000
0000
0000
0000
0000
,
0100
0000
0010
0000
1000
0001
0010
0000
0100
0010
0000
0001
0100
0000
0010
1000
,
0001
0000
0000
0000
0000
0000
0010
0000
0000
0000
0000
0000
0100
0000
0000
0010
0000
0000
0001
0000
0000
0000
0000
0000
1000
0000
0100
0000
0010
0000
0001
0000
0000
1000
0000
0000
0010
0000
0000
0000
0000
0000
0100
0000
0000
0000
0000
0000
,
0001
0000
0010
0000
0100
0010
0001
0000
0100
0010
0000
1000
0001
0000
0010
0001
,
0100
0000
0000
0000
0000
0000
0010
0000
0000
0000
0000
0000
1000
0000
0000
0001
0000
0000
0010
0000
0000
0000
0000
0000
0001
0000
0010
0000
0001
0000
1000
0000
0000
0010
0000
0000
0100
0000
0000
0000
0000
0000
0001
0000
0000
0000
0000
0000
,
1000
0000
0100
0000
1000
0010
0100
0000
0010
1000
0000
0100
0010
0000
0001
1000
,
0100
0000
0000
0000
0000
0000
0010
0000
0000
0000
0000
0000
0001
0000
0000
0100
0000
0000
0010
0000
0000
0000
0000
0000
1000
0000
0100
0000
0010
0000
0001
0000
0000
1000
0000
0000
0010
0000
0000
0000
0000
0000
0100
0000
0000
0000
0000
0000
,
0001
0000
0010
0000
0100
1000
0010
0000
0100
0001
0000
1000
0001
0000
0010
0100
,
1000
0000
0000
0000
0000
0000
0010
0000
0000
0000
0000
0000
1000
0000
0000
0001
0000
0000
0010
0000
0000
0000
0000
0000
0001
0000
1000
0000
0001
0000
0100
0000
0000
0010
0000
0000
1000
0000
0000
0000
0000
0000
0001
0000
0000
0000
0000
0000
,
0010
0100
1000
0010
1000
0001
0010
0001
,
1001
1000
0010
0100
0010
1000
0100
0010
,
0100
0000
0000
1000
0000
0000
0001
0000
0000
0000
0000
0000
0100
0000
0010
0000
1000
0000
0001
0000
1000
0000
0001
0000
0100
0000
0000
0010
0000
0000
1000
0000
0000
0000
0000
0000
0004
0000
0000
0000
0000
0000
0000
0000
0000
0000
0000
0000
,
0023
0000
0230
0000
2300
0000
3002
0000
0203
0000
0000
0010
0000
0000
0001
0000
,
2300
0000
0000
0000
0000
0000
0000
0000
3200
0000
0000
0320
0000
0000
0032
0000
,
2003
0000
0000
3020
0000
0000
0230
0000
0000
0000
0310
0000
0100
0000
0001
0000
,
2000
0000
0000
0000
0000
0000
3200
0000
0320
0000
0000
0032
0000
0000
2003
0000
,
3020
0030
0000
0000
,
0200
0000
0000
0000
0300
0000
0000
0000
0002
0000
0000
2003
0000
0000
3200
0000
,
0320
0000
0000
0230
0000
0000
2300
0000
0000
0000
3020
0000
0230
0000
0302
0000
,
0023
0000
0000
0032
0000
0000
0203
0000
0320
0000
0000
2030
0000
0000
3200
0000
,
2300
0000
0000
0000
3000
0000
0000
0000
0002
0000
0000
0000
1003
0010
0100
0001
,
1000
0000
0001
0100
0001
0000
1000
0100
1000
0000
0001
0010
0001
0000
1000
0010
,
1000
0000
0001
1000
0001
0000
0010
0100
0010
0000
0100
1000
0100
0000
1000
0010
,
1000
0000
0001
0010
0001
0000
0010
0100
0010
0000
0001
1000
0001
0000
1000
0100
,
1000
0000
0010
0100
0010
0000
0100
0001
0100
0000
0001
1000
0001
0000
0010
0100
,
1000
0000
0000
0000
,
1001
0000
0000
0000
,
1001
0010
0000
0000
1001
0100
0000
0000
,
0001
0000
0000
0000
1000
0000
0000
0000
0001
0100
0001
0000
1000
0001
0010
0100
,
1000
0000
0001
0100
0000
0001
0100
0001
1000
0000
0100
0010
0000
0001
0010
0100
,
2000
0000
0000
3020
0000
0000
0230
0000
0000
0000
0301
1000
0001
0100
0010
1000
,
0001
0000
0010
0000
0100
0000
1000
0000
0000
0001
0000
0000
0100
0000
0000
0001
0000
0000
1000
0000
0000
0100
0000
0000
1000
0000
0010
0000
0100
0000
0001
0000
0000
1000
0000
0000
0100
0000
0000
1000
0000
0000
0001
0000
0000
0100
0000
0000
,
0010
0000
1000
0000
0001
0000
1000
0000
0000
0100
0000
0000
0010
0000
0000
0001
0000
0000
1000
0000
0000
0001
0000
0000
1000
0000
0000
0000
0000
0000
0000
0000
0000
0110
0000
0000
0000
0000
0000
0000
0000
0000
0004
0000
0000
0000
0000
0000
,
1003
0010
0100
0010
1000
0100
1000
0001
0010
0001
0100
0010
0100
0001
1000
0001
,
0010
0100
1000
0010
0100
0001
1000
0100
1000
0001
0010
0100
0010
0001
1000
0010
,
1000
0100
0010
0001
1000
0010
0100
0001
0010
0100
1000
0001
0100
0010
0100
0001
,
1000
0001
1000
0100
0010
0001
1000
0001
0100
0010
1000
0001
0100
0001
0010
0100
,
1000
0001
0100
0010
0100
0001
0010
0001
1000
0100
1000
0010
0100
0010
1000
0001
,
1000
0100
0010
0001
0100
0010
1000
0001
0010
0001
1000
0100
0010
0100
1000
0001
,
0100
0001
0010
0100
1000
0001
0100
0010
1000
0100
0010
0001
1000
0010
0100
0010
,
1000
0001
1000
0001
0010
0100
1000
0001
1000
0010
0100
0001
1000
0010
1000
0100
,
0010
0001
0100
0001
1000
0010
1000
0001
0100
0001
0010
0100
0010
0001
1000
0001
,
0100
0010
1000
0100
0010
0001
1000
0010
1000
0001
0100
0010
0100
0001
1000
0100
,
1000
0000
0000
0010
0000
0000
0100
0000
0000
0001
0000
0000
0010
0000
0100
0000
1000
0000
0001
0000
1000
0000
0010
0000
0100
0000
0000
0001
0000
0000
1000
0000
0000
0001
0000
0000
0010
0000
0000
0100
0000
0000
1000
0000
0000
0001
0000
0000
,
0100
0010
1000
0010
0200
0000
0302
0000
,
1003
0100
1000
0010
1000
0001
0100
0001
0010
0100
0010
0001
0100
0010
1000
0001
,
1000
0100
0010
0001
1000
0001
0100
0010
0100
0001
0010
0001
1000
0100
1000
0001
,
0100
0010
0100
0001
0010
0001
1000
0100
1000
0010
0100
0010
1000
0001
0010
0100
,
2000
0000
3001
0101
0000
0100
0000
0000
,
0010
0000
0000
1000
0000
0000
0100
0000
0000
0010
0000
0000
0001
0000
0000
0100
0000
0000
0010
0000
0000
0100
0001
0100
,
0010
0000
0000
1000
0000
0000
0100
0000
0000
0010
0000
0000
0001
0000
0000
0100
0000
0000
0010
0000
0000
1000
0001
1000
,
0010
0100
0001
0010
0001
1000
0100
1000
0010
0100
0001
0010
0100
1000
0010
0100
,
0002
0000
0000
2003
0000
0000
3002
0000
0000
0023
0000
0000
0230
0000
2300
0000
,
3001
0010
0001
0100
0010
1000
0001
0010
0001
1000
0010
1000
0001
0100
0010
1000
,
0100
1000
0001
0010
0100
1000
0001
0100
0010
0100
0001
1000
0100
1000
0001
0100
,
0001
0010
0100
1000
0001
1000
0010
0100
0010
1000
0001
0100
0001
1000
0100
1000
,
0010
0100
0001
1000
0001
0010
0100
1000
0001
0010
0001
1000
0001
0100
0010
1000
,
0002
0000
0000
0000
,
0000
0000
0000
0000
,
0003
0000
0000
0000
;

//---------------dance-single - ----------------
#NOTES:
     dance-single:
     :
     Hard:
     11:
     0.809,1.000,0.221,0.394,0.542,713.000,32.000,57.000,0.000,9.000:
0000
0000
0000
0000
,
0000
0000
0000
0000
,
2000
0000
0000
0000
,
3002
0000
0000
0000
,
0023
0000
0000
0000
,
0230
0000
0000
0000
,
2300
0000
0000
0000
,
3020
0000
0000
0000
,
0230
0000
0000
0000
,
0302
0000
0000
0000
,
0003
0000
0000
0000
0000
0000
0000
0000
0000
0000
0000
0000
1000
0100
0010
0001
,
1000
0010
1000
0010
1000
0010
0100
0001
,
0010
0100
1000
0100
0010
0001
0100
0001
,
0010
0100
1000
0100
0010
0100
1000
0010
,
0100
0000
0001
0000
0010
0000
0100
0000
1000
0000
0001
0000
0100
0010
1000
0001
,
0010
0100
1000
0100
1000
0100
0010
0001
,
0100
0010
1000
0100
1000
0010
0100
0001
,
0010
0100
0010
0001
0010
0001
1000
0001
,
0100
0000
0010
0000
0100
0000
0001
0000
0100
0000
0010
0000
0100
0001
0010
0100
,
1000
0100
1000
0100
1000
0100
0010
0001
,
0100
0010
1000
0010
0100
0001
0010
0001
,
0100
0010
1000
0010
0100
0010
1000
0100
,
0010
0000
0001
0000
0100
0000
0010
0000
1000
0000
0001
0000
0010
0001
0100
0001
,
1000
0100
0010
0100
1000
0010
0100
0001
,
0011
0010
0100
1000
0010
1000
0001
0010
,
0001
0000
0000
0100
0000
0000
0010
0000
0000
0000
0000
0000
1000
0000
0010
0000
1000
0000
0004
0000
0000
0000
0000
0000
0103
0000
0000
0010
0000
0000
1000
0000
0000
0000
0000
0000
0004
0000
0000
0000
0000
0000
0000
0000
0000
0000
0000
0000
,
1003
0000
0100
0000
0010
0100
0010
0100
1000
0000
0000
0001
0000
0000
0100
0000
,
0110
0000
0000
1111
0000
0000
1111
0000
,
0000
1111
0000
0000
1111
0000
1001
0000
,
1111
0000
0000
1111
0000
0000
1111
0000
,
0000
0000
1111
0000
0000
0000
0000
0000
1111
0000
0000
0001
0000
0000
1000
0000
,
1001
0001
0100
0101
0001
1000
1100
0100
,
0010
0011
0001
1000
1010
0000
0110
0000
,
0001
0100
0010
1000
0100
1000
0010
0100
,
0001
0000
0000
0010
0000
0000
0100
0000
0000
1000
0000
0000
0010
0000
0000
0100
0000
0000
0001
0000
0000
0010
0000
0000
0100
0000
0000
0000
0000
0000
0000
0000
0000
1000
0000
0000
0000
0000
0000
0000
0000
0000
0001
0000
1000
0000
0001
0000
,
0100
0000
0010
0000
1000
0100
0010
0000
0100
1000
0000
0010
0100
0000
0001
1000
,
0010
0000
0000
0000
0000
0000
0100
0000
0000
0000
0000
0000
0001
0000
0000
0010
0000
0000
0100
0000
0000
0000
0000
0000
1000
0000
0010
0000
0100
0000
0001
0000
0000
1000
0000
0000
0100
0000
0000
0000
0000
0000
0010
0000
0000
0000
0000
0000
,
0001
0000
0100
0000
0010
1000
0100
0000
0010
0001
0000
1000
0001
0000
0100
0010
,
1000
0000
0000
0000
0000
0000
0100
0000
0000
0000
0000
0000
1000
0000
0000
0001
0000
0000
0100
0000
0000
0000
0000
0000
0001
0000
1000
0000
0001
0000
0010
0000
0000
0100
0000
0000
0010
0000
0000
0000
0000
0000
0001
0000
0000
0000
0000
0000
,
0100
0000
0010
0000
1000
0001
0010
0000
0100
0010
0000
0001
0100
0000
0010
1000
,
0001
0000
0000
0000
0000
0000
0010
0000
0000
0000
0000
0000
0100
0000
0000
0010
0000
0000
0001
0000
0000
0000
0000
0000
1000
0000
0100
0000
0010
0000
0001
0000
0000
1000
0000
0000
0010
0000
0000
0000
0000
0000
0100
0000
0000
0000
0000
0000
,
0001
0000
0010
0000
0100
0010
0001
0000
0100
0010
0000
1000
0001
0000
0010
0001
,
0100
0000
0000
0000
0000
0000
0010
0000
0000
0000
0000
0000
1000
0000
0000
0001
0000
0000
0010
0000
0000
0000
0000
0000
0001
0000
0010
0000
0001
0000
1000
0000
0000
0010
0000
0000
0100
0000
0000
0000
0000
0000
0001
0000
0000
0000
0000
0000
,
1000
0000
0100
0000
1000
0010
0100
0000
0010
1000
0000
0100
0010
0000
0001
1000
,
0100
0000
0000
0000
0000
0000
0010
0000
0000
0000
0000
0000
0001
0000
0000
0100
0000
0000
0010
0000
0000
0000
0000
0000
1000
0000
0100
0000
0010
0000
0001
0000
0000
1000
0000
0000
0010
0000
0000
0000
0000
0000
0100
0000
0000
0000
0000
0000
,
0001
0000
0010
0000
0100
1000
0010
0000
0100
0001
0000
1000
0001
0000
0010
0100
,
1000
0000
0000
0000
0000
0000
0010
0000
0000
0000
0000
0000
1000
0000
0000
0001
0000
0000
0010
0000
0000
0000
0000
0000
0001
0000
1000
0000
0001
0000
0100
0000
0000
0010
0000
0000
1000
0000
0000
0000
0000
0000
0001
0000
0000
0000
0000
0000
,
0010
0100
1000
0010
1000
0001
0010
0001
,
1001
1000
0010
0100
0010
1000
0100
0010
,
0100
0000
0000
1000
0000
0000
0001
0000
0000
0000
0000
0000
0100
0000
0010
0000
1000
0000
0004
0000
0000
0000
0000
0000
0103
0000
0000
0010
0000
0000
1000
0000
0000
0000
0000
0000
0004
0000
0000
0000
0000
0000
0000
0000
0000
0000
0000
0000
,
0023
0000
0230
0000
2300
0000
3002
0000
0203
0000
0000
0010
0000
0000
0001
0000
,
2300
0000
0000
0000
0000
0000
0000
0000
3200
0000
0000
0320
0000
0000
0032
0000
,
2003
0000
0000
3020
0000
0000
0230
0000
0000
0000
0310
0000
0100
0000
0001
0000
,
2000
0000
0000
0000
0000
0000
3200
0000
0320
0000
0000
0032
0000
0000
2003
0000
,
3020
0030
0000
0000
,
0200
0000
0000
0000
0300
0000
0000
0000
0002
0000
0000
2003
0000
0000
3200
0000
,
0320
0000
0000
0230
0000
0000
2300
0000
0000
0000
3020
0000
0230
0000
0302
0000
,
0023
0000
0000
0032
0000
0000
0203
0000
0320
0000
0000
2030
0000
0000
3200
0000
,
2300
0000
0000
0000
3000
0000
0000
0000
0002
0000
0000
0000
1003
0010
0100
0001
,
1000
0000
0001
0100
0001
0000
1000
0100
1000
0000
0001
0010
0001
0000
1000
0010
,
1000
0000
0001
1000
0001
0000
0010
0100
0010
0000
0100
1000
0100
0000
1000
0010
,
1000
0000
0001
0010
0001
0000
0010
0100
0010
0000
0001
1000
0001
0000
1000
0100
,
1000
0000
0010
0100
0010
0000
0100
0001
0100
0000
0001
1000
0001
0000
0010
0100
,
1000
0000
0000
0000
,
1001
0000
0000
0000
,
1001
0010
0000
0000
1001
0100
0000
0000
,
0001
0000
0000
0000
1000
0000
0000
0000
0001
0100
0001
0000
1000
0001
0010
0100
,
1000
0000
0001
0100
0000
0001
0100
0001
1000
0000
0100
0010
0000
0001
0010
0100
,
2000
0000
0000
3020
0000
0000
0230
0000
0000
0000
0301
1000
0001
0100
0010
1000
,
0001
0000
0010
0000
0100
0000
1000
0000
0000
0001
0000
0000
0100
0000
0000
0001
0000
0000
1000
0000
0000
0100
0000
0000
1000
0000
0010
0000
0100
0000
0001
0000
0000
1000
0000
0000
0100
0000
0000
1000
0000
0000
0001
0000
0000
0100
0000
0000
,
0010
0000
1000
0000
0001
0000
1000
0000
0000
0100
0000
0000
0010
0000
0000
0001
0000
0000
1000
0000
0000
0001
0000
0000
1000
0000
0000
0000
0000
0000
0000
0000
0000
0110
0000
0000
0000
0000
0000
0000
0000
0000
0004
0000
0000
0000
0000
0000
,
1003
0010
1000
0100
1000
0001
0010
0001
,
0100
0001
0010
0100
1000
0001
0100
0010
,
0100
0001
1000
0100
1000
0010
0100
0010
,
1000
0000
0001
0000
0010
0000
0100
0000
1000
0000
0001
0000
0100
0001
0010
0100
,
1000
0001
1000
0010
1000
0001
0100
0001
,
0010
0001
0100
0010
1000
0001
0010
0100
,
0010
0001
1000
0010
1000
0100
0010
0100
,
1000
0000
0001
0000
0100
0000
0010
0000
1000
0000
0001
0000
0010
0001
0100
0010
,
1000
0100
0010
0001
0100
0010
0100
0001
,
0011
0010
0100
1000
0001
1000
0010
0100
,
0001
0000
0000
1000
0000
0000
0100
0010
0100
0040
0000
0000
0031
0000
0000
1000
0000
0000
0040
0000
0000
0000
0000
0000
,
0130
0010
1000
0010
0200
0000
0302
0000
,
1003
0000
0000
0010
0000
0100
0001
1000
0100
0000
0000
0010
0000
0000
0001
0000
,
1000
0000
0000
0010
0000
0000
0100
0000
0000
0000
0001
0000
0100
0000
0010
0000
,
1000
0000
0000
0001
0000
0000
0010
0000
0100
0000
0000
0010
0000
0000
0001
0000
,
2000
0000
3001
0101
0000
0100
0000
0000
,
0010
0000
0000
1000
0000
0000
0100
0000
0000
0010
0000
0000
0001
0000
0000
0100
0000
0000
0010
0000
0000
0100
0001
0100
,
0010
0000
0000
1000
0000
0000
0100
0000
0000
0010
0000
0000
0001
0000
0000
0100
0000
0000
0010
0000
0000
1000
0001
1000
,
0010
0100
0001
0010
0001
1000
0100
1000
0010
0100
0001
0010
0100
1000
0010
0100
,
0002
0000
0000
2003
0000
0000
3002
0000
0000
0023
0000
0000
0230
0000
2300
0000
,
3001
0100
0010
1000
0001
1000
0010
0100
,
0001
0010
0100
0010
0001
0010
0100
1000
,
0010
1000
0001
0100
0001
1000
0010
1000
,
0100
0010
0001
1000
0100
1000
0001
0010
,
0200
0000
0000
0000
,
0000
0000
0000
0000
,
0300
0000
0000
0000
;

//---------------dance-single - ----------------
#NOTES:
     dance-single:
     :
     Medium:
     10:
     0.711,0.838,0.221,0.387,0.283,632.000,32.000,56.000,0.000,0.000:
0000
0000
0000
0000
,
0000
0000
0000
0000
,
2000
0000
0000
0000
,
3002
0000
0000
0000
,
0023
0000
0000
0000
,
0230
0000
0000
0000
,
2300
0000
0000
0000
,
3020
0000
0000
0000
,
0230
0000
0000
0000
,
0302
0000
0000
0000
,
0003
0000
0000
0000
0000
0000
0000
0000
0000
0000
0000
0000
1000
0100
1000
0001
,
1000
0010
1000
0010
1000
0010
0100
0001
,
0010
0100
1000
0100
0010
0001
0100
0001
,
0010
0100
1000
0100
0010
0100
1000
0010
,
0100
0000
0001
0000
0010
0000
0100
0000
1000
0000
0001
0000
0100
0010
1000
0001
,
0010
0100
1000
0100
1000
0100
0010
0001
,
0100
0010
1000
0100
1000
0010
0100
0001
,
0010
0100
0010
0001
0010
0001
1000
0001
,
0100
0000
0010
0000
0100
0000
0001
0000
0100
0000
0010
0000
0100
0001
0010
0100
,
1000
0100
1000
0100
1000
0100
0010
0001
,
0100
0010
1000
0010
0100
0001
0010
0001
,
0100
0010
1000
0010
0100
0010
1000
0100
,
0010
0000
0001
0000
0100
0000
0010
0000
1000
0000
0001
0000
0010
0001
0100
0001
,
1000
0100
0010
0100
1000
0010
0100
0001
,
0011
0010
0100
1000
0010
1000
0001
0010
,
0001
0100
0010
0000
4000
0000
0000
0000
3100
0010
0001
0000
0400
0000
0000
0000
,
0301
0000
0010
0000
0100
0010
0100
0010
0001
0000
0000
1000
0000
0000
0010
0000
,
0110
0000
0000
1001
0000
0000
0110
0000
,
0000
1001
0000
0000
0110
0000
1001
0000
,
0110
0000
0000
1001
0000
0000
0110
0000
,
0000
0000
1001
0000
0000
0000
0000
0000
0110
0000
0000
1000
0000
0000
0001
0000
,
1001
1000
0010
1010
1000
0001
0011
0010
,
0100
1100
1000
0001
0101
0000
0110
0000
,
1000
0010
0100
0001
0010
0001
0100
0010
,
1000
0010
1000
0000
0001
0100
0001
0000
0010
0000
0000
0001
0000
0000
4000
0000
,
3001
0000
0100
0000
0010
0000
1000
0000
0100
0010
0000
0001
0010
0000
0100
1000
,
0001
0000
0100
0000
0010
0000
1000
0000
0001
0100
0001
0100
0001
0000
0010
0000
,
0100
0000
1000
0000
0010
0000
0100
0000
0001
1000
0000
0001
0010
0000
0001
1000
,
0010
0000
0100
0000
0001
0000
1000
0000
0010
0100
0010
0100
0010
0000
1000
0000
,
0001
0000
0010
0000
0100
0000
1000
0000
0001
1000
0000
0010
1000
0000
0001
1000
,
0010
0000
0100
0000
0001
0000
0010
0000
0100
1000
0100
1000
0100
0000
0010
0000
,
0001
0000
0100
0000
0001
0000
1000
0000
0100
0010
0000
0001
0010
0000
0001
0000
,
1000
0000
0010
0000
0100
0001
1000
0000
0100
0000
0010
0000
0100
0000
0010
0000
,
0001
0000
0010
0000
0100
0000
1000
0000
0010
0100
0000
0001
0100
0000
0010
1000
,
0001
0000
0010
0000
0100
0000
1000
0000
0001
0010
0001
0010
0001
0000
0100
0000
,
0010
0000
1000
0000
0100
0000
0010
0000
0001
1000
0000
0001
0100
0000
0001
1000
,
0100
0000
0010
0000
0001
0000
1000
0000
0100
0010
0100
0010
0100
0000
1000
0000
,
0001
0010
0001
0100
0001
1000
0100
1000
,
1001
0001
0100
0010
0100
0001
0010
0100
,
0010
0001
1000
0000
0004
0000
0000
0000
0013
0100
1000
0000
0400
0000
0000
0000
,
0320
0000
0230
0000
2300
0000
3002
0000
0203
0000
0000
0320
0000
0000
2030
0000
,
3002
0000
0000
0000
0000
0000
0000
0000
0023
0000
0000
0230
0000
0000
2300
0000
,
3002
0000
0000
0203
0000
0000
0320
0000
0000
0000
0130
0000
0010
0000
1000
0000
,
0002
0000
0000
0000
0000
0000
0023
0000
0230
0000
0000
2300
0000
0000
3002
0000
,
0203
0300
0000
0000
,
0020
0000
0000
0000
0030
0000
0000
0000
2000
0000
0000
3002
0000
0000
0023
0000
,
0230
0000
0000
0320
0000
0000
0032
0000
0000
0000
0203
0000
0320
0000
2030
0000
,
3200
0000
0000
2300
0000
0000
3020
0000
0230
0000
0000
0302
0000
0000
0023
0000
,
0032
0000
0000
0000
0003
0000
0000
0000
2000
0000
0000
0000
3001
0100
0001
1000
,
0001
0100
0010
1000
0001
0010
0100
1000
,
0001
0010
0001
1000
0001
0100
0010
0100
,
0001
0010
0100
1000
0010
1000
0001
0100
,
0001
0010
0001
1000
0100
0010
0100
1000
,
0001
0000
0000
0000
,
1001
0000
0000
0000
,
1001
0100
0000
0000
1001
0010
0000
0000
,
1000
0000
0000
0000
0001
0000
0000
0000
1000
0010
1000
0000
0001
1000
0100
0010
,
0001
0000
0000
1000
0000
0000
0010
0000
0100
0000
0000
0001
0000
0000
0010
0000
,
0100
0000
0000
1000
0000
0000
0001
0000
0000
0000
0100
0000
0010
0000
1000
0000
,
0001
0010
0001
0000
1000
0000
0001
0000
0100
0010
0100
0000
0001
0000
1000
0000
,
0100
1000
0100
0000
0010
0000
0001
0000
1000
0000
0000
0010
0000
0000
0400
0000
,
0301
0010
0001
0100
0001
1000
0010
1000
,
0100
1000
0010
0100
0001
1000
0100
0010
,
0100
1000
0001
0100
0001
0010
0100
0010
,
0001
0000
1000
0000
0010
0000
0100
0000
0001
0000
1000
0000
0100
1000
0010
0100
,
0001
1000
0001
0010
0001
1000
0100
1000
,
0010
1000
0100
0010
0001
1000
0010
0100
,
0010
1000
0001
0010
0001
0100
0010
0100
,
0001
0000
1000
0000
0100
0000
0010
0000
0001
0000
1000
0000
0010
1000
0100
0010
,
0001
0100
0010
1000
0100
0010
0100
1000
,
1010
0010
0100
0001
1000
0001
0010
0100
,
1000
0001
0040
0000
0130
1000
0004
0000
,
0103
0010
1000
0010
0200
0000
0302
0000
,
1003
0000
0000
0010
0000
0100
0001
1000
0100
0000
0000
0010
0000
0000
0001
0000
,
1000
0000
0000
0010
0000
0000
0100
0000
0000
0000
0001
0000
0100
0000
0010
0000
,
1000
0000
0000
0001
0000
0000
0010
0000
0100
0000
0000
0010
0000
0000
0001
0000
,
2000
0000
3001
0101
0000
0100
0000
0000
,
0010
0000
1000
0000
0100
0000
0010
0000
0001
0000
0100
0000
0010
0000
0100
0001
,
1000
0000
0001
0000
0010
0000
0100
0000
1000
0000
0010
0000
0100
0000
0001
1000
,
0010
0100
0001
0010
0100
1000
0010
0100
,
0002
0000
0000
2003
0000
0000
3002
0000
0000
0023
0000
0000
0230
0000
2300
0000
,
3001
0100
0010
1000
0001
1000
0010
0100
,
0001
0010
0100
0010
0001
0010
0100
1000
,
0010
1000
0001
0100
0001
1000
0010
1000
,
0100
0010
0001
1000
0100
1000
0001
0010
,
0200
0000
0000
0000
,
0000
0000
0000
0000
,
0300
0000
0000
0000
;
