#TITLE:Aloha E' Komo Mai;
#SUBTITLE:;
#ARTIST:Jump 5;
#TITLETRANSLIT:;
#SUBTITLETRANSLIT:;
#ARTISTTRANSLIT:;
#CREDIT:Arch0wl;
#BANNER:alohaekomomai-bn.png;
#BACKGROUND:alohaekomomai-bg.png;
#LYRICSPATH:;
#CDTITLE:!Arch0wlTitle.png;
#MUSIC:alohaekomomai.ogg;
#OFFSET:-0.132;
#SAMPLESTART:39.383;
#SAMPLELENGTH:17.658;
#SELECTABLE:YES;
#BPMS:0.000=107.000;
#STOPS:;
#BGCHANGES:0.000=alohaekomomai-bg.png=1.000=0=0=1,
99999=-nosongbg-=1.000=0=0=0 // don't automatically add -songbackground-
;
// cache tags:
#FIRSTBEAT:2.000;
#LASTBEAT:251.167;
#SONGFILENAME:Songs/Archmage and Dark0wl Hammer of Thor UltraHyperMegaPack/Aloha E' Komo Mai/alohaekomomai.sm;
#HASMUSIC:1;
#HASBANNER:1;
#MUSICLENGTH:105.000;
// end cache tags

//---------------dance-single - Arch0wl----------------
#NOTES:
     dance-single:
     Arch0wl:
     Hard:
     9:
     0.876,0.927,0.714,0.543,1.000,511.000,75.000,57.000,0.000,2.000:
0000
0000
0000
0000
0000
0000
0000
0000
0001
0000
0010
0000
0100
0000
0010
0100
,
1000
0010
0000
0010
0000
0000
0000
0000
1000
0000
0001
0100
0001
0010
0100
0000
,
2020
0000
3030
1010
0000
0000
0000
0000
0100
0000
0001
0000
0100
0000
0010
1000
,
0100
1000
0000
0001
0000
0000
0000
0100
0010
0000
0100
0010
1000
0100
0000
0100
,
0000
0000
0000
0000
0000
0000
1000
0000
0010
0000
1000
0000
0100
0000
0000
0010
,
0000
0010
0000
0001
1000
0000
0000
0000
0000
1000
0000
0010
0100
0010
0000
1000
,
0000
0000
0000
0100
0000
0000
0000
0000
0000
1000
0000
0000
0000
0000
0000
0000
0000
0000
0000
0000
0000
0000
0000
0000
0101
0000
0000
0000
0101
0000
0000
0000
0101
0000
0000
0000
0110
0000
0000
0000
0110
0000
0000
0000
0110
0000
0000
0000
,
1010
0000
0000
0000
1010
0000
0000
0000
1010
0000
0000
0000
1001
0000
0000
0000
0000
0000
1001
0000
0000
0000
0000
0000
0010
0000
0000
0000
0000
0000
1000
0000
0000
0100
0000
0000
0000
0000
0000
1000
0000
0000
0000
0000
0000
0001
0000
0000
,
0000
0010
0000
0001
0000
0000
0000
0000
0100
0000
0010
0000
0100
0000
0001
0000
,
1000
0100
0000
0100
0000
0000
0000
0000
0010
0001
0000
0001
0000
0100
0000
0100
,
0000
0010
0000
0010
0000
0000
0000
0000
1000
0000
0001
0000
1000
0000
0100
0000
,
0010
0100
0000
0100
0000
0000
1000
0000
0110
0000
0110
0110
0000
0110
0000
0110
,
0000
0000
0000
0000
0000
0000
0100
0000
0002
0000
0000
0000
0000
0000
0000
2003
,
0000
0000
0000
0000
0000
0000
3000
0000
0000
0000
0000
0000
0002
0003
0000
0000
0020
0030
0000
0000
0200
0300
0020
0030
0000
0000
0002
0003
0000
0000
2000
3000
,
0000
0000
0200
0300
0000
0000
2000
3000
0000
0000
0000
0000
0010
0000
0000
0000
0200
0000
0000
0000
0000
0000
0000
0000
0000
0000
0000
0000
0000
0000
0302
0000
,
0000
0000
0000
0000
0000
0000
0003
0000
0000
0000
0000
0000
2000
3000
0000
0000
0020
0030
0000
0000
2000
3000
0200
0300
0000
0000
0020
0030
0000
0000
0002
0003
,
0000
0000
0200
0300
0000
0000
0002
0003
0000
0000
0000
0000
0000
0000
0000
0000
1001
0000
0000
0000
1001
0000
0000
0000
1001
0000
1001
0000
0000
0000
1001
0000
,
0000
0001
0000
0001
0010
0100
1000
0000
0001
0000
0010
0000
0100
0000
0010
0100
,
1000
0010
0000
0010
0000
0000
0000
0000
1000
0000
0001
0100
0001
0010
0100
0000
,
2020
0000
3030
1010
0000
0000
0000
0000
0100
0000
0001
0000
0100
0000
0010
1000
,
0100
1000
0000
0001
0000
0000
0000
0100
0010
0000
0100
0010
1000
0100
0000
0100
,
0000
0000
0010
0001
0010
0001
0000
0000
1000
0000
0010
0000
1000
0000
0001
0100
,
0010
0100
0000
0001
0000
0000
0000
0000
0010
0000
0010
0100
1000
0001
0100
0000
,
2020
0000
3030
1010
0000
0000
0000
0000
0100
0000
0001
0000
0100
0000
0010
1000
,
0100
0010
0000
0010
0000
0000
0000
1000
0010
0000
0001
0010
0100
1000
0000
1000
,
0000
0000
0000
0000
0000
0000
0001
0000
0010
0000
0100
0000
0010
0000
0000
0001
,
0000
0001
0000
1000
0100
0010
0000
0000
0000
0100
0000
1000
0100
0000
0010
0000
,
0001
0000
0000
0010
0000
0000
0000
0000
0000
0010
0000
0000
0000
0000
0000
0000
0000
0000
0000
0000
0000
0000
0000
0000
0101
0000
0000
0000
0101
0000
0000
0000
0101
0000
0000
0000
0110
0000
0000
0000
0110
0000
0000
0000
0110
0000
0000
0000
,
1010
0000
1010
0000
1010
0000
1001
0000
0000
1001
0000
0000
0000
0000
0000
0001
0000
0000
0100
0000
0000
0010
0000
0000
,
1000
0100
0000
0100
0000
0000
0000
0000
1000
0000
0010
0000
1000
0000
0100
0000
,
1000
0000
0000
0010
0000
0000
0000
0000
0000
0100
0000
0000
0000
0000
0000
0100
0000
0000
0000
0000
0000
0000
0000
0000
0000
0000
0000
0000
0001
0000
0000
0000
0000
0010
0000
0000
0001
0000
0000
0000
0000
0000
0010
0000
0000
0000
0000
0000
,
0100
1000
0000
1000
0000
0000
0000
0000
0010
0000
0100
0000
0010
0000
0100
0000
,
0010
0000
0000
1000
0000
0000
0000
0000
0000
1000
0000
0000
0000
0000
0000
0000
0000
0000
0110
0000
0000
0000
0000
0000
0110
0000
0000
0000
0110
0000
0000
0000
0000
0110
0000
0000
0000
0000
0000
0110
0000
0000
0000
0000
0000
0110
0000
0000
,
0000
0000
0000
0000
0000
0000
0010
0000
2000
0000
0000
0000
0000
0000
0000
3002
,
0000
0000
0000
0000
0000
0000
0003
0000
0000
0000
0000
0000
2000
3000
0000
0000
0200
0300
0000
0000
0020
0030
0200
0300
0000
0000
2000
3000
0000
0000
0002
0003
,
0000
0000
0020
0030
0000
0000
0002
0003
0000
0000
0000
0000
0100
0000
0000
0000
0020
0000
0000
0000
0000
0000
0000
0000
0000
0000
0000
0000
0000
0000
2030
0000
,
0000
0000
0000
0000
0000
0000
3000
0000
0000
0000
0000
0000
0002
0003
0000
0000
0200
0300
0000
0000
0002
0003
0020
0030
0000
0000
0200
0300
0000
0000
2000
3000
,
0000
0000
0020
0030
0000
0000
2000
3000
0000
0000
0000
0000
0000
0000
0000
0000
1001
0000
0000
0000
1001
0000
0000
0000
1001
0000
1001
0000
0000
0000
1001
0000
,
0000
1000
0000
1000
0100
0010
0001
0000
1000
0000
0100
0000
0010
0000
0100
0010
,
0001
0100
0000
0100
0000
0000
0000
0000
0001
0000
1000
0010
1000
0100
0010
0000
,
0202
0000
0303
0101
0000
0000
0000
0000
0010
0000
1000
0000
0010
0000
0100
0001
,
0010
0001
0000
1000
0000
0000
0000
0010
0100
0000
0010
0100
0001
0010
0000
0010
,
0000
0010
0100
1000
0100
1000
0000
0000
0001
0000
0100
0000
0001
0000
1000
0010
,
0100
0010
0000
1000
0000
0000
0000
0000
0100
0000
0100
0010
0001
1000
0010
0000
,
0202
0000
0303
0101
0000
0000
0000
0000
0010
0000
1000
0000
0010
0000
0100
0001
,
0010
0100
0000
0100
0000
0000
0000
0001
0100
0000
1000
0100
0010
0001
0000
0100
,
0000
0000
0000
0000
0000
0000
0000
1000
0100
0000
0001
0010
0100
1000
0000
1000
,
0000
0000
0000
0000
0000
0000
0000
0000
0000
0020
0000
0000
0030
0000
0000
0000
,
0200
0000
0300
0000
0000
0002
0000
0000
0000
0000
0000
0000
0003
0000
0000
0000
,
1000
0010
1000
0010
1010
0000
1001
0000
0001
0010
0001
0010
0011
0000
1001
0000
,
1000
0100
1000
0100
1100
0000
1001
0000
0001
0100
0001
0100
0101
0000
1001
0000
,
1000
0100
1000
0010
1000
0001
1000
0000
0001
0010
0001
0100
0001
1000
0001
0000
,
1000
1000
0001
0001
0100
0100
0010
0010
0110
0110
1010
1010
1001
1001
1001
0000
,
1000
0000
0100
0000
0010
0000
0100
0010
0001
0100
0000
0100
0000
0000
0000
0000
,
0001
0000
1000
0010
1000
0100
0010
0000
0202
0000
0303
0101
0000
0000
0000
0000
,
0010
0000
1000
0000
0010
0000
0100
0001
0010
0001
0000
1000
0000
0000
0000
0010
,
0100
0000
0010
0100
0001
0010
0000
0010
0100
0100
1000
1000
0001
0001
0001
0000
,
1000
0000
0010
0000
1000
0000
0001
0100
0010
0100
0000
0001
0000
0000
0000
0000
,
0010
0000
0010
0100
1000
0001
0100
0000
1010
0100
0001
0000
1010
0100
0001
0000
,
0001
0000
0001
0000
0100
0000
0010
1000
0100
0010
0000
0010
0000
0000
0000
1000
,
0010
0000
0001
0010
0100
1000
0000
0010
0100
0001
0100
0001
0101
0000
1100
1000
,
0100
0000
0001
0010
0100
1000
0000
1000
0000
0001
0100
0010
0100
0010
0000
0001
,
0010
0000
0000
0000
0000
0000
1000
0000
0000
0100
0000
0000
0010
0000
0000
0001
0000
0000
0000
0000
0000
0122
0000
0000
0000
0000
0000
0000
0000
0000
0000
0000
0000
0000
0000
0000
0000
0000
1033
0000
0000
0000
0000
0000
0000
0000
0000
0000
;
