#TITLE:Sexy and I Know It;
#SUBTITLE:Sexuality Violation;
#ARTIST:LMFAO;
#TITLETRANSLIT:;
#SUBTITLETRANSLIT:;
#ARTISTTRANSLIT:;
#CREDIT:;
#BANNER:Sexy and I Know It-bn.png;
#BACKGROUND:Sexy and I Know It-bg.png;
#LYRICSPATH:;
#CDTITLE:GazeboCD.png;
#MUSIC:Sexy and I Know It.ogg;
#OFFSET:-0.074;
#SAMPLESTART:58.006;
#SAMPLELENGTH:15.500;
#SELECTABLE:YES;
#BPMS:0.000=260.000;
#STOPS:;
#BGCHANGES:;
// cache tags:
#FIRSTBEAT:29.000;
#LASTBEAT:832.000;
#SONGFILENAME:Songs/Sexuality Violation 2/Sexy and I Know It - [Gazebo]/Sexy and I Know It.sm;
#HASMUSIC:1;
#HASBANNER:1;
#MUSICLENGTH:197.250;
// end cache tags

//---------------dance-single - Gazebo----------------
#NOTES:
     dance-single:
     Gazebo:
     Challenge:
     14:
     0.977,1.000,0.172,0.674,0.634,1173.000,34.000,133.000,63.000,0.000:

0000
0000
0000
0000
,
0000
0000
0000
0000
,
0000
0000
0000
0000
,
0000
0000
0000
0000
,
0000
0000
0000
0000
,
0000
0000
0000
0000
,
0000
0000
0000
0000
,
0000
00MM
MM00
0000
,
1000
0000
0000
1000
0001
0000
0010
0000
,
0100
0000
0000
0100
1000
0000
0001
0000
,
0100
0000
0000
0100
0010
0000
1000
0000
,
0001
0000
0000
0001
1000
0000
0100
0000
,
0010
0000
0000
0010
0001
0000
1000
0000
,
0100
0000
0000
0100
0010
0000
0002
0000
,
0003
0000
1000
0000
,
0000
0000
1000
0020
,
0130
0000
0000
0100
0001
0000
1000
0100
,
0010
0001
0000
0001
1000
0000
0010
0000
,
0100
0000
0001
0000
0100
0010
1000
0000
,
1000
0000
0001
0010
0000
0000
0100
0000
,
1000
0000
0000
1000
0001
0100
0010
0000
,
0010
0000
1000
0001
0000
0000
0010
0000
,
0100
1000
0100
1000
0001
0000
0100
0010
,
1000
0000
0001
0100
0000
0000
0020
0000
,
1030
0000
0000
1000
0001
0000
0010
0100
,
0010
0001
0000
0001
1000
0000
0010
0000
,
0100
0001
1000
0000
1000
0000
0001
0000
,
0010
0000
0100
1000
0000
0000
0001
0000
,
0100
0010
1000
0000
1000
0000
0001
0010
,
0001
1000
0000
1000
0010
0000
0100
0001
,
1000
1000
0001
0001
,
0010
0000
0100
0010
0000
0000
0002
0000
,
4003
0000
3001
0100
,
0010
1000
0010
0000
1000
0000
0001
0000
,
0040
0000
0130
1000
,
0001
1000
0001
0000
1000
0000
0010
0000
,
0400
0000
0301
1000
,
0100
0010
0100
0000
0010
0000
0001
0000
,
1000
0000
0001
1000
0000
0010
0100
0000
,
0200
0000
0301
1000
,
0004
0000
1003
0100
,
0010
0001
0010
0000
0001
0000
1000
0000
,
0040
0000
0130
0001
,
1000
0001
1000
0000
0001
0000
0010
0000
,
0400
0000
1300
0001
,
0100
0010
0100
0000
0010
0000
1000
0000
,
0001
0000
1000
0001
0000
0010
0100
0000
,
0200
0000
1300
1000
,
0001
0100
0001
0100
,
0010
1000
0010
1000
,
0001
0010
0001
0010
,
0100
1000
0100
1000
,
0001
0100
0001
0100
,
0010
1000
0010
1000
,
0001
0010
0001
0010
,
0100
1000
0100
1000
,
0001
0100
0001
1000
0010
1000
0100
0010
,
0001
0100
0001
1000
0010
1000
0100
1000
,
0001
0010
0001
1000
0100
1000
0010
0100
,
0001
0010
0001
1000
0100
1000
0010
1000
,
0001
0100
0001
1000
0010
1000
0100
0010
,
0001
0100
0001
1000
0100
0010
0001
1000
,
0000
0000
0000
0000
,
MMMM
0000
0000
0000
,
1000
0001
0100
0001
0100
0010
1000
0001
2000
0000
0000
0000
3200
0000
0000
0000
,
0310
0001
1000
0001
0010
0100
1000
0001
2000
0000
0000
0000
3002
0000
0000
0000
,
0103
0010
0100
0001
1000
0001
0100
0010
2000
0000
0000
0000
3200
0000
0000
0000
,
1300
0001
0010
0100
0010
0001
1000
0001
2000
0000
0000
0000
3002
0000
0000
0000
,
1003
0010
1000
0001
0100
0001
0100
0010
2000
0000
0000
0000
3002
0000
0000
0000
,
0013
0100
1000
0100
1000
0001
0010
0100
2000
0000
0000
0000
3002
0000
0000
0000
,
0103
0010
0100
0001
1000
0001
0100
0010
2000
0000
0000
0000
3200
0000
0000
0000
,
1300
0001
0010
0001
1000
0100
0010
0001
0020
0000
0000
0000
0230
0000
0000
0000
,
1300
0001
1000
0001
0100
0010
1000
0001
2000
0000
0000
0000
3200
0000
0000
0000
,
0310
0001
0010
0001
1000
0100
0010
0001
2000
0000
0000
0000
3002
0000
0000
0000
,
1003
0010
0100
0010
1000
0001
1000
0010
2000
0000
0000
0000
3002
0000
0000
0000
,
1003
0100
1000
0001
0010
0100
1000
0001
2000
0000
0000
0000
3002
0000
0000
0000
,
0103
0010
0100
0010
1000
0001
0100
0010
2000
0000
0000
0000
3002
0000
0000
0000
,
0013
0100
0010
0001
1000
0100
1000
0001
2000
0000
0000
0000
3002
0000
0000
0000
,
0403
0000
0000
0300
0000
0000
0400
0000
0340
0000
0000
0000
4030
0000
0000
0000
,
3000
0000
0000
0000
,
1000
0100
1000
0001
0010
0001
0010
0100
2000
0000
0000
0000
3002
0000
0000
0000
,
0103
0010
0100
0001
1000
0010
0100
0010
2000
0000
0000
0000
3002
0000
0000
0000
,
1003
0100
1000
0001
0010
0100
1000
0001
2000
0000
0000
0000
3020
0000
0000
0000
,
0130
0001
1000
0010
1000
0001
0100
0001
0200
0000
0000
0000
0302
0000
0000
0000
,
1003
0100
0010
0100
1000
0001
0010
0001
0020
0000
0000
0000
0230
0000
0000
0000
,
1300
0001
1000
0001
0100
0010
1000
0010
2000
0000
0000
0000
3002
0000
0000
0000
,
0003
0000
0000
0000
,
0000
0000
0000
0000
,
0001
0100
0001
1000
0010
1000
0010
0100
0002
0000
0000
0000
2003
0000
0000
0000
,
3100
0010
0100
1000
0001
0010
0100
0010
0002
0000
0000
0000
2003
0000
0000
0000
,
3001
0100
0010
1000
0010
1000
0001
0100
0002
0000
0000
0000
0023
0000
0000
0000
,
0130
1000
0100
1000
0001
0010
0100
1000
0200
0000
0000
0000
2300
0000
0000
0000
,
3001
0100
0010
0100
0001
1000
0010
1000
0020
0000
0000
0000
0230
0000
0000
0000
,
0301
1000
0001
1000
0100
0010
0001
0010
0002
0000
0000
0000
2003
0000
0000
0000
,
3000
0000
0000
0000
,
0000
0000
0000
0000
,
0004
0000
1003
0010
,
0100
0001
0100
0000
0001
0000
1000
0000
,
0400
0000
0310
0001
,
1000
0001
1000
0000
0001
0000
0100
0000
,
0040
0000
1030
0001
,
0010
0100
0010
0000
0100
0000
1000
0000
,
0001
0000
1000
0001
0000
0100
0010
0000
,
0020
0000
1030
0001
,
4000
0000
3001
0010
,
0100
1000
0100
0000
1000
0000
0001
0000
,
0400
0000
0310
1000
,
0001
1000
0001
0000
1000
0000
0100
0000
,
0040
0000
0031
1000
,
0010
0100
0010
0000
0100
0000
0001
0000
,
1000
0000
0001
1000
0000
0100
0010
0000
,
0020
0000
0000
0000
0031
1000
0010
0000
,
1000
0010
1000
0010
,
0100
0001
0100
0001
,
1000
0100
1000
0100
,
0010
0001
0010
0001
,
1000
0010
1000
0010
,
0100
0001
0100
0001
,
1000
0100
1000
0100
,
0010
0001
0010
0001
,
1000
0010
1000
0001
0100
0001
0010
0100
,
1000
0010
1000
0001
0100
0001
0010
0001
,
1000
0100
1000
0001
0010
0001
0100
0010
,
1000
0100
1000
0001
0010
0001
0100
0001
,
1000
0010
1000
0001
0100
0001
0010
0100
,
1000
0010
1000
0001
0010
0100
1000
0001
,
0000
0000
0000
0000
,
MMMM
0000
0000
0000
,
0001
1000
0010
1000
0010
0100
0001
1000
0002
0000
0000
0000
0023
0000
0000
0000
,
0130
1000
0001
1000
0100
0010
0001
1000
0002
0000
0000
0000
4MM3
0000
0000
0000
,
3010
0100
0010
1000
0001
1000
0010
0100
0002
0000
0000
0000
0023
0000
0000
0000
,
0031
1000
0100
0010
0100
1000
0001
1000
0002
0000
0000
0000
4MM3
0000
0000
0000
,
3001
0100
0010
1000
0010
1000
0001
0100
0002
0000
0000
0000
2003
0000
0000
0000
,
3100
0010
0001
0010
0001
1000
0100
0010
0002
0000
0000
0000
4MM3
0000
0000
0000
,
3010
0100
0010
1000
0001
1000
0010
0100
0002
0000
0000
0000
0023
0000
0000
0000
,
0031
1000
0100
1000
0001
0010
0100
1000
0200
0000
0000
0000
M34M
0000
0000
0000
,
0031
1000
0001
1000
0010
0100
0001
1000
0002
0000
0000
0000
0023
0000
0000
0000
,
0130
1000
0100
1000
0001
0010
0100
1000
0002
0000
0000
0000
4MM3
0000
0000
0000
,
3001
0100
0010
0100
0001
1000
0001
0100
0002
0000
0000
0000
2003
0000
0000
0000
,
3001
0010
0100
1000
0100
1000
0001
0010
0002
0000
0000
0000
4MM3
0000
0000
0000
,
3010
0100
0001
0100
0001
1000
0010
0100
0002
0000
0000
0000
2003
0000
0000
0000
,
3100
0010
0100
1000
0001
0010
0001
1000
0002
0000
0000
0000
4MM3
0000
0000
0000
,
3040
0000
0000
0030
0000
0000
0040
0000
0430
0000
0000
0000
0304
0000
0000
0000
,
0003
0000
0000
0000
,
1000
0100
0010
0100
1000
0100
0010
0100
,
1000
0001
0000
2002
0000
0000
3MM3
0000
,
0001
0100
0010
0100
0001
0100
0010
0100
,
0001
1000
0000
2002
0000
0000
3MM3
0000
,
0001
0010
0100
0010
0001
0010
0100
0010
,
0001
1000
0000
2002
0000
0000
3MM3
0000
,
1000
0010
0100
0010
1000
0001
1000
0000
,
2002
3003
0000
2002
0000
0000
3MM3
0000
,
1000
0010
1000
0001
0100
0001
0100
0010
2000
0000
0000
0000
3002
0000
0000
0000
,
0013
0100
0010
0001
1000
0100
0010
0100
2000
0000
0000
0000
3MM4
0000
0000
0000
,
1003
0010
0100
0001
0100
0001
1000
0010
2000
0000
0000
0000
3200
0000
0000
0000
,
0310
0001
0010
0001
1000
0100
0010
0001
0020
0000
0000
0000
MM34
0000
0000
0000
,
1003
0010
0100
0010
1000
0001
0100
0001
0200
0000
0000
0000
0320
0000
0000
0000
,
1030
0001
1000
0001
0010
0100
1000
0100
2000
0000
0000
0000
3MM4
0000
0000
0000
,
1003
0010
1000
0010
0100
0001
1000
0010
2000
0000
0000
0000
3002
0000
0000
0000
,
0013
0100
0010
0001
1000
0001
1000
0100
2000
0000
0000
0000
3M4M
0000
0000
0000
,
1030
0001
0100
0001
0100
0010
1000
0001
2000
0000
0000
0000
3200
0000
0000
0000
,
0310
0001
1000
0001
0010
0100
1000
0001
2000
0000
0000
0000
3002
0000
0000
0000
,
0103
0010
0100
0001
1000
0001
0100
0010
2000
0000
0000
0000
3200
0000
0000
0000
,
1300
0001
0010
0100
0010
0001
1000
0001
2000
0000
0000
0000
3002
0000
0000
0000
,
1003
0010
0100
0001
0100
0001
1000
0010
2000
0000
0000
0000
3002
0000
0000
0000
,
0013
0100
1000
0100
1000
0001
0010
0100
2000
0000
0000
0000
3002
0000
0000
0000
,
0103
0010
0100
0001
1000
0001
0100
0010
2000
0000
0000
0000
3200
0000
0000
0000
,
1300
0001
0010
0001
1000
0100
0010
0001
0020
0000
0000
0000
0230
0000
0000
0000
,
1300
0001
1000
0001
0100
0010
1000
0001
2000
0000
0000
0000
3200
0000
0000
0000
,
0310
0001
0010
0001
1000
0100
0010
0001
2000
0000
0000
0000
3002
0000
0000
0000
,
1003
0010
0100
0010
1000
0001
1000
0010
2000
0000
0000
0000
3002
0000
0000
0000
,
1003
0100
0010
0001
0010
0001
1000
0100
2000
0000
0000
0000
3002
0000
0000
0000
,
0103
0010
1000
0010
1000
0001
0100
0010
2000
0000
0000
0000
3002
0000
0000
0000
,
0013
0100
0010
0001
1000
0100
1000
0001
2000
0000
0000
0000
3002
0000
0000
0000
,
0103
0000
0000
0100
0010
0000
1000
0000
,
0001
0100
0000
0001
1000
0100
0010
0001
,
4000
0000
3001
0100
,
0010
1000
0010
0000
1000
0000
MMM1
0000
,
0040
0000
0130
1000
,
0001
1000
0001
0000
1000
0000
MM1M
0000
,
0400
0000
0301
1000
,
0100
0010
0100
0000
0010
0000
MMM1
0000
,
1000
0000
0001
1000
0000
0010
0100
0000
,
0200
0000
0301
1MMM
,
0004
0000
1003
0100
,
0010
0001
0010
0000
0001
0000
1MMM
0000
,
0040
0000
0130
0001
,
1000
0001
1000
0000
0001
0000
MM1M
0000
,
0400
0000
1300
0001
,
0100
0010
0100
0000
0010
0000
1MMM
0000
,
0001
0000
1000
0001
0000
0010
0100
0000
,
0200
0000
0300
0000
,
1000
0000
0000
1000
0001
0000
0100
0000
,
0010
1000
0000
0010
1000
0000
0100
0000
,
0010
0000
0000
0010
0001
0000
1000
0000
,
0010
0100
0000
0010
0100
0000
0001
0000
,
1000
0000
0000
1000
0100
0000
0010
0000
,
0001
1000
0000
0001
1000
0000
0010
0000
,
0100
0000
0000
0100
0001
0000
0010
0000
,
0100
1000
0000
0100
1000
0000
0010
0000
,
0100
0000
0000
0100
0001
0000
1000
0000
,
0100
0010
0000
0100
0010
0000
0001
0000
,
1000
0000
0000
1000
0001
0000
0100
0000
,
0010
1000
0000
0010
1000
0000
0100
0000
,
0010
0000
0000
0010
0001
0000
1000
0000
,
0010
0100
0000
0010
0100
0000
0001
0000
,
1000
0000
0000
1000
0001
0000
0010
0000
,
0100
1000
0000
0100
1000
0000
0001
0000
,
1001
0000
0000
0000
;

//---------------dance-single - Gazebo----------------
#NOTES:
     dance-single:
     Gazebo:
     Hard:
     11:
     0.887,1.000,0.172,0.674,0.634,1049.000,34.000,133.000,63.000,0.000:
0000
0000
0000
0000
,
0000
0000
0000
0000
,
0000
0000
0000
0000
,
0000
0000
0000
0000
,
0000
0000
0000
0000
,
0000
0000
0000
0000
,
0000
0000
0000
0000
,
0000
00MM
MM00
0000
,
1000
0000
0000
1000
0001
0000
0010
0000
,
0100
0000
0000
0100
1000
0000
0001
0000
,
0100
0000
0000
0100
0010
0000
1000
0000
,
0001
0000
0000
0001
1000
0000
0100
0000
,
0010
0000
0000
0010
0001
0000
1000
0000
,
0100
0000
0000
0100
0010
0000
0002
0000
,
0003
0000
1000
0000
,
0000
0000
1000
0020
,
0130
0000
0000
0100
0001
0000
1000
0100
,
0010
0001
0000
0001
1000
0000
0010
0000
,
0100
0000
0001
0000
0100
0010
1000
0000
,
1000
0000
0001
0010
0000
0000
0100
0000
,
1000
0000
0000
1000
0001
0100
0010
0000
,
0010
0000
1000
0001
0000
0000
0010
0000
,
0100
1000
0100
1000
0001
0000
0100
0010
,
1000
0000
0001
0100
0000
0000
0020
0000
,
1030
0000
0000
1000
0001
0000
0010
0100
,
0010
0001
0000
0001
1000
0000
0010
0000
,
0100
0001
1000
0000
1000
0000
0001
0000
,
0010
0000
0100
1000
0000
0000
0001
0000
,
0100
0010
1000
0000
1000
0000
0001
0010
,
0001
1000
0000
1000
0010
0000
0100
0001
,
1000
1000
0001
0001
,
0010
0000
0100
0010
0000
0000
0002
0000
,
4003
0000
3001
0100
,
0010
1000
0010
0000
1000
0000
0001
0000
,
0040
0000
0130
1000
,
0001
1000
0001
0000
1000
0000
0010
0000
,
0400
0000
0301
1000
,
0100
0010
0100
0000
0010
0000
0001
0000
,
1000
0000
0001
1000
0000
0010
0100
0000
,
0200
0000
0301
1000
,
0004
0000
1003
0100
,
0010
0001
0010
0000
0001
0000
1000
0000
,
0040
0000
0130
0001
,
1000
0001
1000
0000
0001
0000
0010
0000
,
0400
0000
1300
0001
,
0100
0010
0100
0000
0010
0000
1000
0000
,
0001
0000
1000
0001
0000
0010
0100
0000
,
0200
0000
1300
1000
,
0001
0100
0001
0100
,
0010
1000
0010
1000
,
0001
0010
0001
0010
,
0100
1000
0100
1000
,
0001
0100
0001
0100
,
0010
1000
0010
1000
,
0001
0010
0001
0010
,
0100
1000
0100
1000
,
0001
0100
0001
1000
0010
1000
0100
0010
,
0001
0100
0001
1000
0010
1000
0100
1000
,
0001
0010
0001
1000
0100
1000
0010
0100
,
0001
0010
0001
1000
0100
1000
0010
1000
,
0001
0100
0001
1000
0010
1000
0100
0010
,
0001
0100
0001
1000
0100
0010
0001
1000
,
0000
0000
0000
0000
,
MMMM
0000
0000
0000
,
1000
0001
0100
0001
0100
0010
2000
0000
0000
3200
0000
0000
,
0310
0001
0010
0001
1000
0010
2000
0000
0000
3002
0000
0000
,
0103
0010
0100
0001
1000
0100
2000
0000
0000
3200
0000
0000
,
1300
0001
0010
0001
1000
0010
2000
0000
0000
3002
0000
0000
,
1003
0010
0100
0001
1000
0100
2000
0000
0000
3002
0000
0000
,
0013
0100
1000
0001
0100
0001
2000
0000
0000
3002
0000
0000
,
0103
0010
1000
0001
1000
0100
2000
0000
0000
3200
0000
0000
,
1300
0001
0100
0001
1000
0001
0020
0000
0000
0230
0000
0000
,
1300
0001
0010
0001
1000
0010
2000
0000
0000
3200
0000
0000
,
1300
0001
0100
0001
0100
0010
2000
0000
0000
3002
0000
0000
,
1003
0100
0010
0001
0010
0001
2000
0000
0000
3002
0000
0000
,
1003
0010
0100
0010
1000
0001
2000
0000
0000
3002
0000
0000
,
1003
0100
0010
0001
1000
0010
2000
0000
0000
3002
0000
0000
,
0013
0100
0010
0001
1000
0010
2000
0000
0000
3002
0000
0000
,
0403
0000
0000
0300
0000
0000
0400
0000
0340
0000
0000
0000
4030
0000
0000
0000
,
3000
0000
0000
0000
,
1000
0001
0010
0001
0100
0010
2000
0000
0000
3002
0000
0000
,
0103
0010
1000
0001
0010
0100
2000
0000
0000
3002
0000
0000
,
1003
0010
1000
0001
0010
0100
2000
0000
0000
3020
0000
0000
,
1030
0001
1000
0100
1000
0001
0200
0000
0000
0302
0000
0000
,
1003
0010
1000
0001
1000
0100
0020
0000
0000
0230
0000
0000
,
1300
0001
0100
0001
1000
0010
2000
0000
0000
3002
0000
0000
,
0003
0000
0000
0000
,
0000
0000
0000
0000
,
0001
0100
0010
1000
0001
0010
0002
0000
0000
2003
0000
0000
,
3100
0010
0100
1000
0001
0100
0002
0000
0000
2003
0000
0000
,
3001
0100
0001
1000
0100
0010
0002
0000
0000
0023
0000
0000
,
0031
1000
0010
1000
0001
1000
0200
0000
0000
2300
0000
0000
,
3001
0010
0001
1000
0001
0100
0020
0000
0000
0230
0000
0000
,
0301
1000
0100
0010
0001
0100
0002
0000
0000
2003
0000
0000
,
3000
0000
0000
0000
,
0000
0000
0000
0000
,
0004
0000
1003
0010
,
0100
0001
0100
0000
0001
0000
1000
0000
,
0400
0000
0310
0001
,
1000
0001
1000
0000
0001
0000
0100
0000
,
0040
0000
1030
0001
,
0010
0100
0010
0000
0100
0000
1000
0000
,
0001
0000
1000
0001
0000
0100
0010
0000
,
0020
0000
1030
0001
,
4000
0000
3001
0010
,
0100
1000
0100
0000
1000
0000
0001
0000
,
0400
0000
0310
1000
,
0001
1000
0001
0000
1000
0000
0100
0000
,
0040
0000
0031
1000
,
0010
0100
0010
0000
0100
0000
0001
0000
,
1000
0000
0001
1000
0000
0100
0010
0000
,
0020
0000
0000
0000
0031
1000
0010
0000
,
1000
0010
1000
0010
,
0100
0001
0100
0001
,
1000
0100
1000
0100
,
0010
0001
0010
0001
,
1000
0010
1000
0010
,
0100
0001
0100
0001
,
1000
0100
1000
0100
,
0010
0001
0010
0001
,
1000
0010
1000
0001
0100
0001
0010
0100
,
1000
0010
1000
0001
0100
0001
0010
0001
,
1000
0100
1000
0001
0010
0001
0100
0010
,
1000
0100
1000
0001
0010
0001
0100
0001
,
1000
0010
1000
0001
0100
0001
0010
0100
,
1000
0010
1000
0001
0010
0100
1000
0001
,
0000
0000
0000
0000
,
MMMM
0000
0000
0000
,
0001
1000
0010
1000
0100
0010
0002
0000
0000
0023
0000
0000
,
0130
1000
0001
1000
0010
0100
0002
0000
0000
4MM3
0000
0000
,
3010
0100
0001
1000
0100
0010
0002
0000
0000
0023
0000
0000
,
0031
1000
0010
1000
0001
0100
0002
0000
0000
4MM3
0000
0000
,
3001
0100
0001
1000
0100
0010
0002
0000
0000
2003
0000
0000
,
3100
0010
0001
1000
0010
1000
0002
0000
0000
4MM3
0000
0000
,
3010
0100
0001
1000
0100
1000
0002
0000
0000
0023
0000
0000
,
0031
1000
0010
1000
0001
1000
0200
0000
0000
M34M
0000
0000
,
0031
1000
0100
1000
0010
0100
0002
0000
0000
0023
0000
0000
,
0130
1000
0001
1000
0001
0100
0002
0000
0000
4MM3
0000
0000
,
3001
0100
0010
0100
0001
1000
0002
0000
0000
2003
0000
0000
,
3001
0010
0100
1000
0001
0100
0002
0000
0000
4MM3
0000
0000
,
3010
0100
0010
1000
0001
0010
0002
0000
0000
2003
0000
0000
,
3100
0010
0001
1000
0010
1000
0002
0000
0000
4MM3
0000
0000
,
3040
0000
0000
0030
0000
0000
0040
0000
0430
0000
0000
0000
0304
0000
0000
0000
,
0003
0000
0000
0000
,
1000
0100
0010
0100
1000
0100
0010
0100
,
1000
0001
0000
2002
0000
0000
3MM3
0000
,
0001
0100
0010
0100
0001
0100
0010
0100
,
0001
1000
0000
2002
0000
0000
3MM3
0000
,
0001
0010
0100
0010
0001
0010
0100
0010
,
0001
1000
0000
2002
0000
0000
3MM3
0000
,
1000
0010
0100
0010
1000
0001
1000
0000
,
2002
3003
0000
2002
0000
0000
3MM3
0000
,
1000
0010
0100
0010
1000
0001
2000
0000
0000
3002
0000
0000
,
0013
0100
1000
0001
0100
0001
2000
0000
0000
3MM4
0000
0000
,
1003
0010
0100
0001
1000
0100
2000
0000
0000
3200
0000
0000
,
1300
0001
0100
0001
1000
0001
0020
0000
0000
MM34
0000
0000
,
1003
0100
0010
0001
1000
0001
0200
0000
0000
0320
0000
0000
,
1030
0001
0010
0001
0100
0010
2000
0000
0000
3MM4
0000
0000
,
1003
0010
1000
0001
0010
0100
2000
0000
0000
3002
0000
0000
,
0013
0100
0010
0001
1000
0010
2000
0000
0000
3M4M
0000
0000
,
1030
0001
0100
0010
0100
0001
2000
0000
0000
3200
0000
0000
,
0310
0001
0100
0001
1000
0010
2000
0000
0000
3002
0000
0000
,
0103
0010
0100
0001
1000
0100
2000
0000
0000
3200
0000
0000
,
1300
0001
0100
0010
0100
0001
2000
0000
0000
3002
0000
0000
,
1003
0010
1000
0001
0010
0100
2000
0000
0000
3002
0000
0000
,
0013
0100
1000
0001
0100
0001
2000
0000
0000
3002
0000
0000
,
0103
0010
1000
0001
0010
0001
2000
0000
0000
3200
0000
0000
,
1300
0001
0100
0001
1000
0001
0020
0000
0000
0230
0000
0000
,
1300
0001
0010
0001
0100
0010
2000
0000
0000
3200
0000
0000
,
0310
0001
1000
0010
1000
0001
2000
0000
0000
3002
0000
0000
,
1003
0010
0100
0001
1000
0100
2000
0000
0000
3002
0000
0000
,
1003
0100
0010
0001
1000
0010
2000
0000
0000
3002
0000
0000
,
1003
0010
1000
0001
0010
0100
2000
0000
0000
3002
0000
0000
,
0013
0100
0010
0001
1000
0010
2000
0000
0000
3002
0000
0000
,
0103
0000
0000
0100
0010
0000
1000
0000
,
0001
0100
0000
0001
1000
0100
0010
0001
,
4000
0000
3001
0100
,
0010
1000
0010
0000
1000
0000
MMM1
0000
,
0040
0000
0130
1000
,
0001
1000
0001
0000
1000
0000
MM1M
0000
,
0400
0000
0301
1000
,
0100
0010
0100
0000
0010
0000
MMM1
0000
,
1000
0000
0001
1000
0000
0010
0100
0000
,
0200
0000
0301
1MMM
,
0004
0000
1003
0100
,
0010
0001
0010
0000
0001
0000
1MMM
0000
,
0040
0000
0130
0001
,
1000
0001
1000
0000
0001
0000
MM1M
0000
,
0400
0000
1300
0001
,
0100
0010
0100
0000
0010
0000
1MMM
0000
,
0001
0000
1000
0001
0000
0010
0100
0000
,
0200
0000
0300
0000
,
1000
0000
0000
1000
0001
0000
0100
0000
,
0010
1000
0000
0010
1000
0000
0100
0000
,
0010
0000
0000
0010
0001
0000
1000
0000
,
0010
0100
0000
0010
0100
0000
0001
0000
,
1000
0000
0000
1000
0100
0000
0010
0000
,
0001
1000
0000
0001
1000
0000
0010
0000
,
0100
0000
0000
0100
0001
0000
0010
0000
,
0100
1000
0000
0100
1000
0000
0010
0000
,
0100
0000
0000
0100
0001
0000
1000
0000
,
0100
0010
0000
0100
0010
0000
0001
0000
,
1000
0000
0000
1000
0001
0000
0100
0000
,
0010
1000
0000
0010
1000
0000
0100
0000
,
0010
0000
0000
0010
0001
0000
1000
0000
,
0010
0100
0000
0010
0100
0000
0001
0000
,
1000
0000
0000
1000
0001
0000
0010
0000
,
0100
1000
0000
0100
1000
0000
0001
0000
,
1001
0000
0000
0000
;
