#TITLE:1st Samurai;
#SUBTITLE:;
#ARTIST:sampling masters MEGA;
#TITLETRANSLIT:;
#SUBTITLETRANSLIT:;
#ARTISTTRANSLIT:;
#CREDIT:;
#BANNER:1stSamurai.png;
#BACKGROUND:1stSamurai-bg.png;
#LYRICSPATH:;
#CDTITLE:!aptitle.png;
#MUSIC:1stSamurai.mp3;
#OFFSET:-0.064;
#SAMPLESTART:49.430;
#SAMPLELENGTH:15.500;
#SELECTABLE:YES;
#BPMS:0.000=174.960,48.000=174.940,223.500=200.000;
#STOPS:;
#BGCHANGES:;
// cache tags:
#FIRSTBEAT:16.000;
#LASTBEAT:261.500;
#SONGFILENAME:Songs/Community Keyboard Megapack - Volume 2/(aperson) 1stSamurai/1stSamurai.sm;
#HASMUSIC:1;
#HASBANNER:1;
#MUSICLENGTH:89.338;
// end cache tags

//---------------dance-single - ----------------
#NOTES:
     dance-single:
     :
     Easy:
     7:
     0.540,0.617,0.302,0.011,0.017,310.000,27.000,1.000,0.000,0.000:  // measure 1
0000
0000
0000
0000
,  // measure 2
0000
0000
0000
0000
,  // measure 3
0000
0000
0000
0000
,  // measure 4
0000
0000
0000
0000
,  // measure 5
1000
1001
0001
0011
,  // measure 6
0010
0001
0010
0000
1001
0000
1000
0000
,  // measure 7
0010
0110
0100
0101
,  // measure 8
0001
1000
0001
1000
0001
0000
1000
0000
,  // measure 9
1000
0100
1000
0000
0010
0000
0100
0000
,  // measure 10
0001
0010
0001
0000
0100
0000
0010
0000
,  // measure 11
1000
0100
1000
0000
0001
0010
0001
0000
,  // measure 12
1000
0010
0100
0001
,  // measure 13
1001
1000
0000
0001
,  // measure 14
0100
0010
0100
0001
0100
0000
1001
0000
,  // measure 15
1010
1000
0000
0100
,  // measure 16
1000
0100
0010
0001
0100
0000
0110
0000
,  // measure 17
1001
0010
0000
1000
,  // measure 18
0001
0010
0100
1000
0010
0000
1001
0000
,  // measure 19
1000
0100
1000
0000
0001
0000
0011
0000
,  // measure 20
1000
0010
1000
0000
0001
0100
0001
0000
,  // measure 21
1000
1100
0001
0011
,  // measure 22
0001
0000
1001
0000
1000
0010
0100
0000
,  // measure 23
0001
1000
0001
0000
1000
0001
1000
0000
,  // measure 24
1000
0010
0100
0001
1000
0000
0001
0000
,  // measure 25
1000
0000
0100
0000
0010
0000
0001
0100
,  // measure 26
0010
0000
1000
0000
0100
0000
0010
0001
,  // measure 27
0100
0000
0010
0000
1000
0100
0010
0000
,  // measure 28
0001
0000
0100
0010
1000
0100
0010
0000
,  // measure 29
1001
0000
1000
0000
1000
0001
0100
0000
,  // measure 30
0101
0000
0100
0000
0100
0010
1000
0000
,  // measure 31
1000
0001
1000
0001
0100
0010
0100
0000
,  // measure 32
0001
1000
0001
1000
0001
1000
0001
0000
,  // measure 33
1000
0000
0000
0000
0100
0000
0000
0000
0010
0000
0000
0001
0000
0000
1000
0000
,  // measure 34
0010
0000
0000
0000
0100
0000
0000
0000
0001
0000
0000
0100
0000
0000
0100
0000
,  // measure 35
0010
0000
0000
0000
1000
0000
0000
0000
0100
0000
0000
0010
0000
0000
0010
0000
,  // measure 36
0001
1000
0010
0000
1001
0000
1000
0000
,  // measure 37
0001
0010
0001
0000
1000
0010
1000
0000
,  // measure 38
0001
0100
0001
0000
1000
0100
1000
0000
,  // measure 39
0010
0100
0001
1000
0100
0010
0001
0000
,  // measure 40
1001
1010
1100
1001
,  // measure 41
0001
0010
0001
1000
0010
0100
0010
0000
,  // measure 42
0100
0010
0100
0001
1000
0100
1000
0000
,  // measure 43
0001
0010
0001
1000
0001
0010
0001
0000
,  // measure 44
0010
0100
0010
1000
0010
0100
0010
0000
,  // measure 45
1000
1100
0001
0011
,  // measure 46
1000
1010
0001
0101
,  // measure 47
0100
0010
0100
0000
0001
0100
0001
0000
,  // measure 48
1000
0100
1000
0000
0010
0100
0010
0000
,  // measure 49
1000
0000
1000
0100
0010
0000
0010
0001
,  // measure 50
0010
0000
0010
0100
1000
0000
1000
0001
,  // measure 51
0010
0100
1000
0010
,  // measure 52
0100
0001
0100
0000
0010
0000
1000
0000
,  // measure 53
0001
0010
0001
0010
0001
0010
0001
0010
,  // measure 54
0001
0010
0001
0010
0001
0010
0001
0010
,  // measure 55
0002
1003
0000
0000
,  // measure 56
0000
0000
0000
0000
0000
0000
0000
1000
,  // measure 57
0000
0010
0000
0100
0001
0010
0000
0100
,  // measure 58
0000
1000
0000
0010
0100
0001
0000
1000
,  // measure 59
0000
0001
0000
0100
0000
0010
0000
1000
,  // measure 60
0000
0100
0000
0010
0000
0001
0000
1000
,  // measure 61
0001
1000
0000
0001
1000
0001
0000
0100
,  // measure 62
0010
0100
0000
0001
0100
0001
0000
1001
,  // measure 63
0000
0000
0000
0000
0000
0000
0000
1000
,  // measure 64
0001
0000
0000
0001
0000
0000
0000
0010
,  // measure 65
0000
0000
0000
0100
0000
0000
0000
1000
;

//---------------dance-single - ----------------
#NOTES:
     dance-single:
     :
     Medium:
     9:
     0.707,0.726,0.257,0.078,0.196,412.000,23.000,7.000,0.000,0.000:  // measure 1
0000
0000
0000
0000
,  // measure 2
0000
0000
0000
0000
,  // measure 3
0000
0000
0000
0000
,  // measure 4
0000
0000
0000
0000
,  // measure 5
1000
0001
0010
0001
1000
0010
0100
0010
,  // measure 6
0100
0001
0010
0001
1000
0010
0100
0001
,  // measure 7
1000
0001
0010
0001
0100
0010
0001
0010
,  // measure 8
0100
0001
1000
0100
0010
0001
0010
0000
,  // measure 9
0010
0001
0010
0000
0100
1000
0100
0000
,  // measure 10
1000
0001
1000
0000
0001
0100
0001
0000
,  // measure 11
0100
0010
0100
0010
0100
0001
0100
0010
,  // measure 12
0100
0001
1000
0010
0100
0010
1000
0000
,  // measure 13
1001
0000
0000
1000
0100
0000
0000
0000
0100
0000
0010
0000
0001
0000
0000
0000
,  // measure 14
0001
0010
0001
1000
0001
0010
0001
1000
,  // measure 15
1001
0000
0000
0001
0100
0000
0000
0000
0100
0000
0010
0000
1000
0000
0000
0000
,  // measure 16
1000
0001
1000
0000
0010
0000
0100
0000
0001
0000
0100
0000
0010
0000
1000
0000
,  // measure 17
1001
0000
0000
0001
0010
0000
0000
0000
0010
0000
0001
0000
1000
0000
0000
0000
,  // measure 18
1000
1000
1000
1000
0001
0001
0001
0010
,  // measure 19
0110
0000
0000
0100
1000
0000
0000
0000
1000
0000
0001
0000
0100
0000
0000
0000
,  // measure 20
0100
0010
0100
0000
0001
0000
0100
0000
0001
0010
0001
0000
1000
0000
0000
0000
,  // measure 21
1000
0000
1100
0000
0000
0001
0010
0000
,  // measure 22
0100
1000
1001
1000
0010
0100
0001
0000
,  // measure 23
1002
0103
2010
3001
,  // measure 24
0002
0100
2003
0100
3020
0100
0130
0001
,  // measure 25
1000
0000
0100
0000
0010
0001
0000
0001
0000
0010
0000
0010
0100
0000
1000
0000
,  // measure 26
0001
0000
0100
0000
0010
1000
0000
1000
0000
0010
0000
0010
0100
0000
0001
0000
,  // measure 27
1000
1000
0100
0000
0001
0001
0100
0000
,  // measure 28
1000
0100
1000
0001
0100
0010
0100
0001
,  // measure 29
1000
0100
0100
0000
0010
0001
0001
0000
,  // measure 30
1000
0010
0010
0000
0100
0001
0001
0000
,  // measure 31
1000
0010
0010
0100
0001
1000
0010
0100
,  // measure 32
0001
0010
0010
0100
1000
0001
0100
0010
,  // measure 33
1000
0000
0010
0000
0100
0000
0001
0000
0100
0000
0000
0010
0000
0000
1000
0000
,  // measure 34
0100
0000
0010
0000
0001
0000
0010
0000
0100
0000
0000
1000
0000
0000
1000
0000
,  // measure 35
0001
0100
0010
0100
0001
0100
0010
0100
,  // measure 36
0001
0010
0001
1000
0200
0000
0310
0000
,  // measure 37
0011
1001
1100
1010
,  // measure 38
1001
0101
0110
1010
,  // measure 39
1001
0101
0011
1010
,  // measure 40
0011
0001
1000
0010
,  // measure 41
1000
0100
1000
0001
0100
0010
0100
0001
,  // measure 42
1000
0100
1000
0010
0100
0001
0100
0010
,  // measure 43
1000
0100
0010
0001
1000
0010
0100
0001
,  // measure 44
1000
0100
1000
0001
0100
0010
0100
0001
,  // measure 45
1000
1000
0100
0010
0001
0001
0100
0010
,  // measure 46
1000
1000
0001
0100
0010
0010
1000
0001
,  // measure 47
1000
0100
1000
0000
0010
0000
0100
0000
0001
0000
0010
0000
0001
0000
0000
0000
,  // measure 48
0001
0010
0001
0000
0100
0000
0010
0000
1000
0000
0100
0000
1000
0000
0001
0000
,  // measure 49
1000
0010
0100
0010
1000
0001
0010
0001
,  // measure 50
1000
0100
1000
0100
0010
0001
1000
0001
,  // measure 51
0100
0010
0000
0000
0010
1000
0000
0000
1000
0001
0000
0000
0001
0100
0000
0000
,  // measure 52
0100
0010
0000
0000
0010
1000
0000
0000
1000
0001
0000
0000
0001
0100
0000
0000
,  // measure 53
0100
0010
0100
0001
0100
0010
0100
0001
,  // measure 54
0010
0001
0010
0100
0010
0001
0010
0100
,  // measure 55
1002
0003
0000
0000
,  // measure 56
0000
0000
0000
0000
0000
0000
0000
1000
,  // measure 57
0010
0100
0010
1000
0100
0010
0001
0100
,  // measure 58
0010
0000
0100
0000
0001
0000
1000
0000
0100
0000
1000
0000
0010
0000
0100
0001
,  // measure 59
0000
0000
0001
1000
0000
0000
1000
0100
0000
0000
0100
0010
0000
0000
0010
0001
,  // measure 60
0000
0000
0001
1000
0000
0000
1000
0010
0000
0000
0010
0100
0000
0000
0100
0000
,  // measure 61
0001
0100
0010
1000
0100
1000
0010
0100
,  // measure 62
0001
0100
0010
1000
0100
0001
0100
1100
,  // measure 63
0000
0000
0000
0000
0000
0000
0000
1000
,  // measure 64
0100
0000
0000
0010
0000
0000
0000
0001
,  // measure 65
0000
0000
0000
1000
0000
0000
0000
0100
;

//---------------dance-single - ----------------
#NOTES:
     dance-single:
     :
     Hard:
     10:
     0.913,1.000,0.246,0.034,0.873,546.000,22.000,3.000,0.000,0.000:  // measure 1
0000
0000
0000
0000
,  // measure 2
0000
0000
0000
0000
,  // measure 3
0000
0000
0000
0000
,  // measure 4
0000
0000
0000
0000
,  // measure 5
1000
0000
0010
0000
0100
0001
0100
0000
0001
0000
0010
0000
0100
1000
0100
0000
,  // measure 6
0010
0000
0001
0000
1000
0010
1000
0000
0010
0000
0100
0010
0000
0010
1000
0000
,  // measure 7
0001
0000
1000
0100
1000
0000
0010
0000
0100
0000
0001
0010
0001
0000
1000
0000
,  // measure 8
0100
0000
0010
0001
0010
0000
0100
1000
0100
1000
0100
0010
0001
0010
0001
0000
,  // measure 9
1001
0000
0001
0010
0001
0000
0000
0000
1001
0000
1000
0100
1000
0000
0000
0000
,  // measure 10
1010
0000
0100
0001
0100
0000
0000
0000
0011
0000
0100
1000
0100
0000
0000
0000
,  // measure 11
1000
0100
1000
0100
1000
0000
0001
0010
0001
0010
0001
0010
0001
0000
1000
0001
,  // measure 12
1000
0001
0100
0010
1000
0001
0100
0010
0100
0010
0100
0010
1000
0000
0000
0000
,  // measure 13
1001
0000
0000
1000
0100
0000
0000
0100
0010
0000
0000
0010
0001
0000
0001
1000
,  // measure 14
0001
0100
0010
1000
0100
0010
1001
1001
,  // measure 15
0001
0000
0000
0001
0010
0000
0000
0010
0100
0000
0000
0100
1000
0000
1000
0001
,  // measure 16
1000
0010
0100
0001
0010
0001
1001
1001
,  // measure 17
1010
0000
0000
1000
0010
0000
0000
0010
0100
0000
0000
0100
0001
0000
0001
0010
,  // measure 18
0001
0000
1000
0000
0010
0000
0100
0000
0001
0000
0010
0000
0001
1000
0010
0000
,  // measure 19
0001
0000
0000
0001
0100
0000
0000
0100
0010
0000
0000
0010
1000
0000
1000
0000
,  // measure 20
0001
0010
0001
0000
1000
0000
1000
0000
0010
0100
0010
0000
1000
0000
0000
0000
,  // measure 21
1001
1000
0100
0000
0010
0001
0010
0000
,  // measure 22
1000
0010
0001
1000
0100
0010
0001
0000
,  // measure 23
1000
0100
1001
0000
0001
0010
1001
0000
,  // measure 24
1000
0001
1000
0000
0001
0000
0001
0000
1000
0010
1000
0010
1000
0001
0100
0010
,  // measure 25
1000
0000
0100
0000
0010
0001
0000
0001
0000
0100
0000
0100
0010
0000
1000
0000
,  // measure 26
0001
0000
0010
0001
0010
0100
0000
1000
0000
0010
0000
0100
0001
0000
1000
0000
,  // measure 27
0010
0000
0100
0000
0001
0010
0000
0100
0000
0010
0000
0001
1000
0000
0100
0000
,  // measure 28
0010
0001
0010
0001
0010
0000
0100
1000
0100
1000
0100
1000
0100
0010
0001
0010
,  // measure 29
0001
1000
0001
0000
0100
0000
0000
0000
0010
1000
0010
0000
0100
0000
0000
0000
,  // measure 30
0001
0010
0001
0000
1000
0000
0000
0000
0100
0010
0100
0000
1000
0000
0000
0000
,  // measure 31
0001
0010
0001
0000
1000
0010
1000
0000
0010
0100
0010
0000
0100
0001
0100
0000
,  // measure 32
0001
0010
0001
0000
1000
0100
1000
0100
1000
0000
0010
0000
0100
0000
0001
0000
,  // measure 33
1001
0000
0001
0000
0010
0000
0100
0000
0010
0000
0000
0001
0000
0000
0010
0000
,  // measure 34
0001
0000
1000
0000
0010
0000
1000
0000
0001
0000
0000
0100
0000
0000
0010
0000
,  // measure 35
1000
0001
0100
0010
1000
0001
1000
0100
,  // measure 36
0001
0000
0100
0000
1000
0000
0100
0000
0010
0000
0000
0000
0100
1000
0100
1000
,  // measure 37
0001
0000
0000
0001
0010
0000
0000
0010
0001
0000
0000
0001
1000
0000
0000
1000
,  // measure 38
0010
0000
0000
0010
0100
0000
0000
0100
0001
0000
0000
0001
1000
0000
0000
1000
,  // measure 39
0100
0000
0000
0100
0010
0000
0000
0010
0001
0000
0000
0001
1000
0000
0000
1000
,  // measure 40
0010
0100
0010
0000
1000
0001
1000
0000
0001
0100
0001
0100
0001
0000
1001
0000
,  // measure 41
1000
0100
1000
0000
0001
0010
0001
0000
0100
0010
0100
0000
1000
0001
1000
0000
,  // measure 42
0001
0010
0001
0000
1000
0100
1000
0000
0010
0100
0010
0000
0001
0010
0001
0000
,  // measure 43
1001
0000
1000
0000
0001
0100
0001
0000
1000
0000
0001
1000
0001
0100
0001
0000
,  // measure 44
1000
0000
0100
0000
0010
0001
0010
0000
0100
0000
1000
0001
0010
0001
0100
0000
,  // measure 45
0010
0000
0100
0000
0011
0000
1000
0001
1000
0000
1000
0000
0110
0000
0010
0001
,  // measure 46
0010
0000
0010
0000
1100
0000
1000
0001
1000
0000
1000
0000
0011
0000
0001
0100
,  // measure 47
0001
0000
1000
0000
0001
0000
0000
0000
0001
1000
0001
0000
0100
0000
0000
0000
,  // measure 48
0100
0010
0100
0000
0001
0000
1000
0000
0100
0001
0100
0000
1000
0000
0001
0000
,  // measure 49
1000
0100
1000
0010
0100
0000
0001
0000
0100
0010
1000
0010
0100
0000
0001
0000
,  // measure 50
0010
0100
1000
0100
0010
0000
0001
0000
1000
0100
1000
0001
0100
0000
0001
0000
,  // measure 51
1000
0001
0000
0000
0001
0100
0000
0000
0100
0010
0000
0000
0010
1000
0000
0000
,  // measure 52
1000
0001
0000
0000
1000
0010
0000
0000
0010
0100
0000
0000
0001
1000
0000
0000
,  // measure 53
0001
0010
0001
0100
0001
0010
0001
1000
,  // measure 54
0010
0100
0010
1000
0010
0100
0010
1000
,  // measure 55
1002
0103
0000
0000
,  // measure 56
0000
0000
0000
0000
0000
0000
0000
0000
1000
0001
1000
0001
0000
0000
1000
0100
,  // measure 57
1000
0000
0001
0000
0010
0000
0100
1000
0100
0000
0010
0000
0001
0000
1000
0010
,  // measure 58
1000
0000
0010
0000
0100
0000
0001
0010
0001
0000
1000
0000
0100
0000
0010
0001
,  // measure 59
0000
0000
0001
1000
0000
0000
1000
0001
0000
0000
0001
0100
0000
0000
0100
0010
,  // measure 60
0000
0000
0010
1000
0000
0000
0100
0010
0100
0000
1000
0000
1000
0000
1000
0010
,  // measure 61
1000
0000
0001
0000
0001
0000
0001
0100
0001
0000
0100
0000
0100
0000
0100
0001
,  // measure 62
0100
0000
0010
0000
0010
0000
0010
1000
0010
0000
1000
0000
0001
0000
1001
0000
,  // measure 63
0000
0002
0000
0000
0000
0000
0003
1000
,  // measure 64
0001
0000
0000
0001
0000
0000
0000
1000
,  // measure 65
0000
0000
0000
0100
0000
0000
0000
0002
,  // measure 66
0000
0000
0000
0003
0000
0000
0000
0000
;

//---------------dance-single - ----------------
#NOTES:
     dance-single:
     :
     Challenge:
     11:
     1.000,1.000,0.604,0.056,1.000,705.000,54.000,5.000,0.000,0.000:  // measure 1
0000
0000
0000
0000
,  // measure 2
0000
0000
0000
0000
,  // measure 3
0000
0000
0000
0000
,  // measure 4
0000
0000
0000
0000
,  // measure 5
1001
0000
1000
0000
0001
0100
0010
0000
1000
0000
0010
0000
0100
0001
0100
0000
,  // measure 6
0001
0000
1000
0000
0100
0010
0001
0000
0001
0100
0010
1000
0100
0010
0001
0010
,  // measure 7
0100
0000
1000
0000
0001
0100
0010
0000
1000
0000
0010
0000
0100
0001
0010
0000
,  // measure 8
0100
1000
0100
1000
0001
0010
0001
0010
0100
1000
0010
0100
0001
0010
0001
0000
,  // measure 9
1001
0000
1000
0010
1000
0000
0001
0000
0011
0000
0001
0100
0001
0000
1000
0000
,  // measure 10
1010
0000
1000
0100
1000
0000
0010
0000
0110
0000
0010
1000
0010
0000
0100
0000
,  // measure 11
0001
0010
0001
1000
0010
0100
0010
0000
1000
0000
0001
0010
0001
1000
0010
0100
,  // measure 12
0010
1000
0100
0010
0001
0010
0100
1000
0001
1000
0001
1000
0001
0000
0000
0000
,  // measure 13
1001
0000
1000
0100
0010
0000
0001
0010
0100
0000
1000
0010
0100
0001
0010
0001
,  // measure 14
1000
0000
1000
0000
1000
0000
1000
0000
1000
0001
0010
0000
1000
0000
1000
0000
,  // measure 15
1001
0000
0001
0100
0010
0000
1000
0010
0100
0000
0001
0010
0100
0010
0001
1000
,  // measure 16
0010
0100
0001
0100
0010
0100
0001
0100
0010
0100
0001
0100
0010
1000
0001
0000
,  // measure 17
1001
0000
1000
0100
0010
0000
1001
0000
1000
0000
1100
0000
1001
0000
1000
0100
,  // measure 18
0010
0000
0001
0000
0010
0000
0001
0000
0010
0000
0001
0000
0010
0001
1000
0000
,  // measure 19
0010
1000
0010
1000
0001
0100
0001
0100
0010
1000
0100
0010
0001
0000
1000
0000
,  // measure 20
0001
1000
0100
1000
0010
0000
0010
0000
0010
0100
0001
0000
1001
0000
0000
0000
,  // measure 21
1001
1000
1100
0001
0010
0001
1100
1000
,  // measure 22
1001
1000
0120
1000
1000
0100
0130
0000
,  // measure 23
1001
0000
0001
0010
0001
0000
1000
0000
0110
0000
1000
0001
1000
0000
0100
0000
,  // measure 24
0011
0001
1001
0001
0110
0001
1100
1000
,  // measure 25
0001
0000
0010
0000
0100
1000
0000
0010
0000
0001
0000
0100
0010
0000
1000
0000
,  // measure 26
0001
0000
0010
0000
0100
1000
0000
0010
0000
0001
0000
0100
0010
0000
1001
0000
,  // measure 27
1000
0010
1000
0010
1000
0000
0100
0000
0010
0001
0010
0001
0010
0000
0100
0000
,  // measure 28
1000
0001
1000
0001
0100
0000
0100
0010
1000
0010
1000
0010
0100
0001
0100
0001
,  // measure 29
0010
0001
1000
0000
1001
0000
0100
0000
0100
1000
0001
0000
1001
0000
0010
0000
,  // measure 30
0010
0001
1000
0000
1001
0000
0100
0000
0100
1000
0001
0000
1001
0000
0100
0000
,  // measure 31
0100
0010
0001
1000
0010
0100
0010
1000
0001
0010
0001
1000
0010
0100
0010
1000
,  // measure 32
0001
0010
0001
1000
0010
0100
0010
1000
0001
0010
0100
1000
0100
0010
0001
1000
,  // measure 33
0001
0000
0001
0000
1001
0000
1100
0000
0011
0000
0000
0001
0010
0000
1000
0000
,  // measure 34
1100
0000
0110
0000
0011
0000
1001
0000
1100
0000
0000
1000
0100
0000
0010
0000
,  // measure 35
0001
0100
1000
0100
0001
0000
0001
1000
0100
0010
0001
1000
0010
0000
0000
1000
,  // measure 36
0001
0000
0010
0000
0100
0000
1000
0000
0001
0000
0000
0000
1000
0001
1000
0001
,  // measure 37
0100
0000
0100
0010
0100
0000
0001
0100
0001
0000
1000
0000
0001
0000
1001
0000
,  // measure 38
0010
0000
0100
1000
0100
0000
0010
0001
0010
0000
1000
0000
0010
0000
0101
0000
,  // measure 39
0001
0000
0001
1000
0001
0000
0100
0010
0100
0000
0001
0000
0100
0000
0011
0000
,  // measure 40
1000
0010
1000
0010
0100
0001
0100
0001
1000
0001
1000
0001
0010
0001
0010
0001
,  // measure 41
0100
0001
0100
0010
1000
0100
1000
0001
0100
0010
0100
0001
1000
0100
1000
0010
,  // measure 42
0100
0001
0100
0010
1000
0100
1000
0001
0010
0100
0010
0001
1000
0001
1000
0010
,  // measure 43
0100
0001
1000
0010
1000
0100
0010
0001
0010
0100
0010
0100
1000
0001
0010
0100
,  // measure 44
1000
0001
0100
0010
0100
0001
0010
1000
0010
0001
1000
0100
1000
0001
0100
0010
,  // measure 45
0100
0001
1000
0000
0001
0010
0001
0010
0001
0000
0000
0000
1000
0100
1000
0100
,  // measure 46
1000
0000
0000
0000
0010
0100
0010
1000
0010
0000
0000
0000
0100
0001
0100
0010
,  // measure 47
0100
0001
0000
0000
0001
0010
0001
0100
0001
0010
0000
0000
0100
1000
0100
1000
,  // measure 48
0100
0010
0000
0000
0010
0001
0010
0100
0010
1000
0000
0000
0010
0001
0010
0001
,  // measure 49
1000
0100
0010
0000
1001
0000
0011
0000
0001
0010
0001
0000
1100
0000
0011
0000
,  // measure 50
1000
0010
1000
0000
0101
0000
0011
0000
0001
1000
0100
0000
0011
0000
1100
0000
,  // measure 51
1000
0100
1000
0000
0100
0001
0100
0000
1000
0100
1000
0000
0010
0001
0010
0000
,  // measure 52
1000
0001
1000
0010
0100
0001
0100
0000
0100
0010
1000
0010
0100
0001
0100
0000
,  // measure 53
1000
0100
1000
0010
1000
0001
1000
0010
0100
0001
0100
0010
0100
0001
0100
0010
,  // measure 54
1000
0001
1000
0010
1000
0100
1000
0010
0100
0001
0100
0010
0100
1000
0100
0010
,  // measure 55
2002
0000
0000
0000
,  // measure 56
3003
0000
0000
0000
0000
0000
0000
0000
0000
0000
0000
0000
0000
0000
0000
0000
0000
0000
0000
0000
0000
0000
0000
0000
1000
0000
0001
0000
1000
0000
0001
0000
1000
0000
0000
0000
0000
0000
0000
0000
0000
0000
1000
0000
0000
0100
0000
0000
,  // measure 57
1000
0001
0100
0010
0100
0001
1000
0100
1000
0001
0100
0010
0100
0001
1000
0010
,  // measure 58
0100
0001
0010
0001
1000
0010
0100
0001
0010
0001
1000
0100
0010
0001
0010
0100
,  // measure 59
0010
0000
0010
0001
0010
0000
0100
1000
0100
0000
0001
0100
1000
0000
1000
0010
,  // measure 60
0001
0000
1000
0100
0001
0000
0001
0010
0100
0000
1000
0010
0001
0000
0001
0010
,  // measure 61
0100
0001
0010
0001
1000
0001
0100
1000
0100
0001
0010
0001
1000
0010
0100
1000
,  // measure 62
0100
0010
1000
0010
0001
0010
1000
0001
0010
1000
0010
0001
1000
0010
1000
0100
,  // measure 63
0010
0001
1000
0001
0100
0010
1000
0010
0100
0001
0010
0001
1000
0000
1001
0000
,  // measure 64
0011
0000
0000
1001
0000
0000
0000
0101
,  // measure 65
0000
0000
0000
1010
0000
0000
0000
2002
,  // measure 66
0000
0000
0000
3003
0000
0000
0000
0000
;

//---------------dance-single - ----------------
#NOTES:
     dance-single:
     :
     Beginner:
     4:
     0.347,0.363,0.090,0.022,0.000,207.000,8.000,2.000,0.000,0.000:  // measure 1
0000
0000
0000
0000
,  // measure 2
0000
0000
0000
0000
,  // measure 3
0000
0000
0000
0000
,  // measure 4
0000
0000
0000
0000
,  // measure 5
1000
0100
0010
0001
,  // measure 6
0100
0010
1000
0100
,  // measure 7
1000
0001
0010
0001
,  // measure 8
0100
0010
1000
0000
,  // measure 9
1000
1000
0001
0001
,  // measure 10
0100
0100
0010
0010
,  // measure 11
1000
0010
0100
0001
,  // measure 12
0010
0100
1000
0000
,  // measure 13
1001
1000
0000
0001
,  // measure 14
0000
1000
0100
0010
,  // measure 15
0001
1000
0000
0010
,  // measure 16
0000
0100
0010
1000
,  // measure 17
0001
0010
0000
0100
,  // measure 18
0000
1000
0001
0100
,  // measure 19
0010
1000
0000
0001
,  // measure 20
1000
1000
0001
0001
,  // measure 21
1001
0100
0000
1000
,  // measure 22
0000
0002
0000
0003
,  // measure 23
1000
0000
1000
0000
,  // measure 24
0100
0010
0100
0010
,  // measure 25
0001
1000
0010
0100
,  // measure 26
0010
1000
0100
0010
,  // measure 27
0001
0000
1001
0000
,  // measure 28
1000
0010
0100
0010
,  // measure 29
1000
0001
0100
0001
,  // measure 30
0010
0001
1000
0001
,  // measure 31
0001
1000
0010
1000
,  // measure 32
0100
1000
0100
0010
,  // measure 33
0001
0000
0000
1000
0000
0000
0010
0000
,  // measure 34
0100
0000
0000
0001
0000
0000
1000
0000
,  // measure 35
0100
0000
0000
0010
0000
0000
0001
0000
,  // measure 36
1000
0010
0100
0001
,  // measure 37
1000
1000
0100
0100
,  // measure 38
0010
0010
0001
0001
,  // measure 39
1000
0010
1000
0010
,  // measure 40
0100
0001
0100
0000
,  // measure 41
0001
1000
0010
0100
,  // measure 42
0001
1000
0010
0100
,  // measure 43
1001
1000
0010
0100
,  // measure 44
0001
1000
0100
0010
,  // measure 45
0001
0001
1000
1000
,  // measure 46
0010
0100
0001
0010
,  // measure 47
1000
0010
0001
1000
,  // measure 48
0100
0001
0100
1000
,  // measure 49
0010
0100
0001
0100
,  // measure 50
0010
1000
0100
1000
,  // measure 51
0000
1001
0000
0110
,  // measure 52
0000
0110
0000
0100
,  // measure 53
0001
1000
1000
1000
,  // measure 54
1000
0001
0001
0001
,  // measure 55
1001
0000
0000
0000
,  // measure 56
0000
0000
0000
0000
0000
0000
0000
1000
,  // measure 57
0000
0010
0000
0100
0000
0001
0000
1000
,  // measure 58
0000
0100
0000
0010
0000
0001
0000
1000
,  // measure 59
0000
0001
0000
0100
0000
0010
0000
0100
,  // measure 60
0000
0001
0000
1000
0000
0100
0000
0010
,  // measure 61
0000
0010
0000
0010
0000
0010
0000
0001
,  // measure 62
0000
0001
0000
1000
0000
0010
0000
0200
,  // measure 63
0000
0301
0000
0000
0000
0000
0000
0001
,  // measure 64
0000
0000
0000
1000
0000
0000
0000
0100
,  // measure 65
0000
0000
0000
0001
0000
0000
0000
1000
;
