#TITLE:Electro Rush X8;
#SUBTITLE:Beastiality Violation;
#ARTIST:OSTER Project;
#TITLETRANSLIT:;
#SUBTITLETRANSLIT:;
#ARTISTTRANSLIT:;
#CREDIT:;
#BANNER:../BV - ban.png;
#BACKGROUND:../BV - bg.png;
#LYRICSPATH:;
#CDTITLE:;
#MUSIC:Electro Rush X8.ogg;
#OFFSET:0.014;
#SAMPLESTART:98.580;
#SAMPLELENGTH:12.000;
#SELECTABLE:YES;
#BPMS:0.000=260.000;
#STOPS:;
#BGCHANGES:;
// cache tags:
#FIRSTBEAT:12.000;
#LASTBEAT:493.000;
#SONGFILENAME:Songs/Beastiality Violation/Electro Rush X8 - [Aoreo]/Electro Rush X8.sm;
#HASMUSIC:1;
#HASBANNER:1;
#MUSICLENGTH:117.838;
// end cache tags

//---------------dance-single - J. Nero----------------
#NOTES:
     dance-single:
     J. Nero:
     Challenge:
     18:
     1.000,1.000,0.068,0.093,0.921,981.000,8.000,11.000,26.000,0.000:
0000
0000
0000
0000
,
0000
0000
0000
0000
,
0000
0000
0000
0000
,
1001
0000
0000
0000
0000
0001
0000
0000
,
0000
0000
0000
1000
0000
0010
0000
0000
,
0000
0000
0000
0000
0000
0100
0000
0000
,
0000
0000
0000
0001
0000
1000
0001
0000
,
0101
0000
0100
0001
0000
1000
0100
1000
,
0001
0000
0000
0100
0000
0000
0001
0000
0000
1000
0000
0000
0001
0000
0000
0100
0000
0000
0001
0000
0000
1000
0000
0000
0001
0000
0000
0000
0000
0000
0100
0000
0000
0000
0000
0000
0010
0000
0000
0000
1000
0000
0000
0000
0001
0000
0000
0000
,
0100
0000
0000
0001
0000
0000
0100
0000
0000
0001
0000
0000
1000
0000
0000
0000
0000
0000
0010
0000
0000
0000
0000
0000
0100
0000
0000
0000
0001
0000
0000
0000
0010
0000
0000
0000
0100
0000
0000
1000
0000
0000
0001
0000
0000
1000
0000
0000
,
0001
0000
0100
000M
0100
0000
1000
0000
0001
0000
0100
000M
0100
0000
1000
0000
,
0010
0000
0100
0000
0001
0010
000M
0010
,
0100
0000
0001
0000
0010
0000
0100
0000
1000
0000
0010
0000
0100
0000
0001
1000
,
0001
0000
1000
0000
0001
0100
000M
0100
,
1000
0000
0000
0000
0001
0000
0010
0000
000M
0000
0010
0000
0100
0000
0001
1000
,
0001
0000
1000
0000
0100
0010
0M00
0010
,
1000
0000
0001
0000
0010
0000
0100
0000
1000
0000
0010
0000
0100
0000
0001
1000
,
0100
0000
0010
0000
0001
0100
000M
0100
,
1000
0000
0100
0000
0010
0000
0100
0000
1000
0000
0001
0000
0100
0000
0001
1000
,
0001
0000
0000
0000
0010
0000
0000
0000
0001
1000
0001
1000
0100
0000
0010
0000
,
0001
0000
1000
0000
0001
0000
0100
0000
0001
1000
0001
1000
0010
0100
0010
1000
,
0001
0000
1000
0000
0100
0000
1000
0000
0001
0000
0100
0001
0100
0000
0010
1000
,
0010
0000
0100
0001
0100
0000
0001
1000
0001
0000
1000
0100
1000
0000
0001
0010
,
0100
0000
1000
0000
0001
0000
0100
0000
0010
0000
1000
0001
1000
0000
0001
0000
,
0100
0001
0100
0010
1000
0001
1000
0001
0100
0000
0010
0000
1000
0000
0001
0010
,
0100
0000
1000
0000
0001
0000
0100
0000
0010
1000
0010
0100
0001
1000
0001
0010
,
0100
0000
0000
1100
0000
0000
1001
0000
,
0001
0010
0100
1000
0010
0100
0001
0010
,
0100
1000
0010
0100
0001
0010
0100
1000
,
0010
0100
0001
1000
0100
0010
0001
0100
,
0010
0000
1000
0000
0100
0000
0010
0000
0001
0000
0100
0000
0001
1000
0001
1000
,
0100
0010
0001
0100
0010
1000
0100
0010
,
0001
0000
0000
0100
0000
0000
0010
0000
0000
1000
0000
0000
0100
0000
0000
1000
0000
0000
0001
0000
0100
0000
0001
0000
,
0010
0000
0000
0100
0000
0000
1000
0000
0100
0000
1000
0000
0010
0000
0000
0100
0000
0000
0001
0000
0010
0000
0100
0000
,
1000
0000
0000
0100
0000
0000
M100
0000
0000
0001
0000
0000
1000
0000
0000
0100
0000
0000
M100
0000
0001
0000
1000
0000
,
0001
0010
0100
1000
0010
0100
0001
0010
,
0100
1000
0010
0100
0001
0010
0100
1000
,
0010
0100
0001
1000
0100
0010
0001
0100
,
0010
0000
1000
0000
0100
0000
0010
0000
0001
0000
0100
0000
0010
1000
0010
1000
,
0001
0010
0100
1000
0010
0100
0001
1000
,
0100
0000
0010
0000
0001
0000
0100
0000
0010
0000
1000
0000
0001
1000
0100
1000
,
0001
0100
010M
1000
0100
M100
0001
1000
,
0001
0000
0100
0000
010M
0000
1000
0000
0001
0010
0001
1000
0100
0010
0001
1000
,
0001
0100
0010
0100
0001
1000
0100
0010
,
0M00
0010
1000
0100
M000
0100
0001
0010
,
0100
1000
0010
0100
0001
1000
0010
0100
,
00M0
0100
1000
0010
0100
0001
0010
0100
,
1000
0010
0100
0010
0M00
0010
0001
0100
,
000M
0100
1000
0100
M000
0100
0001
0010
,
0100
0010
0100
1000
0001
0010
0001
0100
,
000M
0100
1000
0001
0010
0100
1000
0010
,
0100
0000
0001
0000
0100
0000
0010
0000
1000
0000
0001
0100
0001
0000
0010
0000
,
0100
0000
1000
0001
1000
0000
0001
0100
0001
0000
1000
0100
1000
0100
0010
0001
,
1000
0000
0001
0100
0001
0000
0100
0000
0010
0000
1000
0010
1000
0000
0001
0100
,
0001
0000
1000
0010
1000
0000
0001
0100
0001
0100
0010
1000
0010
0100
0001
1000
,
0001
0000
1000
0100
1000
0000
0010
0000
0100
0000
0001
0100
0001
0000
1000
0000
,
0100
1000
0100
1000
0100
0000
0010
0000
0001
0000
1000
0000
0001
0000
0100
0000
,
0001
1000
0001
1000
0010
0000
0100
0000
0001
0000
0100
0000
0001
0000
0010
0000
,
0000
0100
1000
0000
0001
1000
0000
0001
,
0100
0000
0010
0000
1000
0001
0100
0001
,
1000
0000
0010
0000
0100
0001
0010
0100
,
1000
0000
0001
0000
0100
0010
0100
0010
,
1000
0000
0000
0100
0000
0000
0010
0000
0000
0001
0000
0000
1000
0000
0000
0001
0000
0000
0100
0000
0010
0000
1000
0000
,
0100
0000
1000
0000
0001
0100
0010
0100
,
0001
0000
0010
0000
0100
1000
0001
1000
,
0010
0000
0100
0000
0001
0010
0100
0010
,
0001
0000
1000
0000
0010
0000
0100
0000
0001
0000
1000
0000
0100
1000
0001
1000
,
0001
0000
0100
0000
0010
1000
0001
1000
,
0100
0000
0010
0000
0001
1000
0100
1000
,
0001
0000
0100
0000
0010
1000
0010
0100
,
0001
0000
0000
0010
0000
0000
0100
0000
0000
1000
0000
0000
0001
0000
0000
0100
0000
0000
0001
0000
0100
0000
0001
0000
,
0010
0000
0100
0000
1000
0010
0100
0010
,
1000
0000
0001
0000
0010
0100
1000
0001
,
1000
0100
M100
0001
0100
010M
1000
0001
,
0100
0000
010M
0000
1000
0000
0100
0000
M100
0000
0001
0000
1000
0010
1000
0010
,
0200
0000
0000
0302
,
0000
0000
0023
0000
,
0000
0230
0000
2300
,
0000
0000
3020
0000
,
0230
0000
0000
0302
,
0000
0000
0023
0000
,
0000
0230
0000
0000
,
0000
1300
1000
0000
0010
0010
0000
0100
,
0001
0000
0000
0100
0010
0000
1000
0100
,
0000
1000
0001
0000
0100
0010
0000
0010
,
0100
0000
0001
1000
0100
1000
0001
0010
,
0000
0010
0100
0000
1000
0001
0000
0001
,
0100
0010
1000
0001
,
0100
0000
0000
0001
0000
0000
1000
0100
0010
0100
1000
0010
,
0100
0000
0000
0000
0000
0000
0000
0000
0000
0001
0010
0100
,
1000
0001
0000
1000
0100
0000
1000
0001
,
0100
0000
0010
0000
0100
0000
0001
0010
,
0100
1000
0001
0000
1000
0000
0010
0100
,
0010
0000
0100
0000
0001
0000
0010
0100
,
1000
0001
1000
0000
0010
0000
0110
0000
,
0101
0000
0001
0000
0010
0000
0100
1000
,
0001
1000
0010
0000
0100
0000
0001
0010
,
0100
1000
0001
0000
1000
0100
1000
0100
,
0010
0000
0000
0011
0000
0000
1001
0000
,
1000
0000
0010
0000
1000
0100
00M0
0100
,
0001
1000
0100
0010
0100
1000
0001
0100
,
0010
0000
1000
0000
0001
0100
000M
0100
,
1000
0010
0100
0001
0010
0100
1000
0001
,
0100
0000
0010
0000
1000
0100
M000
0100
,
0001
1000
0100
0010
0100
1000
0001
0100
,
0010
0100
0000
0010
0100
0000
0010
0100
,
0001
0000
1000
0000
0100
0000
1000
0000
0001
0100
0010
1000
0001
0100
0010
1000
,
0001
0010
0001
1000
0100
0010
0001
1000
0100
0010
0100
1000
0001
0010
0100
1000
,
0001
0010
0001
1000
0100
1000
0001
0010
0100
1000
0001
1000
0100
0010
0001
1000
,
0100
0010
0001
1000
0100
0010
0001
1000
0100
1000
0100
0010
0001
1000
0100
1000
,
0100
0010
0001
1000
0100
1000
0001
0010
0100
1000
0001
0010
0001
1000
0100
0010
,
0001
1000
0001
1000
0010
0100
0001
0100
0010
1000
0010
0100
0001
1000
0001
0100
,
0010
0100
0001
1000
0001
0100
0001
0100
0010
1000
0010
0100
0001
1000
0001
0100
,
0010
0100
0010
1000
0001
0100
0001
1000
0010
1000
0001
1000
0001
0100
0001
0100
,
0010
1000
0010
0100
0001
1000
0001
1000
0010
0100
0010
1000
0001
0100
0001
1000
,
0001
1000
0100
0010
0100
1000
0001
0010
0100
1000
0001
0010
0001
1000
0100
1000
,
0001
0010
0100
1000
0001
0010
0100
1000
0001
0010
0001
1000
0100
1000
0001
0010
,
0100
0010
0001
1000
0100
0010
0001
1000
0001
1000
0100
0010
0100
1000
0001
0010
,
0100
1000
0001
0010
0100
1000
0001
0010
0001
1000
0100
0010
0100
1000
0001
1000
,
0001
0100
0001
0100
0010
1000
0010
0100
0001
0100
0001
1000
0010
0100
0001
0100
,
0001
1000
0010
0100
0010
1000
0001
0100
0001
1000
0010
0100
0001
1000
0010
0100
,
0001
0100
0100
1000
0100
0100
0001
1000
,
0001
1000
0010
1000
0010
0100
0001
1000
0001
1000
0100
0010
0001
0010
0100
1000
,
0002
0003
0000
0000
;
