#TITLE:DROP OUT 300;
#SUBTITLE:;
#ARTIST:Neo-Kamek feat. NW260 & Omega;
#TITLETRANSLIT:;
#SUBTITLETRANSLIT:;
#ARTISTTRANSLIT:;
#CREDIT:;
#BANNER:banner.png;
#BACKGROUND:background.png;
#LYRICSPATH:;
#CDTITLE:;
#MUSIC:DropOut300.ogg;
#OFFSET:1.580;
#SAMPLESTART:16.000;
#SAMPLELENGTH:12.000;
#SELECTABLE:YES;
#BPMS:0.000=300.000,286.000=280.000,286.250=260.000,286.500=240.000,286.750=220.000,287.000=200.000,287.250=180.000,287.500=160.000,287.750=140.000,288.000=120.000,288.250=100.000,288.500=80.000,288.500=60.000,288.750=40.000,289.000=300.000;
#STOPS:289.000=1.900
;
#BGCHANGES:;
// cache tags:
#FIRSTBEAT:24.000;
#LASTBEAT:470.500;
#SONGFILENAME:Songs/Beyond Legends/Drop Out 300/DropOut300.sm;
#HASMUSIC:1;
#HASBANNER:1;
#MUSICLENGTH:96.000;
// end cache tags

//---------------dance-single - BASIC----------------
#NOTES:
     dance-single:
     BASIC:
     Easy:
     6:
     0.490,0.613,0.427,0.156,0.000,273.000,41.000,15.000,0.000,0.000:

0000
0000
0000
0000
,
0000
0000
0000
0000
,
0000
0000
0000
0000
,
0000
0000
0000
0000
,
0000
0000
0000
0000
,
0000
0000
0000
0000
,
1000
0000
0100
0000
,
0010
0000
0001
0000
,
1000
0000
0100
0000
,
0001
0100
1001
0000
,
0001
0000
0100
0000
,
0010
0000
1000
0000
,
0001
0000
0100
0000
,
1000
0100
1001
0000
,
1000
0001
1000
0000
,
0001
1000
0001
0000
,
0100
0010
0100
0000
,
0010
0100
0010
0000
,
1000
0100
0010
0000
,
0001
0100
0010
0000
,
1000
0100
0010
0000
,
0001
0100
0010
1000
,
0000
0000
0000
0000
,
0000
1001
0000
0000
,
1000
0100
1000
0000
,
0001
0100
0001
0100
,
0010
1000
0010
0000
,
0001
0010
0001
0010
,
0001
0100
0001
0000
,
1000
0100
1000
0100
,
0010
0001
0010
0000
,
1000
0010
1000
0010
,
1000
1000
0000
0000
,
0001
0001
0000
0000
,
0100
0100
0000
0000
,
0010
0100
0010
0100
,
0010
0010
0000
0000
,
1000
1000
0000
0000
,
0100
0000
0000
0100
0000
0000
0000
0000
,
0010
0001
0010
0001
,
1001
0000
1100
0000
,
0011
0000
1010
0000
,
0101
0000
0110
0000
,
1000
0000
0001
0000
,
1001
0000
0000
0000
,
0110
0000
0000
0000
,
1001
0000
0000
0000
,
0110
0000
0000
0000
,
1000
0100
0000
0000
,
0010
0001
0000
0000
,
0100
0010
0000
0000
,
1000
0001
0000
0000
,
1000
0001
1000
0001
,
0100
0010
0100
0010
,
1000
0100
0010
0001
,
0100
0010
1001
0000
,
1000
0100
1000
0000
,
0001
0100
0001
0000
,
1000
0100
1000
0100
,
0001
0100
0001
0000
,
1000
0010
1000
0000
,
0001
0010
0001
0000
,
1000
0010
1000
0010
,
0001
0010
0001
0000
,
1000
0001
1000
0000
,
0001
1000
0001
0000
,
1000
0001
1000
0001
,
1001
0000
0110
0000
,
1000
0100
0001
0000
,
1000
0010
0001
0000
,
1100
0000
0101
0000
,
1001
0000
2002
0000
,
0000
0000
0000
0000
0000
0000
0000
0000
0000
0000
0000
0000
0000
0000
0000
3003
0000
0000
0000
0000
0000
0000
0000
0000
0000
0000
0000
0000
0000
0000
0000
0000
0200
0000
0000
0000
0000
0000
0000
0000
0000
0000
0000
0000
0000
0000
0000
0000
0000
0000
0000
0000
0000
0000
0000
0000
0000
0000
0000
0000
0000
0000
0000
0000
,
0000
0000
0000
0000
,
0000
0300
2000
0000
,
0001
0000
0001
0000
,
3001
0000
0200
0000
,
0010
0000
0010
0000
,
0310
0000
0002
0000
,
1000
0000
1000
0000
,
1003
0000
0020
0000
,
0100
0000
0100
0000
,
0130
0000
1000
0000
,
1100
0000
0001
0000
,
0101
0000
1000
0000
,
1010
0000
0001
0000
,
0011
0000
1000
0001
,
1000
0001
0100
0010
,
0100
0010
1000
0100
,
0001
0100
1000
0010
,
0001
0010
1010
0000
,
0000
0101
0000
0000
,
1100
0000
0000
0011
,
0000
0000
1001
0000
,
0000
0110
0000
0000
,
0011
0000
0000
1100
,
0000
0000
0101
0000
,
0000
0010
1000
0001
,
0100
0000
0010
0000
1000
0000
0000
0010
,
0000
1000
2020
0000
,
0000
0000
3030
0000
0001
0000
0000
0010
,
0000
0001
0022
0000
,
0000
0000
0033
0000
1000
0000
0000
0001
,
0000
0000
1000
0000
0100
0000
0000
0010
,
0000
0000
0100
0000
1000
0000
0000
0001
,
0000
1000
2002
0000
,
0000
0000
3003
0000
1000
0000
0000
0100
,
0000
0000
0010
0000
0001
0000
0000
0100
,
0000
0000
0010
0000
0100
0000
0000
0001
,
0000
0000
0010
0000
0100
0000
0000
1000
,
0000
0010
1000
1000
,
0001
0001
0010
0010
,
0100
0100
1001
0000
,
0000
0000
0110
0000
,
0000
0000
1100
0000
,
0101
0000
2002
0000
,
0000
0000
0000
0000
,
0000
0000
0000
0000
0000
3003
0000
0000
;

//---------------dance-single - ANOTHER----------------
#NOTES:
     dance-single:
     ANOTHER:
     Medium:
     8:
     0.710,0.796,0.510,0.354,0.042,394.000,49.000,34.000,0.000,0.000:

0000
0000
0000
0000
,
0000
0000
0000
0000
,
0000
0000
0000
0000
,
0000
0000
0000
0000
,
0000
0000
0000
0000
,
0000
0000
0000
0000
,
1000
0001
1000
0001
,
1000
0001
1000
0001
,
0100
0010
0100
0010
,
0100
0010
0110
0000
,
1000
0100
1000
0001
,
0100
0001
1000
0100
,
1000
0001
0100
0001
,
1000
0001
1001
0000
,
1000
0000
1000
0000
1000
0001
0000
0000
,
0001
0000
0001
0000
0001
1000
0000
0000
,
0100
0000
0100
0000
0100
0010
0000
0000
,
1100
0101
1001
0000
,
1000
0000
0100
0000
0100
1000
0000
0000
,
0001
0000
0100
0000
0100
0001
0000
0000
,
1100
0000
0101
0000
,
1000
0100
1000
0000
0001
0100
0001
0000
,
0000
0000
0000
0000
,
0000
1001
0000
0000
,
1000
0100
1100
0000
,
1000
0010
0100
0001
,
0001
0100
0101
0000
,
0001
0100
0010
1000
,
1000
0010
1010
0000
,
1000
0100
0010
0001
,
0001
0010
0011
0000
,
0001
0010
0100
1000
,
1000
0000
0010
0000
0000
0100
0000
0100
,
0001
0000
1000
0000
0000
0001
0000
0001
,
0100
0000
0010
0000
0000
1000
0000
1000
,
0001
0100
0010
1000
,
1000
0000
1000
0000
0000
0001
0000
0001
,
0100
0000
0100
0000
0000
0010
0000
0010
,
1000
0000
0000
0001
0000
0000
0100
0000
,
0010
0100
0010
0100
0010
0100
0010
0100
,
2000
0000
0000
0200
3000
0000
0020
0000
,
0300
0002
0000
0030
,
0200
0003
0000
0020
0300
0000
2000
0000
,
0030
0000
0002
0000
3000
0003
0000
0000
,
1001
0000
0000
0000
0000
1001
0000
1001
,
0000
0000
0000
0000
0000
1001
0000
0110
,
0000
0000
0000
0000
0000
1001
0000
0110
,
0000
0000
0000
0000
,
1000
0100
1100
1000
,
0001
0100
0101
0001
,
1000
0010
1010
1000
,
0001
0010
0011
0001
,
1000
0001
0100
0001
,
0010
0001
1000
0010
,
0100
0001
1000
0100
,
0010
0001
1000
0100
,
1000
0000
0100
0000
1000
0100
0000
0000
,
1000
0000
0001
0000
1000
0001
0000
0000
,
0001
0000
0100
0000
0001
0100
0000
0000
,
0101
1100
0101
0000
,
0001
0000
0010
0000
0001
0010
0000
0000
,
0001
0000
1000
0000
0001
1000
0000
0000
,
1000
0000
0010
0000
1000
0010
0000
0000
,
1010
0011
1010
0000
,
1000
0000
0100
0000
0010
0001
0000
0000
,
0100
0000
0001
0000
1000
0010
0000
0000
,
1000
0000
0001
0000
0001
1000
0000
0000
,
1001
0110
1001
0000
,
1000
0000
1000
0000
1000
1000
0000
0000
,
0001
0000
0001
0000
0001
0001
0000
0000
,
0100
0000
0010
0000
0100
0000
0010
0000
0100
0000
0010
0000
,
0110
0000
2002
0000
,
0000
0000
0000
0000
0000
0000
0000
0000
0000
0000
0000
0000
0000
0000
0000
3003
0000
0000
0000
0000
0000
0000
0000
0000
0000
0000
0000
0000
0000
0000
0000
0000
0200
0000
0000
0000
0000
0000
0000
0000
0000
0000
0000
0000
0000
0000
0000
0000
0000
0000
0000
0000
0000
0000
0000
0000
0000
0000
0000
0000
0000
0000
0000
0000
,
0000
0000
0000
0000
,
0000
0300
0000
1001
,
0000
1100
0000
0101
,
0000
1100
0000
0011
,
0000
1010
0000
0011
,
0000
0110
1000
0001
,
1000
0001
0100
0010
,
0100
0000
0010
0000
1000
0001
1000
0000
,
0001
1000
0001
0000
2002
0000
0000
0000
,
0000
0000
3003
0000
1000
0100
0000
0000
,
0100
0010
0000
0000
0010
0001
0000
0000
,
0001
0100
0000
0000
0100
0010
0000
0000
,
0010
1000
0000
0000
1000
0001
0000
0000
,
0001
0100
0000
0000
0001
0100
0001
0000
,
1000
0100
1000
0000
0001
0010
0001
0000
,
1000
0010
1000
0000
0001
1000
0001
0000
,
0100
0010
0100
0000
0001
0010
1000
0000
,
1000
0010
0001
0000
0020
0000
0100
0000
,
0130
0002
1000
1003
,
0200
0010
0310
0002
,
0100
0103
0020
1000
,
1030
0002
0010
0013
,
0200
1000
1300
2200
,
0000
3300
0202
0000
,
0303
0000
0001
0100
0010
1000
0100
0010
,
0001
1000
0010
0100
0001
0000
0000
1000
,
0000
1000
0001
0000
2000
0000
0001
0000
,
0000
0001
3000
0000
0100
0000
0000
0010
,
0000
0010
0100
0000
0020
0000
0100
0000
,
0000
0100
0030
0000
0010
0000
0000
1000
,
0000
1000
0010
0000
0100
0000
0000
0001
,
0000
0001
0100
0000
0001
0000
0000
1000
,
0000
1000
0001
0000
2002
0000
0000
0000
,
0000
0000
3003
0000
2000
0000
0000
0100
,
0000
0100
3100
0000
0020
0000
0000
0001
,
0000
0001
0031
0000
0200
0000
0000
0001
,
0000
0001
0301
0000
2000
0000
0000
0010
,
0000
0010
3010
0000
1000
0000
0000
0100
,
0000
0010
0001
0000
1000
0010
0100
0001
,
0100
0000
0000
0010
0000
0000
1000
0000
0000
0010
0000
0000
0100
0000
0000
0000
0001
0000
0000
0000
0100
0000
0000
0000
,
0000
0000
0000
0000
0000
0000
0010
0000
1000
0000
0010
0000
,
0000
0000
1001
0000
,
0110
0000
2002
0000
,
0000
0000
0000
0000
,
0000
0000
0000
0000
0000
3003
0000
0000
;

//---------------dance-single - MANIAC----------------
#NOTES:
     dance-single:
     MANIAC:
     Hard:
     10:
     0.912,1.000,0.937,0.156,0.042,508.000,90.000,15.000,0.000,0.000:

0000
0000
0000
0000
,
0000
0000
0000
0000
,
0000
0000
0000
0000
,
0000
0000
0000
0000
,
0000
0000
0000
0000
,
0000
0000
0000
0000
,
1000
0001
1000
0100
,
1000
0001
1000
0100
,
1000
0000
0010
0000
1000
0001
1000
0001
,
1000
0100
0101
0000
,
0001
0100
0001
0100
,
0010
1000
0010
1000
,
1000
0000
0100
0000
1000
0001
0100
0001
,
1000
1100
0101
0000
,
1000
0000
0010
0000
1000
0010
0000
0010
,
1000
0000
0001
0000
1000
0001
0000
0001
,
0100
0000
0001
0000
0001
0100
0000
0100
,
0001
1100
0011
0000
,
0010
0000
1000
0000
0010
1000
0000
1000
,
0010
0000
1000
0000
1000
0001
0000
0100
,
0001
0100
0001
0000
0010
1000
0010
0000
,
0010
1000
0001
0100
0010
1000
0001
0010
,
0000
0000
0000
0000
,
0000
1001
0000
0000
,
1000
0000
0001
0100
0001
0000
0000
0000
,
1001
1100
0101
1001
,
0001
0000
1000
0010
1000
0000
0000
0000
,
1001
1010
0011
1001
,
0100
0000
1000
0010
1000
0000
0000
0000
,
0110
1010
0011
0110
,
0010
0000
0100
0001
0100
0000
0000
0000
,
0110
1100
0101
0110
,
0100
0000
0100
0000
0000
1000
0000
1000
,
0010
0000
0010
0000
0000
1000
0000
1000
,
0001
0000
0001
0000
0000
0100
0000
0100
,
1100
0101
1100
0101
,
1000
0000
1000
0000
0000
0010
0000
0010
,
1000
0000
0100
0000
0000
0100
0000
0100
,
0001
0000
0000
1000
0000
0000
0100
0000
,
1000
0010
0100
0001
1000
0100
0010
0001
,
2000
0000
0000
0200
3000
0000
0020
0000
,
0300
0002
0000
0030
,
0200
0003
0000
0020
0300
0000
2000
0000
,
0030
0000
0002
0000
3000
0003
0000
0000
,
1001
0000
0000
0000
0000
1000
0000
0001
,
1001
0000
0000
0000
0000
0100
0000
0010
,
0110
0000
0000
0000
0000
0100
0000
0010
,
0110
0000
0000
0000
,
1001
1100
1100
1001
,
0101
0101
1001
1100
,
1001
0011
0011
1001
,
1010
1010
1001
0011
,
1000
0010
1000
0001
,
0100
0001
1000
0001
,
1000
0000
0010
1000
0010
1000
0010
0000
,
0110
1001
0110
0000
,
0010
0000
0001
0000
1000
0100
0000
0100
,
1000
0000
0001
0000
1000
0001
0000
0001
,
0010
0000
0001
0000
0001
0010
0000
0010
,
1000
0001
1001
0000
,
1000
0000
0100
0000
0100
0001
0000
0001
,
0100
0000
1000
0000
0100
1000
0000
1000
,
0010
1000
0001
1000
0100
1000
0001
1000
,
0010
1000
0001
1001
0000
0110
0000
0000
,
0001
0000
0100
0001
0100
0001
0100
0001
,
1000
0000
0100
1000
0100
1000
0100
1000
,
0010
0000
1000
0001
0010
0001
0100
0001
,
1000
0010
1000
1010
0000
0011
0000
0000
,
1001
0000
1000
0001
1000
0001
1000
0001
,
0010
0000
0100
0010
0100
0010
0100
0010
,
1000
0000
0010
0000
1000
0000
0001
0000
0010
0000
0001
0000
,
1001
0000
2002
0000
,
0000
3003
0200
0000
,
0000
0000
0000
0000
,
0000
0300
0110
1100
,
0101
0110
1010
0011
,
0110
1001
1100
1100
,
1010
1010
0011
0011
,
0101
0101
0001
1000
,
0100
0001
0010
1000
,
0100
0010
0001
1000
,
0100
0010
2000
0002
,
0000
0000
3003
0000
1000
0100
1000
0100
,
1000
0001
1000
0001
0100
0001
0100
0001
,
0100
0010
0100
0010
1000
0010
1000
0010
,
1000
0001
1000
0001
0010
0001
0010
0001
,
0010
0100
0010
0100
1000
0100
1000
0100
,
0001
0100
0001
1000
0100
0010
0001
1000
,
0010
0100
0001
1000
0100
0010
0001
1000
,
0001
0100
0001
0100
0010
1000
0100
0010
,
0001
0000
0000
0000
1000
0100
1000
0100
,
1000
0000
0010
1000
0010
1000
0010
0000
,
0100
0010
0100
0010
0100
0000
0001
0100
,
0001
0100
0001
0000
0010
0001
0010
0001
,
0010
0000
0100
0010
0100
0010
0100
0000
,
1000
0100
1000
0100
1000
0000
0001
0100
,
0001
0100
0001
0000
1000
0010
1000
0010
,
1000
0000
1000
0100
0001
0100
1000
0010
,
0001
0010
1000
0100
1000
0000
0000
0001
,
0000
0100
0001
0000
0101
0000
0101
0000
,
0000
1100
0000
0000
0001
0000
0000
1000
,
0000
0100
1000
0000
1100
0000
1100
0000
,
0000
0101
0000
0000
1000
0000
0000
0010
,
0000
0010
1000
0000
0001
0000
0000
0010
,
0000
0010
0001
0000
0100
0000
0001
1000
,
0010
0100
0001
1000
0100
0010
0001
1001
,
0000
0110
0000
0000
1100
0000
0000
1000
,
0000
0100
1000
0000
0101
0000
0000
0001
,
0000
0100
0001
0000
1010
0000
0000
0010
,
0000
0010
1000
0000
0011
0000
0000
0010
,
0000
0010
0001
0000
1000
0100
0001
0100
,
1000
0010
0001
0010
1000
0001
0100
0001
,
1000
0000
0000
0010
0000
0000
1000
0000
0000
0001
0000
0000
0100
0000
0000
0000
0100
0000
0000
0000
0100
0000
0000
0000
,
0000
0000
0000
0000
0000
0000
0010
0000
0010
0000
0010
0000
,
0000
0000
1010
0011
,
1100
0101
2002
0000
,
0000
0000
0000
0000
,
0000
0000
0000
0000
0000
3003
0000
0000
;
