#TITLE:Comfort Betrays;
#SUBTITLE:;
#ARTIST:As I Lay Dying;
#TITLETRANSLIT:;
#SUBTITLETRANSLIT:;
#ARTISTTRANSLIT:;
#CREDIT:Death4Te!;
#BANNER:Comfort Betray's - bn.png;
#BACKGROUND:Comfort Betray's - bg.png;
#LYRICSPATH:;
#CDTITLE:!cdtitle-Death4Te!-.png;
#MUSIC:Comfort Betrays.ogg;
#OFFSET:-8.408;
#SAMPLESTART:65.217;
#SAMPLELENGTH:12.000;
#SELECTABLE:YES;
#DISPLAYBPM:175.000;
#BPMS:0.000=175.000;
#STOPS:5.000=0.500
;
#BGCHANGES:;
// cache tags:
#FIRSTBEAT:4.000;
#LASTBEAT:452.000;
#SONGFILENAME:Songs/SSSC PACK/[Death4Te!] - Comfort Betrays/comfortbetrays.sm;
#HASMUSIC:1;
#HASBANNER:1;
#MUSICLENGTH:170.322;
// end cache tags

//---------------dance-single - ----------------
#NOTES:
     dance-single:
     :
     Challenge:
     13:
     1.000,1.000,0.276,0.370,0.787,1082.000,47.000,63.000,30.000,0.000:

0000
0000
0000
0000
,
0001
0000
1000
0000
1001
0000
M00M
0000
1000
0001
1000
0001
1000
0001
1000
0001
,
1000
0001
1000
0001
1000
0001
1000
0001
1000
0001
1000
0001
1000
0001
1000
0001
,
1000
0001
1000
0001
1000
0001
1000
0001
1000
0001
1000
0001
1000
0010
0100
0000
,
0010
1000
0100
0000
0010
0000
0001
0000
0010
0100
0010
0000
0001
1000
0001
0000
,
1000
0000
0002
0000
0203
0000
0320
0000
2030
0000
3001
0000
0001
0010
0100
0000
,
1000
0100
0010
0000
0100
0000
1000
0000
0010
0100
0010
0000
1000
0001
1000
0000
,
0001
0000
0020
0000
0230
0000
0302
0000
0203
0000
0310
0000
0001
0010
0001
0000
,
1000
0100
1000
0000
0010
0000
0100
0000
0010
1000
0100
0000
1000
0010
0100
0000
,
0001
0020
0230
2300
3020
2030
0000
0001
,
3002
0100
0203
0010
0320
1000
0000
1030
,
0010
0200
0302
1003
1MM1
2000
0100
3200
,
0320
0001
0230
0310
0110
0000
0011
0000
,
1010
0020
0100
0100
0M30
0010
2000
3100
,
2000
0000
3010
0000
0200
0000
0301
0000
0200
0000
0010
0000
M000
0300
0010
0000
,
1000
0100
0010
0001
0100
0020
0130
0002
,
0013
0100
0002
0103
2000
3020
0100
0M01
,
1030
0100
1000
0100
0010
0100
2000
0000
3001
0000
1000
0000
0100
0010
0100
0000
,
1000
0100
1000
0000
0010
0100
0001
0000
0100
0010
0100
0000
0001
0010
0001
0000
,
2000
3020
0230
0320
2030
3001
2000
0100
,
3200
0000
0300
0020
0000
0000
0100
0000
0000
0M00
0000
0000
0032
0000
0000
0003
0000
0000
2000
0000
0000
3010
0000
0000
,
0100
0010
0100
0001
0100
1000
0200
0000
0302
0000
0103
0000
0001
0010
0100
0000
,
1000
0100
0010
0000
0100
0010
0100
0000
1000
0010
0100
0000
0010
1000
0100
0000
,
2000
0000
3200
0000
0320
0000
0230
0000
1300
0000
1000
0100
0010
0000
0100
0000
,
1100
1000
1001
0001
0100
0001
0101
0000
,
1010
0000
0000
0000
1000
0001
1000
0001
1000
0000
0000
0000
0001
0000
0100
0000
,
0000
1010
0000
0101
0000
0100
0100
0000
,
0110
0000
0000
0000
0100
0001
0010
0000
0100
1000
0010
0000
0100
0000
0100
0000
,
0000
0110
0000
0101
0000
0001
0001
0000
,
1001
0000
0000
0000
1000
0100
1000
0100
1000
0000
0001
0010
0001
1000
0010
1000
,
0010
1000
0001
0010
0001
0010
0001
1000
0001
1000
0001
1000
0001
0010
0100
0010
,
0100
0010
0001
1000
0001
0010
0100
00M0
1001
0000
0001
0000
0101
0000
0110
0000
,
0010
1010
1001
1010
0010
0110
0101
0010
,
1010
0000
1000
0000
1001
0000
0101
0000
0101
0000
0001
0000
1001
0000
0001
1000
,
0001
0000
0010
0100
1000
0000
0010
0100
0001
0000
0100
0000
0010
1000
0010
0000
,
0010
0100
0001
0000
1000
0100
0010
0100
1000
0001
0100
0000
0001
0000
0010
0100
,
0010
0000
0010
1000
0010
0000
0001
0100
0010
0000
0100
0000
0001
0100
0001
0000
,
0010
0100
1000
0000
0100
0010
0100
1000
0001
0100
0010
0000
1000
0000
0100
0001
,
0100
0000
1000
0010
0100
0000
0001
0100
1000
0000
0100
0000
0010
1000
0100
0000
,
1000
0010
0100
0000
0001
0010
0100
1000
0010
0100
0010
0000
1000
0000
0010
0100
,
0001
0000
0010
0100
1000
0000
0010
1000
0001
0000
0100
0000
0010
1000
0100
0000
,
1000
0100
1000
0000
0001
0010
0001
0000
0200
0000
0000
0000
0010
0000
0010
0000
,
0000
0000
0001
0000
0000
0000
0010
0000
0000
0000
1000
0000
1000
0300
0000
0000
,
0100
0000
0001
0000
0200
1000
1000
0001
,
0000
0010
0000
0001
0302
0000
0023
0000
,
0032
0000
2003
0000
3002
0000
1000
1000
,
0000
0000
0010
0000
0000
0000
0100
0000
0000
0000
1000
0000
1000
0003
0000
0000
,
1010
0000
0000
0000
0010
1000
0010
0000
2000
0000
0001
0000
0001
0000
0100
0000
,
0000
0010
0000
0001
0000
0100
0100
3000
,
0100
0010
0001
0000
0100
0010
0100
0010
0100
0000
0010
0000
1000
0000
0100
0000
,
0001
0000
0100
0000
0010
0100
1000
0000
0010
0000
0100
0000
0010
0000
1000
0000
,
0001
1000
0001
0000
0100
0000
0010
0000
0100
0010
0100
0000
0001
0000
0100
0000
,
0010
0000
1000
0000
1000
0001
1000
000M
0100
0010
0001
0100
0001
0100
0010
1000
,
0010
1000
0100
1000
0100
1000
0010
0100
0010
0000
0100
0000
0001
0000
1000
0000
,
0100
0000
0010
0000
0100
1000
0100
0000
1000
0000
0010
0000
0100
0000
0010
0000
,
0100
0010
0100
0000
0100
0000
0001
0000
0010
0100
0010
0000
0100
0000
1000
0000
,
0100
0000
0010
0000
0001
1000
0001
0000
0001
0000
0100
0000
0010
0000
1000
0000
,
0100
0010
0100
0000
0100
0000
1100
0000
0011
0000
0010
0000
0001
0000
0100
0000
,
0010
1000
0001
0100
0001
0100
0010
0100
,
0010
1000
0100
1000
0010
0100
0001
0100
,
0010
0000
0100
0000
0001
0000
0010
0000
0100
1000
0100
1000
0100
0010
0001
0010
,
0001
0100
0001
0100
0001
0010
0100
0010
0100
0000
1100
0000
1000
0000
0010
0000
,
0100
0001
0100
0010
1000
0100
0010
0001
,
0100
0010
0100
0001
1000
0100
0010
0100
,
1000
0010
0100
0010
0100
0001
1000
0001
,
0100
0000
0010
0000
1000
0000
0100
0000
1000
0100
0010
0001
0010
0100
1000
0100
,
0010
0001
0010
0100
1000
0001
1000
0001
0010
0100
0010
0100
1000
0001
1000
0001
,
0100
0010
1000
0010
0100
0010
0100
0001
0100
0001
1000
0010
1000
0100
1000
0100
,
0010
0001
0010
0001
0100
0001
0100
0001
1000
0010
1000
0010
1000
0001
0010
0001
,
2000
0000
0000
0000
0000
0000
3000
0000
1000
0100
1000
0100
0010
0100
0010
0100
,
1000
0010
1000
0010
0100
0010
0100
0010
1000
0001
1000
0001
0100
0010
1000
0100
,
2000
0000
0000
3000
0000
0000
0000
0001
0010
0100
1000
0100
0010
0001
0010
0100
,
1000
0100
0010
0001
0010
0100
1000
0001
0100
0000
0000
0001
0000
0000
0010
0000
,
0000
0100
0000
0000
1000
0000
0100
0000
1100
0000
1000
0000
0010
0000
0100
0000
,
0001
0010
0001
1000
0100
1000
0010
0100
,
0001
0000
1000
0001
0000
0001
1000
0000
1MM1
0000
0001
0000
0100
0000
0010
0000
,
0100
0001
0010
0100
1000
0100
0001
0100
,
0010
0011
0001
0100
0110
0010
1000
0010
,
0100
0001
0010
0100
1000
0010
0100
0001
,
0100
0000
0010
1000
0000
0001
1000
0000
1MM1
0000
0001
0000
0200
0000
0310
0000
,
2000
3100
0020
0031
0200
0010
M000
0301
,
1000
0001
1000
0001
1000
0001
1000
0001
1000
0100
0010
0001
0010
0100
1000
0001
,
0100
0000
0000
0000
0000
0000
0000
0000
1000
0000
0010
0000
0100
0000
0010
0000
0000
0000
0000
M000
0000
0000
0000
0000
0100
0000
0001
0000
0010
0000
0100
0000
,
1000
0000
0000
0000
0MMM
0000
0000
0000
1000
0100
1000
0100
1000
0001
0100
0001
,
0100
0000
0000
0000
0000
0000
0000
0000
0100
0000
0010
0000
0100
0000
0001
0000
0000
0000
0000
M000
0000
0000
0000
0000
0010
0000
0100
0000
1000
0000
0100
0000
,
1000
0000
0000
0000
0MMM
0000
0000
0000
1000
0100
1000
0100
1000
0010
0100
0001
,
0010
0000
0M00
0000
0001
0100
1000
0100
0000
0000
000M
0000
0100
0001
0010
0100
,
1000
0000
0000
0000
0MMM
0000
0000
0000
1000
0001
1000
0100
0010
0100
1000
0001
,
0100
0000
M000
0000
0010
1000
0100
0010
0000
0000
0M00
0000
0001
0100
1000
0100
,
0010
0100
0001
0010
0100
0010
0001
1000
,
0010
0100
0010
0010
1000
0100
1000
1000
,
0100
0010
0100
0001
0100
1000
0010
0010
,
0100
0001
1000
1000
0001
0100
0010
0010
,
0100
0001
0100
0010
1010
1000
0010
0010
,
1000
0001
0100
0010
0100
0100
0001
0001
,
1000
0100
0001
0100
1000
1000
0010
0010
,
0100
0010
0100
0001
1000
1000
0010
0010
,
0100
0000
0010
0000
1000
0000
0001
0000
1000
0001
1000
0000
0001
0000
0100
0000
,
0010
0000
1000
0000
0001
1000
0001
0000
1000
0000
0100
0000
1000
0000
0010
0000
,
0100
0010
0100
0001
0010
0001
0100
0010
1000
0001
1000
0000
1000
0000
0001
0000
,
0010
0000
0001
0000
1000
0100
1000
0000
0001
0000
0001
0000
0100
0000
0010
0000
,
0100
0010
0100
0001
0010
0001
1000
0100
1000
0010
0100
0000
0001
0000
1000
0000
,
0100
0000
0010
0100
0010
0000
0001
0010
0001
0000
1000
0000
0010
0000
0100
0000
,
0010
1000
0100
0010
0001
0100
0001
0010
0100
1000
0010
0000
0100
0000
0001
0000
,
0010
0000
0100
1000
0010
0000
0100
0001
0010
0000
0100
0000
1000
0000
0010
0000
,
0100
0010
0100
0010
1000
0010
1000
0010
1000
0001
1000
0000
0100
0000
0010
0001
,
0100
0000
0010
1000
0100
0000
1000
0001
0100
0000
0010
0000
1000
0100
0010
0000
,
0100
1000
0010
0000
0100
0010
0100
0001
0010
0001
0100
0000
0010
0000
0100
0010
,
0100
0000
0010
1000
0001
0000
0100
0001
1000
0000
0001
0000
0010
0001
0100
0000
,
0010
0100
0010
0000
1000
0001
1000
0000
1001
0000
0001
1000
0010
0000
1010
0000
,
0001
0000
1001
0000
0100
0000
0110
0000
0010
0000
0001
0000
1000
0010
0100
0000
,
0101
0000
0010
0000
1000
0001
1000
0001
1000
0001
1000
0000
0001
0000
1001
0000
,
0010
0000
1010
0000
0001
0000
0101
0000
0010
0000
1000
0000
0001
1000
0001
0000
,
1001
0000
0000
0000
;
