#TITLE:Cruciform Dachshund;
#SUBTITLE:;
#ARTIST:Igorrr;
#TITLETRANSLIT:;
#SUBTITLETRANSLIT:;
#ARTISTTRANSLIT:;
#CREDIT:;
#BANNER:../ban - Jawn2.png;
#BACKGROUND:../Jawn2 - bg.png;
#LYRICSPATH:;
#CDTITLE:../CDa.png;
#MUSIC:Cruciform Dachshund.ogg;
#OFFSET:0.009;
#SAMPLESTART:74.009;
#SAMPLELENGTH:17.777;
#SELECTABLE:YES;
#DISPLAYBPM:270.000;
#BPMS:0.000=270.000,365.000=135.000,389.000=180.000;
#STOPS:;
#BGCHANGES:;
// cache tags:
#FIRSTBEAT:40.000;
#LASTBEAT:462.500;
#SONGFILENAME:Songs/Jimmy Jawns 2/Cruciform Dachshund - [Aoreo]/Cruciform Dachshund.sm;
#HASMUSIC:1;
#HASBANNER:1;
#MUSICLENGTH:117.555;
// end cache tags

//---------------dance-single - J. Nero----------------
#NOTES:
     dance-single:
     J. Nero:
     Challenge:
     20:
     1.000,1.000,0.119,0.136,1.000,891.000,14.000,16.000,0.000,0.000:
0000
0000
0000
0000
,
0000
0000
0000
0000
,
0000
0000
0000
0000
,
0000
0000
0000
0000
,
0000
0000
0000
0000
,
0000
0000
0000
0000
,
0000
0000
0000
0000
,
0000
0000
0000
0000
,
0000
0000
0000
0000
,
0000
0000
0000
0000
,
1001
0001
0010
0100
,
1000
0001
0100
0001
0000
0000
0100
0000
0000
0010
0000
0000
,
1000
0000
0000
0100
0000
0000
1000
0001
1000
0100
0000
0000
,
0010
0000
0000
0001
0000
0000
0100
0000
0000
0010
1000
0001
,
1000
0000
0000
0100
0000
0000
0010
0001
1000
0001
0000
0000
,
1000
0100
1000
0001
0000
0000
0100
0000
0000
0010
0000
0000
,
1000
0000
0000
0100
0010
0001
1000
0000
0000
0001
0000
0000
,
0100
0001
1000
0001
0000
0000
0010
0100
1000
0001
0000
0000
,
1000
0000
0000
0100
0000
0000
1000
0001
1000
0100
0010
0001
,
1000
0010
0100
0010
1000
0001
1000
0100
0010
0001
0100
0001
,
1000
0100
0010
0100
1000
0001
0100
0000
0000
0000
0000
0000
,
0000
0000
0000
0000
,
0101
0000
0000
1001
,
0000
1100
0000
0000
,
0000
1000
1000
1000
,
1000
0000
0001
0100
0001
1000
0100
0010
,
0001
0100
0010
0100
0001
1000
0100
1000
,
0001
0000
0100
0010
0100
0000
0001
0000
0010
0000
0100
0000
1000
0000
0001
0000
,
1000
0000
0001
0100
0001
0000
1000
0100
0010
0000
0001
1000
0001
0000
1000
0010
,
0100
0000
0001
0100
0001
0000
0100
0000
0010
0000
1000
0000
0100
0000
0010
0000
,
0001
0100
0001
1000
0100
1000
0010
0100
,
0001
0000
1000
0100
1000
0000
0001
0000
0100
0000
0010
0000
0100
0000
0001
0000
,
1000
0000
0100
0010
0001
0000
1000
0001
1000
0000
0001
0100
0001
0000
1000
0010
,
0100
0000
0001
1000
0001
0000
0010
0000
0100
0000
1000
0000
0001
0000
0100
0000
,
0010
0100
0001
1000
0100
0010
0001
1000
,
0100
0000
1000
0001
0100
0000
0001
0000
0010
0000
0100
0000
1000
0000
0001
0000
,
0100
0000
0001
0100
0001
0000
1000
0100
0010
0000
0001
1000
0001
0000
1000
0010
,
0100
0000
0001
1000
0001
0010
0100
1000
0010
1000
0001
0100
0010
1000
0010
0100
,
0001
0010
0001
1000
0100
0010
0001
1000
0001
0100
0010
1000
0001
1000
0100
0010
,
0001
0100
0001
1000
0100
1000
0001
0100
0010
1000
0001
0010
0100
1000
0010
1000
,
0001
0100
0010
0100
0001
1000
0100
0010
0100
1000
0001
0100
0002
0000
0000
0000
,
0000
0000
1003
0100
1000
0010
0100
0010
,
1000
0100
0010
0001
0100
0010
0100
0001
,
1000
0100
0010
0001
1000
0100
1000
0001
,
1000
0100
0010
0100
1000
0010
0100
0001
,
0010
0100
1000
0001
1000
0000
0001
0000
0100
0000
0010
0000
1000
0000
0010
0000
,
0100
0001
1000
0100
0010
0001
1000
0010
,
1000
0001
0100
0001
0010
0100
1000
0001
,
0100
0010
1000
0100
0010
0001
2000
0000
,
0000
0000
0000
0000
,
3001
0000
0000
0100
0000
0000
0010
0000
0000
0000
0000
0000
1000
0000
0000
0000
0000
0000
0000
0000
0100
0000
0000
0000
0000
0000
0000
0000
0010
0000
0000
0000
0000
0000
0000
0000
0001
0000
0000
0000
0000
0000
0000
0000
1000
0000
0000
0000
,
0000
0001
0000
0200
0000
0000
0000
0000
0000
0000
0000
0000
,
0000
0301
0000
0000
,
0000
0000
0000
1000
0000
0000
0000
0000
0000
0001
0000
0100
,
0000
0000
0000
0001
0000
0100
0000
0010
0000
1000
0000
0100
,
0000
0010
0000
0001
0000
1000
0000
0100
0000
1000
0000
0001
,
0000
0100
0000
0001
0000
0000
0000
0000
0000
1000
0000
0000
,
0001
0000
0000
0100
0000
0000
0001
0000
0000
0000
0000
0000
1000
0000
0000
0000
0000
0000
0000
0000
0100
0000
0000
0000
0000
0000
0000
0000
0000
0000
0000
0000
0000
0000
0000
0000
0010
0000
0000
0000
0000
0000
0000
0000
0001
0000
0000
0000
,
0000
1000
0000
0001
0100
0001
1000
0100
0010
0001
1000
0010
,
0100
0010
1000
0001
0000
0100
0000
0001
0000
0010
0000
0100
,
0000
1000
0000
0001
0000
0100
0000
0001
0000
0100
0000
0010
,
0000
1000
0000
0002
0000
0000
0000
0000
0000
0000
0000
0000
,
0000
2003
0000
0000
,
0000
0000
0000
3100
0000
0010
0000
0000
0000
0001
0000
1000
,
0000
0100
0000
2000
3000
0001
0000
0100
0000
0001
0000
0000
,
0000
2000
0000
0000
,
0000
0000
0000
0000
,
3000
0000
0000
0000
0001
0100
0001
1000
0010
0100
0010
1000
0001
1000
0100
0010
,
0001
0100
0001
1000
0100
1000
0001
0100
0010
1000
0100
0010
0001
0100
0001
1000
,
0010
0100
0010
1000
0001
0010
0001
0100
0010
1000
0010
0100
0001
1000
0100
0010
,
0001
0100
0001
1000
0010
0100
0010
1000
0001
0010
0100
1000
0002
0000
0000
0000
,
0003
0000
0000
0000
1000
0100
1000
0001
0100
0010
1000
0010
0100
0001
0010
0100
,
1000
0001
1000
0010
0100
0001
1000
0100
1000
0010
0100
0001
1000
0001
0010
0100
,
1000
0010
1000
0001
0100
0010
1000
0001
0010
0100
1000
0001
0010
0001
0100
0010
,
1000
0001
0100
0010
0100
0001
1000
0100
0010
0001
1000
0001
0200
0000
0000
0000
,
0300
0000
0000
0000
0001
0100
0001
1000
0100
0010
0001
1000
0001
0100
0010
1000
,
0100
1000
0001
0100
0010
1000
0001
0010
0100
1000
0001
0010
0001
0100
0010
1000
,
0010
0100
0001
1000
0100
0010
0001
1000
0001
0100
0010
1000
0100
0010
0001
1000
,
0010
0100
0001
1000
0100
0010
0001
0100
0001
1000
0010
0100
0002
0000
0000
0000
,
0003
0000
0000
0000
1000
0001
0100
0010
1000
0001
1000
0100
0010
0001
0100
0001
,
1000
0010
0100
0010
1000
0001
0010
0001
0100
0010
1000
0010
0100
0001
1000
0100
,
0010
0001
0100
0001
1000
0010
1000
0001
0010
0100
1000
0001
0100
0010
1000
0100
,
1000
0001
0100
0010
1000
0001
0010
0100
1000
0010
1000
0001
0200
0000
0000
0000
,
0300
0000
0000
0000
0001
1000
0010
0100
0001
1000
0100
1000
0010
0100
0001
1000
,
0001
0010
0100
1000
0001
0100
0001
1000
0100
1000
0001
0010
0001
0100
0010
1000
,
0001
0100
0010
1000
0001
1000
0100
0010
0001
0100
0001
1000
0100
1000
0001
0100
,
0010
1000
0010
0100
0001
1000
0001
0010
0100
1000
0010
0100
0001
1000
0001
0100
,
0010
1000
0001
1000
0100
0010
0001
0100
0001
1000
0010
0100
0001
0100
0010
1000
,
0100
1000
0001
0100
0010
1000
0001
0100
0001
1000
0100
0010
0001
0100
0001
1000
,
0100
1000
0010
0100
0001
1000
0001
0010
0100
1000
0010
0100
0001
1000
0100
1000
,
0001
0100
0010
1000
0001
0010
0100
1000
0010
0100
0001
1000
0100
0010
0001
1000
,
0001
0000
0000
0100
0000
0000
0010
0000
0000
1000
0000
0000
0001
0000
0000
0000
0000
0000
0000
0000
1000
0000
0000
0000
0001
0000
0000
0000
0000
0000
0000
0000
1000
0000
0000
0000
0001
0000
0000
0000
0100
0000
0000
0000
0001
0000
0000
0000
,
0010
0000
0100
1000
0000
0001
0100
0010
0000
1000
0000
0100
,
1000
0001
1000
0100
0010
0001
0100
0000
0000
0001
1000
0100
,
0010
0001
1000
0001
0000
0000
0001
0000
0000
1000
0100
1000
,
0010
0000
0000
0000
0000
0000
0000
0000
0000
0000
0000
0000
0000
0000
0000
0000
0000
0000
0000
0000
0000
0000
0000
0000
0000
0000
0000
0000
0000
0000
0000
0000
0000
0000
0000
0000
0000
0000
0000
0000
0000
0000
0000
0000
0000
0000
0000
0000
0000
0000
0000
0000
0000
0000
0000
0000
0000
0000
0000
0000
0000
0000
0000
0000
0100
0000
0000
0000
0000
0000
0000
0000
0000
0000
0000
0000
0000
0000
0000
0000
0000
0000
0000
0000
0000
0000
0000
0000
0000
0000
0000
0000
0000
0000
0000
0000
0001
0000
0000
0000
0000
0000
0000
0000
0000
0000
0000
0000
0000
0000
0000
0000
0000
0000
0000
0000
0000
0000
0000
0000
1000
0000
0000
0000
0000
0000
0001
0000
0000
0000
0000
0000
1000
0000
0000
0000
0000
0000
0100
0000
0000
0000
0000
0000
0010
0000
0000
0000
0000
0000
0000
0000
0000
0000
0000
0000
0000
0000
0000
0000
0001
0000
0000
0000
0000
0000
0000
0000
0000
0000
0000
0000
0000
0000
0000
0000
1000
0000
0000
0000
0000
0000
0000
0000
0000
0000
0000
0000
0000
0000
0000
0000
,
0002
0000
0000
0000
0000
0000
0000
0000
0000
0000
0000
0000
1003
0000
0100
0000
1000
0000
0010
0000
0100
0000
0001
0000
1000
0000
0000
0100
0000
0000
0010
0000
0000
0001
0000
0000
1000
0000
0100
0000
1000
0000
0001
0000
0000
0000
0000
0000
,
0100
0001
1001
0000
1100
0000
0110
0000
,
0011
0001
1000
0000
0010
0100
0001
0000
,
1000
0010
0100
0000
0001
0010
0100
0000
,
1000
0001
0100
0000
0001
0010
0100
0000
,
1000
0001
1001
0000
0101
0000
0110
0000
,
1010
1000
0100
0000
0010
0001
1000
0000
,
0001
0100
0010
0000
1000
0100
0010
0000
,
0001
0000
0000
1000
0000
0000
0100
0000
0000
0000
0010
0000
0000
0000
0001
0000
0000
0000
1000
0000
0000
0000
0001
0000
,
0000
0000
0100
0000
0000
0000
0202
0000
0000
0303
0000
0000
0001
0000
0000
0000
0000
0000
0010
0000
0000
0000
0000
0000
,
0100
1000
0010
0100
,
0001
1000
0100
0010
,
0001
0000
0000
1000
0100
1000
0010
0100
0001
0010
0100
1000
,
0001
0100
0010
1000
0000
0000
0001
0000
0000
1000
0000
0000
,
0100
0010
0001
0100
,
0001
1000
0100
0010
,
0100
1000
0010
0100
,
0001
2002
0000
0000
,
0000
0000
0000
0000
,
0000
0000
0000
0000
0000
3003
0000
0000
;

//---------------dance-single - J. Nero----------------
#NOTES:
     dance-single:
     J. Nero:
     Hard:
     18:
     0.983,1.000,0.119,0.136,0.966,779.000,14.000,16.000,0.000,0.000:
0000
0000
0000
0000
,
0000
0000
0000
0000
,
0000
0000
0000
0000
,
0000
0000
0000
0000
,
0000
0000
0000
0000
,
0000
0000
0000
0000
,
0000
0000
0000
0000
,
0000
0000
0000
0000
,
0000
0000
0000
0000
,
0000
0000
0000
0000
,
1001
0001
0010
0100
,
1000
0001
0100
0001
0000
0000
0100
0000
0000
0010
0000
0000
,
1000
0000
0000
0100
0000
0000
1000
0001
1000
0100
0000
0000
,
0010
0000
0000
0001
0000
0000
0100
0000
0000
0010
1000
0001
,
1000
0000
0000
0100
0000
0000
0010
0001
1000
0001
0000
0000
,
1000
0100
1000
0001
0000
0000
0100
0000
0000
0010
0000
0000
,
1000
0000
0000
0100
0010
0001
1000
0000
0000
0001
0000
0000
,
0100
0001
1000
0001
0000
0000
0010
0100
1000
0001
0000
0000
,
1000
0000
0000
0100
0000
0000
1000
0001
1000
0100
0010
0001
,
1000
0010
0100
0010
1000
0001
1000
0100
0010
0001
0100
0001
,
1000
0100
0010
0100
1000
0001
0100
0000
0000
0000
0000
0000
,
0000
0000
0000
0000
,
0101
0000
0000
1001
,
0000
1100
0000
0000
,
0000
1000
1000
1000
,
1000
0000
0001
0100
0001
1000
0100
0010
,
0001
0100
0010
0100
0001
1000
0100
1000
,
0001
0000
0100
0010
0100
0000
0001
0000
0010
0000
0100
0000
1000
0000
0001
0000
,
1000
0000
0001
0100
0001
0000
1000
0100
0010
0000
0001
1000
0001
0000
1000
0010
,
0100
0000
0001
0100
0001
0000
0100
0000
0010
0000
1000
0000
0100
0000
0010
0000
,
0001
0100
0001
1000
0100
1000
0010
0100
,
0001
0000
1000
0100
1000
0000
0001
0000
0100
0000
0010
0000
0100
0000
0001
0000
,
1000
0000
0100
0010
0001
0000
1000
0001
1000
0000
0001
0100
0001
0000
1000
0010
,
0100
0000
0001
1000
0001
0000
0010
0000
0100
0000
1000
0000
0001
0000
0100
0000
,
0010
0100
0001
1000
0100
0010
0001
1000
,
0100
0000
1000
0001
0100
0000
0001
0000
0010
0000
0100
0000
1000
0000
0001
0000
,
0100
0000
0001
0100
0001
0000
1000
0100
0010
0000
0001
1000
0001
0000
1000
0010
,
0100
0000
0001
1000
0001
0010
0100
1000
0010
1000
0001
0100
0010
1000
0010
0100
,
0001
0010
0001
1000
0100
0010
0001
1000
0001
0100
0010
1000
0001
1000
0100
0010
,
0001
0100
0001
1000
0100
1000
0001
0100
0010
1000
0001
0010
0100
1000
0010
1000
,
0001
0100
0010
0100
0001
1000
0100
0010
0100
1000
0001
0100
0002
0000
0000
0000
,
0000
0000
1003
0100
1000
0010
0100
0010
,
1000
0100
0010
0001
0100
0010
0100
0001
,
1000
0100
0010
0001
1000
0100
1000
0001
,
1000
0100
0010
0100
1000
0010
0100
0001
,
0010
0100
1000
0001
1000
0000
0001
0000
0100
0000
0010
0000
1000
0000
0010
0000
,
0100
0001
1000
0100
0010
0001
1000
0010
,
1000
0001
0100
0001
0010
0100
1000
0001
,
0100
0010
1000
0100
0010
0001
2000
0000
,
0000
0000
0000
0000
,
3001
0000
0000
0100
0000
0000
0010
0000
0000
0000
0000
0000
1000
0000
0000
0000
0000
0000
0000
0000
0100
0000
0000
0000
0000
0000
0000
0000
0010
0000
0000
0000
0000
0000
0000
0000
0001
0000
0000
0000
0000
0000
0000
0000
1000
0000
0000
0000
,
0000
0001
0000
0200
0000
0000
0000
0000
0000
0000
0000
0000
,
0000
0301
0000
0000
,
0000
0000
0000
1000
0000
0000
0000
0000
0000
0001
0000
0100
,
0000
0000
0000
0001
0000
0100
0000
0010
0000
1000
0000
0100
,
0000
0010
0000
0001
0000
1000
0000
0100
0000
1000
0000
0001
,
0000
0100
0000
0001
0000
0000
0000
0000
0000
1000
0000
0000
,
0001
0000
0000
0100
0000
0000
0001
0000
0000
0000
0000
0000
1000
0000
0000
0000
0000
0000
0000
0000
0100
0000
0000
0000
0000
0000
0000
0000
0000
0000
0000
0000
0000
0000
0000
0000
0010
0000
0000
0000
0000
0000
0000
0000
0001
0000
0000
0000
,
0000
1000
0000
0001
0100
0001
1000
0100
0010
0001
1000
0010
,
0100
0010
1000
0001
0000
0100
0000
0001
0000
0010
0000
0100
,
0000
1000
0000
0001
0000
0100
0000
0001
0000
0100
0000
0010
,
0000
1000
0000
0002
0000
0000
0000
0000
0000
0000
0000
0000
,
0000
2003
0000
0000
,
0000
0000
0000
3100
0000
0010
0000
0000
0000
0001
0000
1000
,
0000
0100
0000
2000
3000
0001
0000
0100
0000
0001
0000
0000
,
0000
2000
0000
0000
,
0000
0000
0000
0000
,
3000
0000
0001
0100
0001
0010
0100
1000
,
0010
0100
0010
1000
0100
0010
0001
0100
,
0001
1000
0100
1000
0010
0100
0001
0010
,
0100
1000
0010
0100
0001
1000
0002
0000
,
0003
0000
1000
0100
1000
0010
0100
0001
,
1000
0100
0010
0001
0100
0001
1000
0100
,
1000
0010
0100
0001
0010
0100
1000
0010
,
0100
0010
1000
0100
0010
0001
0200
0000
,
0300
0000
0001
0100
0001
1000
0100
1000
,
0010
0100
0001
0010
0100
1000
0001
0100
,
0001
1000
0100
1000
0010
0100
0001
0010
,
0100
1000
0001
0100
0010
1000
0200
0000
,
0300
0000
0010
0001
0100
0001
1000
0100
,
1000
0010
0100
0001
1000
0100
0010
0001
,
0100
0001
1000
0010
0100
0010
1000
0001
,
0010
0100
1000
0010
0100
0001
2000
0000
,
3000
0000
0000
0000
0001
1000
0010
0100
0001
1000
0100
1000
0010
0100
0001
1000
,
0001
0010
0100
1000
0001
0100
0001
1000
0100
1000
0001
0010
0001
0100
0010
1000
,
0001
0100
0010
1000
0001
1000
0100
0010
0001
0100
0001
1000
0100
1000
0001
0100
,
0010
1000
0010
0100
0001
1000
0001
0010
0100
1000
0010
0100
0001
1000
0001
0100
,
0010
1000
0001
1000
0100
0010
0001
0100
0001
1000
0010
0100
0001
0100
0010
1000
,
0100
1000
0001
0100
0010
1000
0001
0100
0001
1000
0100
0010
0001
0100
0001
1000
,
0100
1000
0010
0100
0001
1000
0001
0010
0100
1000
0010
0100
0001
1000
0100
1000
,
0001
0100
0010
1000
0001
0010
0100
1000
0010
0100
0001
1000
0100
0010
0001
1000
,
0001
0000
0000
0100
0000
0000
0010
0000
0000
1000
0000
0000
0001
0000
0000
0000
0000
0000
0000
0000
1000
0000
0000
0000
0001
0000
0000
0000
0000
0000
0000
0000
1000
0000
0000
0000
0001
0000
0000
0000
0100
0000
0000
0000
0001
0000
0000
0000
,
0010
0000
0100
1000
0000
0001
0100
0010
0000
1000
0000
0100
,
1000
0001
1000
0100
0010
0001
0100
0000
0000
0001
1000
0100
,
0010
0001
1000
0001
0000
0000
0001
0000
0000
1000
0100
1000
,
0010
0000
0000
0000
0000
0000
0000
0000
0000
0000
0000
0000
0000
0000
0000
0000
0000
0000
0000
0000
0000
0000
0000
0000
0000
0000
0000
0000
0000
0000
0000
0000
0000
0000
0000
0000
0000
0000
0000
0000
0000
0000
0000
0000
0000
0000
0000
0000
0000
0000
0000
0000
0000
0000
0000
0000
0000
0000
0000
0000
0000
0000
0000
0000
0100
0000
0000
0000
0000
0000
0000
0000
0000
0000
0000
0000
0000
0000
0000
0000
0000
0000
0000
0000
0000
0000
0000
0000
0000
0000
0000
0000
0000
0000
0000
0000
0001
0000
0000
0000
0000
0000
0000
0000
0000
0000
0000
0000
0000
0000
0000
0000
0000
0000
0000
0000
0000
0000
0000
0000
1000
0000
0000
0000
0000
0000
0001
0000
0000
0000
0000
0000
1000
0000
0000
0000
0000
0000
0100
0000
0000
0000
0000
0000
0010
0000
0000
0000
0000
0000
0000
0000
0000
0000
0000
0000
0000
0000
0000
0000
0001
0000
0000
0000
0000
0000
0000
0000
0000
0000
0000
0000
0000
0000
0000
0000
1000
0000
0000
0000
0000
0000
0000
0000
0000
0000
0000
0000
0000
0000
0000
0000
,
0002
0000
0000
0000
0000
0000
0000
0000
0000
0000
0000
0000
1003
0000
0100
0000
1000
0000
0010
0000
0100
0000
0001
0000
1000
0000
0000
0100
0000
0000
0010
0000
0000
0001
0000
0000
1000
0000
0100
0000
1000
0000
0001
0000
0000
0000
0000
0000
,
0100
0001
1001
0000
1100
0000
0110
0000
,
0011
0001
1000
0000
0010
0100
0001
0000
,
1000
0010
0100
0000
0001
0010
0100
0000
,
1000
0001
0100
0000
0001
0010
0100
0000
,
1000
0001
1001
0000
0101
0000
0110
0000
,
1010
1000
0100
0000
0010
0001
1000
0000
,
0001
0100
0010
0000
1000
0100
0010
0000
,
0001
0000
0000
1000
0000
0000
0100
0000
0000
0000
0010
0000
0000
0000
0001
0000
0000
0000
1000
0000
0000
0000
0001
0000
,
0000
0000
0100
0000
0000
0000
0202
0000
0000
0303
0000
0000
0001
0000
0000
0000
0000
0000
0010
0000
0000
0000
0000
0000
,
0100
1000
0010
0100
,
0001
1000
0100
0010
,
0001
0000
0000
1000
0100
1000
0010
0100
0001
0010
0100
1000
,
0001
0100
0010
1000
0000
0000
0001
0000
0000
1000
0000
0000
,
0100
0010
0001
0100
,
0001
1000
0100
0010
,
0100
1000
0010
0100
,
0001
2002
0000
0000
,
0000
0000
0000
0000
,
0000
0000
0000
0000
0000
3003
0000
0000
;
