#TITLE:Death Egg Final Boss DnB remix;
#SUBTITLE:[Extended Version];
#ARTIST:ParagonX9;
#TITLETRANSLIT:;
#SUBTITLETRANSLIT:;
#ARTISTTRANSLIT:;
#CREDIT:;
#BANNER:deathegg-bn.png;
#BACKGROUND:deathegg-bg.png;
#LYRICSPATH:;
#CDTITLE:cdtitle.png;
#MUSIC:ParagonX9 - Death Egg Final Boss DnB remix (extended).mp3;
#OFFSET:-0.036;
#SAMPLESTART:23.000;
#SAMPLELENGTH:13.000;
#SELECTABLE:YES;
#BPMS:0.000=165.060;
#STOPS:;
#BGCHANGES:;
// cache tags:
#FIRSTBEAT:0.000;
#LASTBEAT:194.500;
#SONGFILENAME:Songs/Fresh Flock of Fantastic Files F4/(Zaghurim) Death Egg Final Boss (DnB Remix)/Death Egg Final Boss DnB.sm;
#HASMUSIC:1;
#HASBANNER:1;
#MUSICLENGTH:70.922;
// end cache tags

//---------------dance-single - ----------------
#NOTES:
     dance-single:
     :
     Hard:
     12:
     1.000,1.000,1.000,0.028,1.000,580.000,173.000,2.000,0.000,0.000:
0101
0000
0101
0000
0101
0000
0001
1000
0011
0000
0011
0000
0001
1000
0110
0000
,
0101
0000
0101
0000
0101
0000
0001
1000
0011
0000
0011
0000
0001
1000
0110
0000
,
1010
0000
1010
0000
1010
0000
1000
0100
1001
0000
1001
0000
1000
0100
0011
0000
,
1010
0000
1010
0000
1010
0000
1000
0100
1001
0000
1001
0000
1000
0100
0011
0000
,
1000
0100
0010
0001
1000
0001
1000
0100
0010
0001
1000
0001
1000
0100
0010
0001
,
0010
0001
1000
0100
0010
0001
0100
0001
0100
1000
0100
0010
0001
0100
0001
0100
,
1000
0100
0010
0001
0100
0010
0001
0010
0100
1000
0010
0100
0001
0010
0100
1000
,
0010
0001
0100
0000
1000
0010
0100
0000
0100
0010
1000
0000
0001
0100
0001
0100
,
1001
0000
1010
0000
1010
0000
1000
0100
1001
0000
1001
0000
1000
0100
0011
0000
,
1010
0000
1010
0000
1010
0000
1000
0100
1001
0000
1001
0000
1000
0100
0011
0000
,
0011
0000
0011
0000
0011
0000
0010
0100
1010
0000
1010
0000
0010
0100
1001
0000
,
0011
0000
0011
0000
0011
0000
0010
0100
1010
0000
1010
0000
0010
0100
1001
0000
,
0001
0010
0100
1000
0001
1000
0001
0010
0100
1000
0001
1000
0001
0010
0100
1000
,
0100
1000
0001
0010
0100
1000
0010
1000
0010
0001
0010
0100
1000
0010
1000
0010
,
0001
0010
0100
1000
0010
0100
1000
0100
0010
0001
0100
0010
1000
0100
0010
0001
,
0100
1000
0010
0000
0001
0100
0010
0000
0010
0100
0001
0000
0100
0010
0100
0010
,
1001
0000
1001
0000
1000
0001
0100
0010
1001
0000
1001
0000
1000
0100
0010
0001
,
0110
0000
0110
0000
1000
0100
0010
0001
0110
0000
0110
0000
1000
0001
1000
0001
,
0110
0000
1100
0000
0110
0000
1100
0000
0011
1100
0000
0110
0000
0110
0000
0011
,
0011
0000
0011
0000
0100
0000
1000
0000
0010
0100
0000
0010
1000
0001
1000
0001
,
1100
0000
1100
0000
0100
1000
0010
0001
1100
0000
1100
0000
0100
0010
0001
1000
,
0011
0000
0011
0000
0100
0010
0001
1000
0011
0000
0011
0000
0100
1000
0100
1000
,
0011
0000
0110
0000
0011
0000
0110
0000
0011
1100
0000
0011
0000
0011
0000
1001
,
1001
0000
1001
0000
0010
0000
0100
0000
0001
0010
0000
0001
0000
0010
0000
0100
,
1010
0000
1010
0000
1010
0000
1000
0100
1001
0000
1001
0000
1000
0100
0011
0000
,
1010
0000
1010
0000
1010
0000
1000
0100
1001
0000
1001
0000
1000
0100
0011
0000
,
0101
0000
0101
0000
0101
0000
0100
0010
1100
0000
1100
0000
0100
0010
1001
0000
,
0101
0000
0101
0000
0101
0000
0100
0010
1100
0000
1100
0000
0100
0010
1001
0000
,
1000
0100
0010
0001
0100
0010
1000
0100
0010
0001
0100
0010
1000
0100
0010
0001
,
0100
0001
0100
0010
0001
0010
0100
1000
0001
1000
0001
1000
0100
0010
0001
0010
,
1000
0010
0001
0010
0001
0010
0100
1000
0100
0001
0100
1000
0100
0001
1000
0010
,
0100
0010
1000
0000
0010
0001
0100
0000
1000
0010
0100
0000
0010
0001
0010
0001
,
0110
0000
0011
0000
0011
0000
0010
1000
0110
0000
0110
0000
0010
1000
0101
0000
,
0011
0000
0011
0000
0011
0000
0010
1000
0110
0000
0110
0000
0010
1000
0101
0000
,
0101
0000
0101
0000
0101
0000
0001
1000
0011
0000
0011
0000
0001
1000
0110
0000
,
0101
0000
0101
0000
0101
0000
0001
1000
0011
0000
0011
0000
0001
1000
0110
0000
,
1000
0100
0010
0001
1000
0100
1000
0001
0010
0100
1000
0001
0010
0001
1000
0100
,
0010
0001
0010
0001
1000
0100
0010
0001
1000
0001
1000
0100
0010
0001
0100
0010
,
0001
1000
0001
0100
0010
0001
0010
1000
0100
0001
1000
0010
0100
0001
1000
0001
,
0010
0100
1000
0000
1000
0100
0010
0000
0010
0001
0010
0000
0100
0010
0100
0010
,
1100
0000
1100
0000
0100
1000
0010
0001
1100
0000
1100
0000
0100
0010
0001
1000
,
0011
0000
0011
0000
0100
0010
0001
1000
0011
0000
0011
0000
0100
1000
0100
1000
,
0101
0000
1010
0000
0101
0000
1010
0000
0101
1010
0000
0101
0000
0101
0000
0011
,
0011
0000
0011
0000
0010
0000
0100
0000
0001
0010
0000
0001
0100
1000
0100
1000
,
0110
0000
0110
0000
0010
0100
0001
1000
0110
0000
0110
0000
0010
0001
1000
0100
,
1001
0000
1001
0000
0010
0001
1000
0100
1001
0000
1001
0000
0010
0100
0010
0100
,
1001
0000
0011
0000
1001
0000
0011
0000
1001
0110
0000
1001
0000
1001
0000
1100
,
1100
0000
1100
0000
0001
0000
0010
0000
1000
0001
0000
1000
0000
0001
0000
1000
,
0000
0100
0010
0001
0220
0000
0000
0000
0000
0000
0330
0000
0000
0000
0000
0000
;
