#TITLE:ErAseRmoToR maXimUM;
#SUBTITLE:v2;
#ARTIST:L.E.D.-G VS GUHROOVY;
#TITLETRANSLIT:;
#SUBTITLETRANSLIT:;
#ARTISTTRANSLIT:;
#CREDIT:;
#BANNER:erasermotor maximum-bn.jpg;
#BACKGROUND:erasermotor maximum-bg.jpg;
#LYRICSPATH:;
#CDTITLE:!cdtitle.png;
#MUSIC:ErAseRmoToR maXimUM.mp3;
#OFFSET:-0.420;
#SAMPLESTART:13.400;
#SAMPLELENGTH:12.000;
#SELECTABLE:YES;
#BPMS:0.000=125.000,39.000=250.000,39.125=250.000,40.000=250.000,85.000=125.000,85.500=250.000,86.000=250.000,142.500=125.000,149.000=125.000,174.000=250.000,185.000=250.000,192.000=250.000;
#STOPS:32.000=0.240
,33.500=0.240
,69.000=0.060
,69.250=0.060
,69.500=0.060
,69.750=0.060
,97.500=0.060
,97.750=0.120
,98.250=0.060
,105.000=0.080
,105.750=0.060
,106.500=0.100
,112.000=0.120
,112.500=0.140
,113.000=0.100
,130.000=2.760
,170.500=0.120
,171.250=0.120
,234.000=0.720
;
#BGCHANGES:;
// cache tags:
#FIRSTBEAT:0.000;
#LASTBEAT:393.000;
#SONGFILENAME:Songs/new cc/erasermotor maximum v2/EMnew.sm;
#HASMUSIC:1;
#HASBANNER:1;
#MUSICLENGTH:120.457;
// end cache tags

//---------------dance-single - ----------------
#NOTES:
     dance-single:
     :
     Hard:
     12:
     1.000,1.000,1.000,0.598,0.664,806.000,347.000,72.000,0.000,1.000:
1000
0010
1000
0001
0000
0001
1000
0010
1000
0001
0010
0100
0000
0010
0100
0010
,
0001
0000
1000
0100
1000
0000
0010
0100
0010
0000
1000
0000
0001
0010
0001
0000
1000
0000
0001
0000
0010
0000
1000
0000
0100
0000
0010
0000
0001
0000
0100
0000
,
0110
0000
1000
0000
0100
0000
0010
0000
0110
0000
1100
0000
0101
0110
0000
0011
,
0110
0000
0001
0000
0010
0000
0100
0000
0110
0000
1100
0000
0101
0110
0000
0011
,
0110
0000
1000
0000
0100
0000
0010
0000
0110
0000
1100
0000
0110
0110
0000
1100
,
0110
0000
0100
0000
1000
0000
0100
0000
0110
0000
0011
0000
1100
0011
0011
0011
,
1000
1000
1000
1000
0011
0000
0000
0000
0011
0011
0011
1100
0000
1100
0000
0011
,
1000
0000
1000
0000
1000
0000
0000
0000
0011
0000
0000
0000
0000
0000
0000
0000
0110
0000
0000
0000
0110
0000
0000
0000
1100
0000
0001
0000
1000
0001
1000
0001
,
0110
0000
0000
1001
0000
0000
1001
0010
,
1001
0000
0000
0000
0010
0000
0000
0000
1001
0000
0010
0000
0010
0000
0010
0000
0001
1000
0001
1000
0001
1000
0001
0000
0110
0000
0000
0000
0000
0000
0000
0000
,
1100
0110
0011
0110
,
1100
1001
1100
1001
,
1010
1001
1100
1001
,
1001
0000
0000
0000
0110
0000
0000
0000
0011
0000
0100
0010
1001
0000
0000
0000
,
0011
0110
1100
1001
,
1010
1100
0011
0110
,
0011
1100
0110
0011
,
0110
0000
0000
0000
1001
1001
1001
1001
2002
3003
0100
0000
0110
0000
0001
0000
,
0011
0100
0110
1000
1001
0010
0011
1000
,
1010
0001
0101
0010
1001
0100
1100
0010
,
0011
1000
1010
0100
1001
0001
1001
0100
,
0110
0000
0001
0000
2002
0000
3023
0030
1001
0000
1000
0000
0011
0000
0001
0000
,
1010
0010
1001
1000
0011
0001
1010
0010
,
1001
0000
1000
0000
0011
0000
0002
0003
1010
0000
0010
0000
1001
0000
1000
0000
,
0011
0000
0010
0000
1001
0000
1001
0220
0330
2002
3003
0000
1000
0001
1000
0001
,
1000
0001
1000
0000
1001
0000
1000
0000
0101
0000
0001
0000
1010
0000
0010
0000
,
1001
0000
1000
0000
0022
0033
0000
0220
0330
0000
0220
0330
0022
0033
0010
0000
,
1100
0100
1001
1000
0011
0010
1100
0100
,
2002
0000
3003
0000
0220
0000
0330
0000
2002
0000
3003
0000
0001
0000
0000
0000
2020
3030
0000
0000
1000
0000
0000
0000
0202
0303
0000
0000
0100
0000
0000
0000
,
2002
3003
0000
0000
0001
0000
0000
0000
2020
3030
0000
0000
1000
0000
0000
0000
0022
0033
0000
0000
0100
0000
0000
0000
2002
3003
0000
0000
0010
0000
0000
0000
,
2002
3003
0000
0000
0010
0000
0000
0000
2002
3003
0000
0000
0010
0000
0000
0000
2002
3003
0000
0000
0001
0000
0000
0000
2020
3030
0000
0000
0010
0000
0000
0000
,
0202
0303
0000
0000
0001
0000
0000
0000
2002
3003
0000
0000
1000
0000
0000
0000
0202
0303
0000
0000
0001
0000
0000
0000
2020
3030
0000
0000
0010
0000
0000
0000
,
2002
3003
0000
0000
0001
0000
0000
0000
2020
3030
0000
0000
1000
0000
0000
0000
2001
0000
0000
0000
0000
0000
0000
0000
0000
0000
0000
0000
0000
0000
0000
0000
,
0000
0000
0000
0000
,
0000
0000
0000
0000
0000
0000
0000
0000
3000
0000
0001
0010
0100
1000
0001
0010
,
0100
1000
0001
0010
0100
1000
0001
0010
0100
1000
0001
1000
0100
1000
0001
0010
,
0010
0100
0000
1000
0000
0100
0100
0010
1000
0100
0000
1000
0000
0010
0010
1000
,
0010
0001
0000
0100
0000
1000
1000
0100
0001
0000
1100
0000
0001
0001
0100
0010
,
0100
1000
0000
0010
0000
1000
1000
0100
0001
0010
0000
0100
0000
0001
0001
0100
,
0001
0000
1000
0000
0000
0000
0001
0000
1000
0000
0100
0000
0010
0000
0220
0330
1001
0000
0100
0000
0001
0000
0001
0000
0100
0000
0100
0000
0010
0000
0010
0000
,
1000
0000
1000
0000
0001
0000
0001
0000
1000
0000
1000
0000
0010
0000
0010
0000
0100
0000
0100
0000
0011
0000
0001
0000
1000
0100
0010
0000
0010
0000
0010
0000
,
0010
0000
1000
0000
1000
0000
0010
0000
0010
0000
0001
0000
0001
0000
0100
0000
0100
0000
0001
0000
0011
0000
0100
0000
0001
0010
0001
0000
1000
0100
1000
0000
,
0010
0001
0011
1000
1000
0010
0010
0100
0100
0001
1001
0000
0000
1001
0000
0000
,
1001
0000
0001
0001
0001
0001
0010
0000
1001
0000
0000
0000
1001
0000
0000
0000
,
1100
1010
1100
1010
,
1100
0000
1001
0011
1001
0000
1100
0000
,
1001
0000
1001
0000
0011
0000
0110
0000
1100
0001
0110
0000
0011
0000
0110
0000
,
1100
0000
0110
0000
0011
0000
0100
0000
2002
3003
0100
0000
0011
0000
0100
0000
,
1001
0100
0011
0100
1001
0100
0011
0100
,
1001
0110
0101
1010
1001
0100
0011
0100
,
1001
0000
0100
0000
1001
0000
0100
0000
0022
0033
0220
0330
2200
3300
0220
0330
,
0000
0000
0022
0033
0000
0000
0011
0000
1001
0000
0010
0000
0101
0000
0010
0000
,
1001
0010
0101
0010
1100
1100
0011
0011
,
1100
0000
0010
0000
1001
0000
0001
0010
1100
0000
0001
0000
0110
0000
1000
0000
,
0011
1000
0110
1000
0011
1000
0110
1000
,
0011
1000
0100
0010
0001
1000
0100
0010
1001
0000
0010
0000
1100
0000
0010
0000
,
1001
0010
1100
0010
1001
0010
1100
0010
,
1001
0010
1100
0010
1001
0010
1100
0010
,
1001
0010
1100
0010
1001
0000
0110
0000
,
0000
0000
0000
1001
,
0110
0000
0011
1100
0000
1100
0011
0000
,
1000
0000
0000
0000
0100
0000
0000
0000
0010
0000
0000
0000
0001
0010
0100
0000
,
0001
0000
0001
0000
1000
0100
0010
0000
1000
0000
1000
0000
1001
0000
0100
0000
,
0100
0010
0010
1000
1000
0100
0110
0110
,
1001
0010
0110
1000
1010
0101
1001
0100
,
1000
0000
0010
0000
0001
1000
0001
0000
1000
0001
1000
0000
0011
0000
1100
0000
,
1100
0001
0110
0110
0011
1000
0001
0001
,
1000
1000
0001
0001
1000
1000
0011
0001
,
1100
1000
0011
0011
1000
1100
0011
0001
,
1000
1000
0001
0001
1000
1000
1100
1100
,
0011
0001
1100
1100
0011
0011
1000
1000
,
0001
0000
0001
0000
1000
0000
1000
0000
0001
1000
0001
1000
0010
0000
0010
0000
,
0100
0100
0001
0001
0100
0100
1001
0010
,
1001
0000
0010
0000
1001
0000
0010
0000
1001
0000
0010
0000
1001
0010
0100
1000
,
0001
0010
0100
1000
0001
0010
0100
1000
0001
0010
0100
1000
0010
0000
0000
0000
,
1010
1010
1010
1010
,
1010
0000
0000
0000
1010
0000
0000
0000
1001
0010
0100
0010
0001
0000
0000
0000
,
1001
1001
1001
1001
,
1001
0100
0010
0100
1001
0000
0000
0000
1001
0010
0100
0010
1001
0000
0000
0000
,
1001
1001
1001
1001
,
1001
0000
0000
0000
1001
0000
0000
0000
1001
0100
0010
0100
1001
0000
0000
0000
,
1001
1001
1001
0020
,
0000
0000
0000
0000
0000
0000
0000
0000
0000
0000
0000
0030
1100
0000
0010
0000
,
1001
0010
1100
0010
1001
0010
1100
0010
,
1001
0000
0010
0000
1100
0010
0100
0010
1001
0000
0010
0000
1100
0000
0010
0000
,
1001
0000
0010
0000
1100
0000
0010
0000
1001
0000
0010
0000
1010
0100
0010
0000
,
1001
0000
0010
0000
1001
0010
0100
0000
1001
0100
0010
0000
1001
0000
0010
0000
,
1100
0010
1001
0010
1001
0010
1100
0110
,
0011
0000
0110
0000
1100
0000
0110
0000
0011
0000
0110
1000
0011
0000
0011
0000
,
1001
0010
1100
0010
1001
0010
1100
0010
,
1001
0000
0010
0000
1000
0100
0010
0001
1000
0100
0010
0001
1000
0000
0000
0000
,
1001
0000
1100
0000
1010
0000
0001
0001
,
0010
0010
0100
0100
1000
1000
1010
0000
,
1010
0000
1001
0100
1001
0010
1001
0010
,
0101
0010
1001
0010
0101
0010
1100
1100
,
1100
0110
1001
0010
1001
0100
1001
0010
,
1001
0100
0011
1000
0011
1000
0011
0000
,
1001
0100
1001
0010
1001
0100
0011
0000
,
0110
1100
0000
0000
;
