#TITLE:%5;
#SUBTITLE:;
#ARTIST:Pory;
#TITLETRANSLIT:;
#SUBTITLETRANSLIT:;
#ARTISTTRANSLIT:;
#CREDIT:Tomita;
#BANNER:%5.png;
#BACKGROUND:%5-bg.png;
#LYRICSPATH:;
#CDTITLE:!hr2Title.png;
#MUSIC:%5.mp3;
#OFFSET:-0.046;
#SAMPLESTART:81.363;
#SAMPLELENGTH:20.150;
#SELECTABLE:YES;
#BPMS:0.000=121.000;
#STOPS:;
#BGCHANGES:;
// cache tags:
#FIRSTBEAT:0.000;
#LASTBEAT:256.500;
#SONGFILENAME:Songs/Fresh Flock of Fantastic Files F4/(Hr2) %5/percent5.sm;
#HASMUSIC:1;
#HASBANNER:1;
#MUSICLENGTH:129.027;
// end cache tags

//---------------dance-single - ----------------
#NOTES:
     dance-single:
     :
     Hard:
     11:
     1.000,1.000,1.000,1.000,1.000,777.000,261.000,132.000,0.000,15.000:
1000
0000
0000
0000
0100
0000
0000
0000
0100
0000
0000
0000
0002
0000
0023
0000
0032
0000
0023
0000
1030
0000
0000
0000
0002
0000
0003
0000
1000
0100
0010
0000
,
1000
0000
0000
0000
0001
0000
0000
0000
0001
0000
0000
0000
0020
0000
0230
0000
0302
0000
2003
0000
3010
0000
0000
0000
0002
0000
0003
0000
0010
0100
1000
0000
,
0010
0000
0000
0000
0100
0000
0000
0000
0100
0000
0000
0000
0002
0000
0203
0000
0320
0000
2030
0000
3100
0000
0000
0000
0020
0000
0030
0000
0100
0010
0001
0000
,
0100
0000
0000
0000
0001
0000
0000
0000
0001
0000
0000
0000
0200
0000
0320
0000
2030
0000
3002
0000
0103
0000
0000
0000
0210
0000
0300
0000
0001
0010
0100
0000
,
0010
0000
0000
0000
1000
0000
0000
0000
1000
0000
0000
0000
0002
0000
0023
0000
0230
0000
2300
0000
3010
0000
0000
0000
0002
0000
0003
0000
0010
0100
1000
0000
,
0001
0000
0000
0000
0100
0000
0000
0000
0100
0000
0000
0000
0002
0000
0023
0000
0032
0000
2003
0000
3100
0000
0000
0000
0002
0000
0003
0000
0100
0010
0001
0000
,
2000
0000
0000
0000
3100
0000
0000
0000
0100
0000
0000
0000
0002
0000
0203
0000
2300
0000
3020
0000
0130
0000
0000
0000
0002
0000
0003
0000
0010
0100
1000
0000
,
0010
0000
0001
0000
0001
0000
2000
3200
0302
0203
1300
0000
2020
3030
0000
0000
,
1001
0000
0000
0000
0110
0000
0000
0000
0110
0000
0000
0000
2000
0000
3002
0000
0023
0000
0230
0000
0301
0000
0000
0000
2000
0000
3000
0001
0010
0100
0000
0000
,
0011
0000
0000
0000
1100
0000
0000
0000
1100
0000
0000
0000
0002
0000
0023
0000
0032
0000
0203
0000
0310
0000
0000
0000
0002
0000
0003
0000
1000
0100
0010
0000
,
1100
0000
0000
0000
0011
0000
0000
0000
0011
0000
0000
0000
2000
0000
3002
0000
2003
0000
3200
0000
1300
0000
0000
0000
0002
0000
0003
0000
0100
0010
0001
0000
,
0110
0000
0000
0000
1100
0000
0000
0000
1100
0000
0000
0000
0022
0000
0233
0000
2320
0000
3032
0000
1103
0000
0000
0000
2010
0000
3000
0000
0001
0010
0100
0000
,
1010
0000
0000
0000
0110
0000
0000
0000
0110
0000
0000
0000
0002
0000
0023
0000
0230
0000
0302
0000
1003
0000
0000
0000
0020
0000
0030
0000
0001
0010
0100
0000
,
0011
0000
0000
0000
0110
0000
0000
0000
0110
0000
0000
0000
0002
0000
0023
0000
0032
0000
0203
0000
0301
0000
0000
0000
0200
0000
0300
0000
0010
0100
1000
0000
,
0101
0000
0000
0000
1001
0000
0000
0000
1001
0000
0000
0000
0020
0000
0032
0000
0203
0000
0320
0000
1030
0000
0000
0000
0200
0000
0300
0000
0001
0010
0100
0000
,
1001
0000
0000
0000
0101
0000
0000
0000
0101
0000
0000
0000
0220
0330
0220
0330
0220
0330
0220
0330
0110
0000
0000
0000
1001
0000
0000
0000
0000
0000
0000
0000
,
1010
0000
0101
0000
0101
0000
1000
0010
0100
0001
0010
1000
0010
0000
0010
0010
,
1010
0000
0101
0000
0101
0000
0010
0100
0001
1000
0010
0100
0001
0000
0010
0010
,
0110
0000
1001
0000
1001
0000
0010
0100
0010
1000
0010
1000
0001
0000
0100
0100
,
0101
0000
1010
0000
1010
0000
0100
0001
0100
1000
0010
0100
0002
0000
0103
0100
,
0101
0000
1010
0000
1010
0000
0100
0001
1000
0010
0100
0001
0010
0000
1000
1000
,
1100
0000
0101
0000
0101
0000
0010
1000
0001
0100
0001
1000
0010
0000
0001
0001
,
1001
0000
1010
0000
1010
0000
0100
0001
1000
0010
0100
0001
0100
0000
1000
1000
,
1010
0000
0110
0000
0110
0000
0010
0001
1000
0010
0100
0001
2000
0000
0010
0010
,
3010
0000
0011
0000
0011
0000
1000
0001
0100
0010
1000
0001
0100
0000
0010
0010
,
0110
0000
1010
0000
1010
0000
0100
0001
1000
0010
0100
0001
0100
0000
0010
0010
,
1010
0000
0011
0000
0011
0000
1000
0100
0001
0010
0100
0001
0010
0000
0100
0100
,
0101
0000
0110
0000
0110
0000
1000
0001
0100
0010
1000
0001
0010
0000
1000
1000
,
1100
0000
1010
0000
1010
0000
0100
0001
1000
0010
0100
0001
0010
0000
1000
1000
,
1010
0000
1100
0000
1100
0000
0001
1000
0010
0100
0001
1000
0100
0000
0010
0010
,
0011
0000
1010
0000
1010
0000
0100
0001
1000
0010
0100
0010
1000
0000
0010
0010
,
0110
0000
1010
0000
1010
0000
0100
0001
1000
0010
0100
0010
0002
0000
0010
0010
,
0013
0000
1000
0000
0100
0000
0100
0010
0100
0010
0100
0010
0200
0000
0001
0001
,
0301
0000
0000
0000
1001
0000
0000
0000
1001
0000
0000
0000
1000
0000
0011
0000
1000
0000
0011
0000
1000
0000
0011
0000
1000
0000
0000
0000
0001
0010
0100
0000
,
1001
0000
0000
0000
0011
0000
0000
0000
0011
0000
0000
0000
0001
0000
0110
0000
0001
0000
0110
0000
0001
0000
0110
0000
0001
0000
0000
0000
1000
0100
0010
0000
,
1001
0000
0000
0000
0110
0000
0000
0000
0110
0000
0000
0000
0001
0000
0110
0000
0001
0000
1100
0000
0001
0000
0110
0000
0001
0000
0000
0000
1000
0100
0010
0000
,
0101
0000
0000
0000
0011
0000
0000
0000
0011
0000
0000
0000
1000
0000
0011
0000
1000
0000
0101
0000
1000
0000
0011
0000
1000
0000
0000
0000
1000
0100
0010
0000
,
0101
0000
0000
0000
0110
0000
0000
0000
0110
0000
0000
0000
0001
0000
0110
0000
0001
0000
1010
0000
0001
0000
0110
0000
0001
0000
0000
0000
0010
0100
1000
0000
,
0011
0000
0000
0000
1010
0000
0000
0000
1010
0000
0000
0000
0010
0000
0101
0000
0010
0000
1001
0000
0010
0000
0101
0000
0010
0000
0000
0000
0001
0010
0100
0000
,
0011
0000
1010
0000
1010
0000
0100
0011
0100
1001
0100
0011
0200
0000
0010
0010
,
0310
0000
0000
0000
0011
0000
0000
0000
0011
0000
0000
0000
2000
0000
3000
0000
0011
0000
0000
0000
0011
0000
2000
3000
0101
0000
0000
0000
0101
0000
0101
0000
,
1010
0000
0000
0000
0101
0000
0000
0000
0101
0000
0000
0000
0001
0000
0110
0000
0001
0000
1010
0000
0001
0000
0110
0000
0001
0000
0000
0000
1000
0001
1000
0000
,
0110
0000
0000
0000
0101
0000
0000
0000
0101
0000
0000
0000
1000
0000
0011
0000
1000
0000
0101
0000
1000
0000
0011
0000
1000
0000
0000
0000
0001
0100
0001
0000
,
1010
0000
0000
0000
0011
0000
0000
0000
0011
0000
0000
0000
0100
0000
1010
0000
0100
0000
0011
0000
0100
0000
1010
0000
0100
0000
0000
0000
0010
1000
0010
0000
,
0101
0000
0000
0000
0110
0000
0000
0000
0110
0000
0000
0000
0001
0000
1100
0000
0001
0000
0110
0000
0001
0000
1100
0000
0001
0000
0000
0000
0010
0100
0010
0000
,
1100
0000
0000
0000
0000
0000
0000
0000
0220
0000
0000
0000
0330
0000
0000
0000
0220
0000
0000
0000
0330
0000
0000
0000
0020
0000
0000
0000
0232
0000
0000
0000
0323
0000
0000
0000
0232
0000
0000
0000
0323
0000
0000
0000
0232
0000
0000
0000
0303
0000
0000
0000
0000
0000
0000
0000
2000
3000
0020
0030
2000
3000
0000
0000
,
0202
0000
0000
0000
0303
0000
0000
0000
2200
0000
0000
0000
3300
0000
0000
0000
2200
0000
0000
0000
3300
0000
0000
0000
0200
0000
0000
0000
2320
0000
0000
0000
3230
0000
0000
0000
2320
0000
0000
0000
3230
0000
0000
0000
2320
0000
0000
0000
3230
0000
0000
0000
0300
0000
0000
0000
0002
0003
0020
0030
0002
0003
0000
0000
,
1010
0000
0000
0000
1010
0000
1010
1100
,
1001
0000
0000
0000
0101
0000
0000
0000
0101
0000
0000
0000
1000
0000
0110
0000
1000
0000
0011
0000
1000
0000
0110
0000
1000
0000
0000
0000
0001
0010
0100
0000
,
0011
0000
0000
0000
1010
0000
0000
0000
1010
0000
0000
0000
0001
0000
1100
0000
0001
0000
1010
0000
0001
0000
1100
0000
0001
0000
0000
0000
0100
0010
0001
0000
,
1100
0000
0000
0000
0011
0000
0000
0000
0011
0000
0000
0000
0100
0000
1010
0000
0100
0000
0011
0000
0100
0000
1010
0000
0100
0000
0000
0000
0001
0010
0100
0000
,
1010
0000
0000
0000
0000
0000
0000
0000
0101
0000
0000
0000
0000
0000
0000
0000
0101
0000
0000
0000
0000
0000
0000
0000
0010
0000
0000
0000
0101
0000
0000
0000
0010
0000
0000
0000
1100
0000
0000
0000
0000
0000
0000
0000
0001
0010
0100
1000
0000
0000
0000
0000
0000
0000
0000
0000
0100
0000
0010
0000
0100
0000
0000
0000
,
1010
0000
0000
0000
0101
0000
0000
0000
0101
0000
0000
0000
0010
0000
0101
0000
0010
0000
1100
0000
0010
0000
0101
0000
0010
0000
0000
0000
1000
0100
1000
0000
,
0101
0000
0000
0000
0110
0000
0000
0000
0110
0000
0000
0000
0001
0000
0110
0000
0001
0000
1100
0000
0001
0000
0110
0000
0001
0000
0000
0000
1000
0010
1000
0000
,
0101
0000
0000
0000
1010
0000
0000
0000
1010
0000
0000
0000
1000
0000
0101
0000
1000
0000
0110
0000
1000
0000
0101
0000
1000
0000
0000
0000
0100
0001
0100
0000
,
1010
0000
0101
0000
0101
0000
0010
1100
0010
1001
0010
1100
0020
0000
1000
1000
,
1030
0000
0000
0000
0011
0000
0000
0000
0011
0000
0000
0000
0010
0000
0101
0000
0010
0000
1100
0000
0010
0000
0101
0000
0010
0000
0000
0000
0010
0001
0010
0000
,
1001
0000
0000
0000
0110
0000
0000
0000
0110
0000
0000
0000
0001
0000
0110
0000
0001
0000
1010
0000
0001
0000
0110
0000
0001
0000
0000
0000
0001
0100
0001
0000
,
1010
0000
0000
0000
0101
0000
0000
0000
0101
0000
0000
0000
0010
0000
0101
0000
0010
0000
1001
0000
0010
0000
0101
0000
0010
0000
0000
0000
0100
0010
0100
0000
,
0011
0000
0000
0000
1100
0000
0000
0000
1100
0000
0000
0000
0001
0000
0010
0000
2001
0000
0010
0000
0001
3000
0010
0000
0001
0000
0000
0000
0010
0100
0010
0000
,
0101
0000
0000
0000
1010
0000
0000
0000
1010
0000
0000
0000
0001
0000
0110
0000
0001
0000
0110
0000
0001
0000
0110
0000
0001
0000
0000
0000
0010
1000
0010
0000
,
0101
0000
0000
0000
1010
0000
0000
0000
1010
0000
0000
0000
0001
0000
1100
0000
0001
0000
1100
0000
0001
0000
1100
0000
0001
0000
0000
0000
0100
0010
0100
0000
,
1001
0000
0000
0000
0101
0000
0000
0000
0101
0000
0000
0000
0010
0000
0101
0000
0010
0000
0101
0000
0010
0000
0101
0000
0010
0000
0000
0000
1000
0100
1000
0000
,
0101
0000
0000
0000
0000
0000
0101
0000
0000
0000
0000
0000
0101
0000
0000
0000
0000
0000
0101
0000
0000
0000
0000
0000
0010
0000
0100
0000
1000
0100
0010
0001
,
2000
3000
0000
0000
0000
0000
0000
0000
;
