#TITLE:Mundian To Bach Speedcore;
#SUBTITLE:~short version~;
#ARTIST:m1dlet;
#TITLETRANSLIT:;
#SUBTITLETRANSLIT:;
#ARTISTTRANSLIT:;
#CREDIT:Happy Feet;
#BANNER:Bn-Bach.png;
#BACKGROUND:Bg-Bach.png;
#LYRICSPATH:;
#CDTITLE:;
#MUSIC:Mundian To Bach Speedcore.ogg;
#OFFSET:-0.115;
#SAMPLESTART:30.138;
#SAMPLELENGTH:12.000;
#SELECTABLE:YES;
#DISPLAYBPM:200.000;
#BPMS:0.000=200.000,241.000=200.500,243.000=200.680,248.000=200.880,296.000=199.400,304.000=200.430;
#STOPS:;
#BGCHANGES:;
// cache tags:
#FIRSTBEAT:32.000;
#LASTBEAT:368.000;
#SONGFILENAME:Songs/SPEEEDCOOOORE/Mundian To Bach Speedcore(short) - [Happy Feet!]/Mundian To Bach Speedcore.sm;
#HASMUSIC:1;
#HASBANNER:1;
#MUSICLENGTH:111.187;
// end cache tags

//---------------dance-single - Happy Feet----------------
#NOTES:
     dance-single:
     Happy Feet:
     Challenge:
     14:
     1.000,1.000,0.953,0.099,0.724,780.000,106.000,11.000,15.000,0.000:

0000
0000
0000
0000
,
0000
0000
0000
0000
,
0000
0000
0000
0000
,
0000
0000
0000
0000
,
0000
0000
0000
0000
,
0000
0000
0000
0000
,
0000
0000
0000
0000
,
0000
0000
0000
0000
,
1000
0001
1000
0001
1000
0001
1000
0001
,
1000
0000
0001
0000
1000
0000
0001
0000
1000
0000
0001
0000
1000
0000
0001
0100
,
0010
0000
0000
0000
0000
0000
0100
0000
0000
0000
0000
0000
0010
0000
0000
0000
0000
0000
0100
0000
0000
0000
0000
0000
0010
0000
0000
1000
0000
0000
0100
0000
0000
0000
0000
0000
1000
0000
0000
0000
0000
0000
0001
0000
1000
0000
0001
0000
,
1000
0000
0100
0000
0010
0000
0001
0000
0100
0000
0001
0000
0010
0000
0100
0010
,
0001
0010
0001
0010
0001
0010
0001
0010
,
0001
0000
0100
0000
0001
0000
0100
0000
0001
0000
0100
0000
0001
0000
0100
0010
,
1000
0000
0001
0000
1000
0000
0001
0000
1000
0000
0001
0000
1000
0000
0100
1000
,
0001
0000
0000
1000
0000
0000
0010
0000
0000
0000
0000
0000
0100
0000
0000
0000
0000
0000
0001
0000
0100
0000
0001
0000
0100
0000
0000
0000
0000
0000
0010
0000
0000
0000
0000
0000
1000
0000
0000
0000
0000
0000
0001
0000
1000
0000
0001
0000
,
1000
0010
0100
0001
0010
0001
1000
0100
,
1000
0001
0100
0010
1000
0001
1000
0100
,
1000
0010
0100
0010
1000
0001
0010
0001
,
0100
0000
0000
0010
0000
0000
1000
0000
0000
0001
0000
0000
0010
0000
0000
0100
0000
0000
1000
0001
1000
0001
1000
0001
,
1000
0010
0100
0001
0010
0001
1000
0100
,
0010
0001
1000
0010
0100
0001
1002
0000
,
0103
0010
1000
0100
1000
0001
0010
0001
,
0100
0000
0001
0000
1000
0000
0100
0000
1000
0000
0010
0000
0100
0000
0010
1000
,
0001
0100
0010
1000
1001
0001
0010
0100
,
1100
1000
0010
1000
1010
0010
0100
0001
,
0101
0100
0010
1000
1001
0001
0010
0100
,
0110
0000
0000
0100
0000
0000
1000
0000
0000
0001
0000
0000
0101
0000
0000
0001
0000
0000
1000
0100
1000
0100
1000
0100
,
1000
0001
1000
0010
0110
0100
0001
1000
,
1100
0100
1000
0001
0101
0100
0210
0000
,
0310
1000
0001
0010
0011
0001
0100
0010
,
1010
1000
0001
0010
M000
0M00
00M0
000M
,
0011
0000
0001
0000
0100
0000
0010
1000
0001
0000
1000
0001
0100
0000
0101
0000
,
0001
1000
0100
0000
1000
0000
1000
0000
0101
0000
1001
0000
0001
0010
0100
1000
,
0001
0000
0001
0000
1010
0000
1000
0010
0100
0000
0010
1000
0001
0000
0101
0000
,
0100
0000
0000
0010
0000
0000
1000
0000
0000
0000
0000
0000
0100
0000
0000
0000
0000
0000
0100
0000
0000
0000
0000
0000
0011
0000
0000
0000
0000
0000
1001
0000
0000
0000
0000
0000
0100
0000
0001
0000
0100
0000
0001
0000
0100
0000
0001
0000
,
0100
0010
1010
1000
1100
0100
0110
0010
,
0011
0000
0000
0001
0000
0000
0101
0000
0000
0100
0000
0000
0110
0000
0000
0010
0000
0000
1000
0001
1000
0001
1000
0001
,
1000
0010
0110
0100
0101
0001
0011
0010
,
0110
0000
0000
0000
0000
0000
0000
0000
0100
0000
0000
0000
0000
0000
0000
0000
1100
0000
0000
0000
0000
0000
0000
0000
1000
0000
0000
0000
0000
0000
0000
0000
1001
0000
0000
0000
0000
0000
0000
0000
0001
0000
0000
0000
0000
0000
0000
0000
0102
0000
0000
0000
0000
0000
0000
0000
0000
0000
0000
0000
0000
0000
0000
0003
,
1100
0000
1000
0000
0010
0000
0100
0010
1000
0000
0001
0010
0100
0000
0110
0000
,
0010
0001
1000
0000
0010
0000
0010
0000
1001
0000
0101
0000
0100
0001
0100
0010
,
1000
0000
0100
0000
0011
0000
1000
0001
0010
0000
0001
0100
0010
0000
0101
0000
,
1000
0000
0000
0010
0000
0000
0100
0000
0000
0000
0000
0000
0001
0000
0000
0000
0000
0000
0001
0000
0000
0000
0000
0000
1100
0000
0000
0000
0000
0000
0011
0000
0000
0000
0000
0000
1000
0000
0100
0000
1000
0000
0100
0000
1000
0000
0100
0000
,
1000
00M0
0M00
000M
,
M004
0000
0000
0000
0000
0000
0000
0000
0103
0000
0000
0000
0010
0000
0000
0000
1000
0000
0000
0000
0004
0003
4000
3000
0040
0030
0400
0300
0004
0003
0400
0300
,
0040
0030
0000
0000
1000
0000
0000
0000
0100
0000
0000
0000
1000
0000
0000
0000
0010
0000
0000
0000
0100
0000
0000
0000
0010
0000
0000
0000
1000
0000
0000
0000
,
0001
0010
0001
0100
0001
1000
0100
0010
,
0001
1000
0010
0100
0001
1000
0100
1000
,
0010
0000
0000
0100
0000
0000
0001
0000
0000
1000
0000
0000
0100
0000
0000
1000
0000
0000
0001
1000
0001
1000
0001
1000
,
0001
0100
0001
0010
0110
0100
1000
0010
,
1010
1000
0100
0010
0011
0001
1000
0001
,
0101
0100
0010
1000
1001
0001
0010
0001
,
0101
0000
0100
0000
0010
0000
1000
0000
1100
0000
0100
0000
0010
0000
0001
1000
,
0010
0100
0110
0010
1010
1000
1100
0100
,
0110
0010
0011
0001
1001
1000
1010
0010
,
0110
0100
0101
0001
1001
1000
1100
0100
,
0110
0000
0000
0010
0000
0000
0011
0000
0000
0001
0000
0000
0101
0000
0000
0100
0000
0000
0001
1000
0001
1000
0001
1000
,
0001
0100
0110
0010
1010
1000
1001
0001
,
1001
1000
1100
0100
0110
0010
0011
0001
,
1001
1000
1010
0010
0110
0100
0101
0001
,
2000
0000
0000
3000
0000
0000
0000
0000
0000
0000
0000
0000
0000
0000
0000
0000
0000
0000
0000
0000
0000
0000
0000
0000
0200
0000
0000
0300
0000
0000
0000
0000
0000
0000
0000
0000
0000
0000
0000
0000
0000
0000
0000
0000
0000
0000
0000
0000
0020
0000
0000
0000
0030
0000
0000
0000
0000
0000
0000
0000
0000
0000
0000
0000
0000
0000
0000
0000
0000
0000
0000
0000
0200
0000
0000
0000
0300
0000
0000
0000
0000
0000
0000
0000
0000
0000
0000
0000
0000
0000
0000
0000
0000
0000
0000
0000
2000
0000
0000
0000
0000
0000
0000
0000
3000
0000
0000
0000
0000
0000
0000
0000
0000
0000
0000
0000
0000
0000
0000
0000
0002
0000
0000
0000
0000
0000
0000
0000
0003
0000
0000
0000
0000
0000
0000
0000
0000
0000
0000
0000
0000
0000
0000
0000
0200
0000
0000
0000
0000
0000
0000
0000
0000
0000
0000
0000
0300
0000
0000
0000
0000
0000
0000
0000
0000
0000
0000
0000
0002
0000
0000
0000
0000
0000
0000
0000
0000
0000
0000
0000
0003
0000
0000
0000
0000
0000
0000
0000
0000
0000
0000
0000
,
0110
0000
0100
0000
0001
0000
0010
0100
1000
0000
0010
0100
0001
0000
0101
0000
,
0100
0001
1000
0000
0100
0000
0100
0000
0011
0000
0101
0000
0100
0010
1000
0001
,
1000
0000
0010
0000
0101
0000
1000
0010
0100
0000
0001
1000
0100
0000
0011
0000
,
1000
0000
0000
0100
0000
0000
0010
0000
0000
0000
0000
0000
0001
0000
0000
0000
0000
0000
0001
0000
0000
0000
0000
0000
1010
0000
0000
0000
0000
0000
0110
0000
0000
0000
0000
0000
0100
0000
0001
0000
0100
0000
0001
0000
0100
0000
0001
0000
,
0100
0000
0010
0000
1000
0000
0001
0100
0010
0000
1000
0001
0010
0000
0011
0000
,
0100
1000
0010
0000
0100
0000
0100
0000
1001
0000
0011
0000
0001
0100
0010
1000
,
0100
0000
1000
0000
1100
0000
0100
0010
0001
0000
1000
0010
0100
0000
0110
0000
,
0100
0001
0010
0000
0001
0000
0001
0000
4010
0000
0000
0000
3104
0000
0000
0000
,
1103
0000
1000
0000
0010
0000
0100
0001
0010
0000
0001
1000
0100
0000
1100
0000
,
1000
0001
0010
0000
0001
0000
0001
0000
1010
0000
0110
0000
0100
0010
1000
0001
,
0010
0000
0001
0000
1100
0000
0001
0100
0001
0000
1000
0100
0010
0000
0110
0000
,
0100
0000
0000
1000
0000
0000
0001
0000
0000
0000
0000
0000
0100
0000
0000
0000
0000
0000
0100
0000
0000
0000
0000
0000
0011
0000
0000
0000
0000
0000
1001
0000
0000
0000
0000
0000
1000
0000
0001
0000
1000
0000
0001
0000
1000
0000
0001
0000
,
1000
00M0
0M00
000M
,
4004
0000
3003
MMMM
,
1000
0010
0100
0001
1000
0100
0010
0100
,
1000
0010
0100
0001
1000
0001
0010
0001
,
0100
0010
1000
0100
1000
0001
0100
0010
,
1000
0000
0001
0000
1000
0000
0001
0000
0010
0000
0100
0000
0010
0000
0001
1000
,
0100
1000
0001
1000
1100
0100
1000
0010
,
0110
0100
0001
1000
1001
0001
0010
0001
,
0101
0100
0001
1000
1010
0010
1000
0001
,
1001
0000
0000
1000
0000
0000
0010
0000
0000
0100
0000
0000
0110
0000
0000
0010
0000
0000
1000
0001
1000
0001
1000
0001
,
1000
0010
1000
0001
1000
0001
0100
0010
0100
0001
1000
0100
0010
0001
1000
0010
,
1000
0001
0010
0001
1000
0001
1000
0100
1000
0010
1000
0001
0100
0010
1000
0001
,
1000
0100
1000
0100
0010
0001
1000
0001
0100
0001
1000
0010
0100
0010
1000
0001
,
0010
0000
0000
0001
0000
0000
0100
0000
0000
0010
0000
0000
1000
0000
0000
0001
0000
0000
0010
0000
0000
0001
0000
0000
1000
0000
0000
0100
0000
0000
1000
0000
0000
0010
0000
0000
0100
0000
0001
0000
0100
0000
0001
0000
0100
0000
0001
0000
,
0100
0010
1000
0001
1000
0001
0100
0001
0010
0001
1000
0010
0100
0010
1000
0100
,
0010
0001
1000
0010
0100
0010
1000
0100
1000
0001
1000
0001
0010
0001
0100
0010
,
1000
0001
0010
0100
0010
0001
1000
0001
0100
0010
0100
0001
1000
0001
0010
0100
,
4000
0000
0004
0000
0000
0000
0000
0000
0000
0000
0000
0000
0000
0000
0000
3000
,
0003
0000
0000
0000
;
