#TITLE:Open Wounds;
#SUBTITLE:;
#ARTIST:Skillet;
#TITLETRANSLIT:;
#SUBTITLETRANSLIT:;
#ARTISTTRANSLIT:;
#CREDIT:;
#BANNER:Open Wounds - banner.PNG;
#BACKGROUND:;
#LYRICSPATH:;
#CDTITLE:;
#MUSIC:2 - Open Wounds.mp3;
#OFFSET:0.000;
#SAMPLESTART:100.000;
#SAMPLELENGTH:12.000;
#SELECTABLE:YES;
#BPMS:0.000=120.000;
#STOPS:;
#BGCHANGES:;
// cache tags:
#FIRSTBEAT:1.250;
#LASTBEAT:180.021;
#SONGFILENAME:Songs/new encore/2 - Open Wounds/2 - Open Wounds.sm;
#HASMUSIC:1;
#HASBANNER:1;
#MUSICLENGTH:198.217;
// end cache tags

//---------------dance-single - ----------------
#NOTES:
     dance-single:
     :
     Hard:
     7:
     0.173,0.238,0.066,0.126,0.265,202.000,13.000,25.000,0.000,0.000:
0000
0000
0000
0000
0000
1000
0000
0010
0000
0000
0100
0000
0001
0000
0000
0000
,
0010
0000
0000
0100
0000
0000
0000
0000
0000
0000
1000
0000
0010
0000
0000
0100
,
0000
0000
0000
0001
0000
0010
0000
0000
0000
0000
0000
0000
0000
1000
0000
0010
,
0000
0000
0100
0000
0000
0000
0000
0001
0000
0010
0000
0000
0000
0000
0000
0000
,
1000
0000
0100
0000
0010
0000
0000
0000
0000
0001
0000
0000
0010
0000
0000
0000
,
0000
0000
0000
0000
0000
1000
0000
0100
0010
0000
0000
0001
0010
0100
0000
1000
,
0000
0000
0010
0000
0000
0000
0000
0000
0000
1000
0100
0010
0000
0000
0001
0000
,
0100
0000
0010
0000
0000
0000
0000
1000
0000
0000
0000
0000
0100
0010
0001
0000
,
0000
0100
1000
0000
0010
0000
0000
0000
0100
0000
0000
0010
0000
0020
0000
0000
,
0000
0030
0000
0000
0000
0000
0000
0000
,
0000
0000
0100
0010
0000
1000
0000
0010
0000
0100
0000
0001
0000
0020
0000
0000
,
0030
0000
0000
0000
0000
1000
0100
0010
0000
0000
0001
0000
0100
0000
0000
0000
,
0010
0000
0000
0020
0000
0000
0030
0000
0000
1000
0000
0000
2000
0000
0000
0000
,
3000
0000
0000
0100
0000
0000
0200
0000
0000
0000
0000
0000
0300
0000
0000
0000
,
0000
0000
0000
0000
0000
0000
0000
0000
0000
0001
0000
0010
0000
0000
0000
0000
,
1000
0000
0000
0000
0000
0100
0000
0000
0000
0010
0000
0000
0100
0000
0010
1000
,
0000
0100
0000
0010
0000
2020
0000
0000
0000
3030
0000
0000
0100
0000
0001
0000
,
0000
0010
0000
0000
0000
0000
1010
0000
0000
0000
0000
0100
0000
0000
0000
1010
,
0000
0000
0100
0000
1000
0000
0000
0000
0001
0000
0000
0000
0000
2002
0000
0000
,
0000
0000
0000
0000
0000
0000
0000
3003
0000
0001
1000
0000
1001
0000
2002
0000
,
3003
0000
0000
1010
0000
1010
0000
0020
1000
0000
0030
0000
0100
0000
0000
1000
,
0000
0001
0000
0000
0002
0000
0000
0003
2000
0000
0000
0000
0000
3000
0000
0000
,
0100
0000
0010
0000
1000
0000
0000
0001
0000
0000
0000
0100
0000
0000
0010
0000
,
0000
1000
0000
0000
0001
0010
0000
0100
,
0020
2000
0000
0000
3030
0100
0000
0000
0010
0000
2020
0000
0000
3030
0000
0100
,
0000
0010
0000
0000
2020
0000
0000
3030
0100
0000
0000
0010
0000
0010
0000
2020
,
0000
0000
0000
3030
0000
0100
0000
0000
0000
0000
0000
0000
0010
0100
0000
0000
,
0010
0000
0000
0001
0000
0000
0000
0100
0000
0000
0010
0000
0000
0000
0001
0000
,
0000
0000
0000
0000
1001
0000
0000
0100
0000
0000
0010
0000
0000
0200
0000
0000
,
0000
0000
0000
0300
0000
0000
0000
0000
0000
1000
0000
0010
0000
0000
0000
0000
,
0000
0000
0100
0000
1000
0000
0000
0010
0000
0000
0000
0100
0000
0000
0010
0000
,
0000
0000
0000
0000
0000
0100
0000
0001
0000
0000
0010
0000
0000
0000
0100
0000
,
0000
1000
0000
0000
0000
0000
0000
0000
0010
0000
0100
0000
0000
0001
0000
0000
,
0000
0000
0010
0000
0000
0000
0000
0000
0000
0000
0000
0000
0000
0100
0000
1000
,
0010
0000
0000
0100
0000
0001
0000
0000
0010
0000
0100
0000
0000
0000
0000
0000
,
1000
0000
0000
0010
0000
0100
0000
0000
0001
0000
0010
0000
0000
0000
0000
0010
,
0000
0000
0000
0000
0100
0000
1000
0000
0000
0010
0000
0100
0000
0001
0000
0000
,
0010
0000
0100
0000
0000
0100
0000
0000
0000
1000
0000
0010
0000
0000
1000
0000
,
0010
0000
0000
1000
0010
0000
0000
0000
0000
0000
0100
1000
0010
0000
0000
0100
,
0000
0001
0000
0010
0000
1000
0000
0000
0000
0000
0000
0000
0100
0000
1000
0000
,
0000
0000
0010
0000
0100
0000
0000
0000
0000
1000
0000
0010
0000
0000
0000
0000
,
0000
0100
0000
0000
1000
0000
0000
0000
0000
0000
0000
0010
0000
0000
0100
0000
,
0000
0000
0000
0000
,
0000
0001
0000
0100
0000
0000
0000
0000
1000
0000
0000
0000
0000
0100
0000
0000
,
0000
1010
0000
0000
0100
0000
0010
0000
0000
0100
0000
0001
0000
0020
2000
0000
,
0000
3030
0000
0000
0000
0000
0000
0000
0000
0000
0000
0000
0000
0000
0000
0000
0000
0000
0000
0000
0000
0000
0000
0000
0000
0000
0000
0000
0000
0000
0000
0000
0000
0000
0000
0000
0000
0000
0000
0000
0000
0000
0000
0000
0000
0000
0000
0000
0000
0000
0000
0000
0000
0000
0000
0000
0000
0000
0000
0000
0000
0000
0000
0000
0000
0000
0000
0000
0000
0000
0000
0000
0000
0000
0000
0000
0000
0000
0000
0000
0000
0000
0000
0000
0000
0000
0000
0000
0000
0000
0000
0000
0000
0000
0000
0000
0000
0000
0000
0000
0000
0000
0000
0000
0000
0000
0000
0000
0000
0000
0000
0000
0000
0000
0000
0000
0000
0000
0000
0000
0000
0000
0000
0000
0000
0000
0000
0000
0000
0000
0000
0000
0000
0000
0000
0000
0000
0000
0000
0000
0000
0000
0000
0000
0000
0000
0000
0000
0000
0000
0000
0000
0000
0000
0000
0000
0000
0000
0000
0000
0000
0000
0000
0000
0000
0000
0000
0000
0000
0000
0000
0000
0000
0000
0000
0000
0000
0000
0000
0000
0000
0000
0000
0000
0000
0000
0000
0000
0000
0000
0000
0000
;
