#TITLE:[3-Boss] Nageki no Ki;
#SUBTITLE:;
#ARTIST:Kinjishi;
#TITLETRANSLIT:;
#SUBTITLETRANSLIT:;
#ARTISTTRANSLIT:;
#CREDIT:;
#BANNER:../Beast 4 - bn.png;
#BACKGROUND:../Beast 4 - bg.png;
#LYRICSPATH:;
#CDTITLE:;
#MUSIC:Nageki no Ki.ogg;
#OFFSET:-1.117;
#SAMPLESTART:39.693;
#SAMPLELENGTH:10.080;
#SELECTABLE:YES;
#BPMS:0.000=160.000;
#STOPS:;
#BGCHANGES:;
// cache tags:
#FIRSTBEAT:20.000;
#LASTBEAT:321.500;
#SONGFILENAME:Songs/Beast Aoreo BEAST! 4/Nageki no Ki - [Aoreo]/Nageki no Ki.sm;
#HASMUSIC:1;
#HASBANNER:1;
#MUSICLENGTH:125.625;
// end cache tags

//---------------dance-single - J. Nero----------------
#NOTES:
     dance-single:
     J. Nero:
     Challenge:
     16:
     1.000,1.000,0.342,0.979,1.000,996.000,43.000,123.000,0.000,0.000:
0000
0000
0000
0000
,
0000
0000
0000
0000
,
0000
0000
0000
0000
,
0000
0000
0000
0000
,
0000
0000
0000
0000
,
0001
0000
0000
1000
0000
0000
0001
0000
0000
1000
0000
0000
0010
0000
0000
0000
0000
0000
1000
0000
0100
0000
0010
0000
0002
0000
0000
0000
0000
0000
0000
0000
0003
0000
0000
0000
0000
0000
0000
0000
0000
0000
0000
0000
0000
1000
0000
0000
,
0100
0000
0000
1000
0000
0000
0001
0000
0000
0010
0000
0000
0100
0000
0000
0000
0000
0000
1000
0000
0001
0000
1000
0000
0001
0000
0000
0100
0000
0000
0001
0000
0000
0010
0000
0000
0100
0000
0000
1000
0000
0000
0001
0000
0000
1000
0000
0000
,
0000
0001
0100
0001
1000
0000
0000
0000
0001
0100
0001
1000
0100
0010
0001
1000
,
0001
0100
0001
1000
0100
0010
0001
1000
0001
0100
0001
1000
0100
0010
0001
1000
,
0010
0100
0010
1000
0001
0010
0100
1000
0001
0100
0010
0100
0001
1000
0100
0010
,
0001
1000
0010
0100
0001
0010
0100
1000
0001
1000
0010
0100
0001
0010
0001
1000
,
0100
1000
0001
0100
0010
1000
0001
0010
0100
1000
0001
0100
0010
1000
0100
0010
,
0001
1000
0001
0100
0010
1000
0001
0010
0100
1000
0001
0100
0010
1000
0100
0010
,
0001
1000
0001
0100
0010
1000
0001
0010
0100
1000
0001
0100
0010
1000
0001
0010
,
0100
1000
0001
0100
0010
1000
0100
0010
0001
1000
0001
0100
0010
1000
0001
0010
,
0100
1000
0001
0100
0010
1000
0001
0010
0100
1000
0001
0100
0010
1000
0100
0010
,
0002
0000
0003
0000
2002
0000
3003
1000
,
2001
3000
0001
0100
0020
0030
1000
0100
0020
0030
0001
1000
0200
0300
2000
3001
,
0100
0000
0001
0100
0010
0000
2000
3001
0020
0030
0100
1000
0001
0000
0200
0310
,
1000
0000
0001
0100
0010
0000
1000
0100
0010
0000
0100
1000
0010
0000
0100
0001
,
0010
0000
0001
0010
0100
0000
1000
0010
0100
0000
0002
0013
0100
0000
2000
3010
,
0100
0000
0001
0010
0002
0003
0020
0130
0020
0030
0200
1300
0001
0000
1000
0010
,
0200
0300
0002
1003
0200
0300
2000
3010
0100
0000
0001
1000
0002
0003
2000
3100
,
0020
0030
0002
0103
0010
0000
1000
0100
2000
3000
0002
0103
0020
0030
0200
0301
,
1000
0100
1000
0001
0010
0100
1000
0001
1000
0000
0010
0000
0100
0000
0001
0000
,
1000
0100
1000
0001
0010
0100
1000
0000
0001
0100
0001
1000
0100
0010
0001
0000
,
1000
0010
1000
0001
0100
0010
1000
0000
0001
0100
0001
1000
0010
0100
0001
0000
,
1000
0100
1000
0001
0010
0100
1000
0000
0001
0010
0001
1000
0100
0010
0001
0000
,
1000
0100
0010
0100
1000
0010
0100
0010
1000
0100
0010
0100
1000
0001
0100
0001
,
1000
0010
1000
0001
0010
0100
1000
0000
0001
0100
0001
1000
0100
0010
0001
0000
,
1000
0100
1000
0001
0100
0010
1000
0000
0001
0010
0001
1000
0010
0100
0001
0000
,
1000
0010
1000
0001
0010
0100
1000
0000
0001
0100
0001
1000
0100
0010
0001
0000
,
1000
0001
0010
0100
0010
0001
0100
0010
0100
0001
0010
0100
0010
0001
1000
0010
,
0100
0001
1000
0001
0010
0100
1000
0001
1000
0010
0100
0001
0010
0001
1000
0100
,
1000
0001
1000
0100
0010
0001
1000
0010
1000
0010
1000
0001
0010
0100
1000
0001
,
0100
0001
1000
0100
0010
0100
1000
0001
0100
0010
0100
0001
0010
0001
1000
0100
,
1000
0001
0100
0001
0010
0100
1000
0001
0100
0001
1000
0100
0010
0001
0100
0010
,
1000
0010
1000
0001
0010
0100
1000
0010
0100
0010
1000
0001
0010
0100
1000
0001
,
2000
3000
0000
0000
0000
0000
0000
0000
0000
2020
3030
0000
0000
0000
0000
0000
0000
0000
0220
0330
0000
0000
0000
0000
0202
0303
0000
0000
0000
0000
0000
0000
0000
2002
3003
0000
0000
0000
0000
0000
0000
0000
2200
3300
0000
0000
0000
0000
,
0000
0000
0000
0220
0330
0000
0000
0000
0000
0000
0000
0000
0022
0033
0000
0000
0000
0000
0000
0000
0000
2002
3003
0000
0000
0000
0000
0000
0000
0000
2020
3030
0000
0000
0000
0000
0202
0303
0000
0000
0000
0000
0220
0330
0000
0000
0000
0000
,
2002
0000
0000
0000
0000
0000
0000
0000
0000
0000
0000
0000
0000
0000
0000
0000
0000
0000
0000
0000
0000
0000
0000
0000
0000
0000
0000
0000
0000
0000
0000
0000
0000
3003
0000
0000
0001
0000
1000
0000
0100
0000
0010
0000
0100
0000
1000
0000
,
0001
0000
0100
0000
0010
0000
1000
0100
0010
0000
0001
0000
1000
0000
0001
0000
,
0010
0000
0001
0000
1000
0000
0010
1000
0010
0000
0100
0000
0001
0000
0010
0000
,
0100
0000
1000
0000
0001
0000
1000
0100
0010
0000
0001
0000
1000
0000
0100
0000
,
1000
0000
0001
0000
1000
0000
0010
1000
0010
0000
0100
0000
0001
0000
1000
0000
,
2000
3000
0000
0000
0010
0000
0000
0000
0100
0000
0000
0000
0001
0000
0000
0000
1000
0000
0000
0000
0100
0000
0000
0000
1000
0000
0000
0000
0001
0000
0000
0000
,
0020
0030
0000
0100
0000
0000
1000
0000
0000
0001
0000
0000
0100
0000
0000
0100
0000
0000
0000
0000
0000
0001
0000
0000
,
1000
0100
1000
0100
0010
0000
0000
0000
0001
0100
0001
0100
0010
0000
0000
0000
,
1000
0100
1000
0010
0100
0000
0001
1000
0001
1000
0100
0000
0000
0000
0100
0000
,
2002
3003
0000
0000
1000
0000
0000
0000
0010
0000
0000
0000
0100
0000
0000
0000
0001
0000
0100
0000
0001
0000
0000
0000
1000
0000
0100
0000
0000
0000
1000
0000
,
0100
0000
0010
0000
0001
0100
0000
0001
0100
0000
0010
0000
1000
0100
0010
0100
,
1000
0000
0001
0000
0100
0000
0010
0000
1000
0001
1000
0000
0001
0100
0000
0001
,
0100
0000
0010
0000
1000
0100
0000
1000
0100
0000
0010
0000
0001
0010
0100
0010
,
0002
0003
0000
0000
1000
0000
0000
0000
0010
0000
0000
0000
0100
0000
0000
0000
0001
0000
0000
0000
0001
0000
0000
0000
1000
0000
0000
0000
1000
0000
0000
0000
,
0002
0003
0000
0000
0100
0000
0000
0000
0010
0000
0000
0000
0100
0000
0000
0000
0001
0000
0000
0000
0001
0000
0000
0000
1000
0000
0000
0000
1000
0000
0000
0000
,
0001
0100
0001
0100
0010
0000
0000
0000
1000
0100
1000
0100
0010
0000
0000
0000
,
0001
0100
0001
0100
0010
1000
0001
0100
0001
1000
0100
1000
0001
1000
0010
1000
,
0200
0300
0000
0000
0010
0000
0000
0000
0001
0000
0000
0000
0202
0303
0000
0000
0100
0000
0000
0000
0010
0000
0000
0000
2020
3030
0000
0000
1000
0000
0000
0000
,
2002
3003
0000
0000
0001
0000
0000
0000
0100
0000
0000
0000
0220
0330
0000
0000
0010
0000
0000
0000
1000
0000
0000
0000
2200
3300
0000
0000
0100
0000
0000
0000
,
0022
0033
0000
0000
0010
0000
0000
0000
0001
0000
0000
0000
2002
3003
0000
0000
1000
0000
0000
0000
0010
0000
0000
0000
2020
3030
0000
0000
0100
0000
0000
0000
,
0202
0303
0000
0000
0001
0000
0000
0000
0010
0000
0000
0000
0220
0330
0000
0000
0100
0000
0000
0000
2200
3300
0000
0000
1000
0000
0001
0000
0000
0000
1000
0000
,
0001
0100
0001
1000
0010
0100
0010
1000
0001
0010
0100
1000
0001
0100
0001
1000
,
0100
0010
0001
1000
0100
1000
0001
1000
0010
0100
0001
1000
0010
0100
0010
1000
,
0001
0010
0100
1000
0001
0010
0001
1000
0100
0010
0001
1000
0010
0100
0001
1000
,
0002
0003
0000
0000
0010
0000
0000
0000
0100
0000
0000
0000
2200
3300
0000
0000
1000
0000
0000
0000
2002
3003
0000
0000
0001
0000
0100
0000
0001
0000
0100
0000
,
0010
1000
0010
0100
0001
1000
0001
0100
0010
0100
0001
1000
0001
0010
0100
1000
0001
0010
0001
1000
0100
0010
0001
1000
,
0001
0100
0001
1000
0010
0100
0010
1000
0001
1000
0010
0100
0001
1000
0100
1000
0001
1000
0001
0010
0100
1000
0001
1000
,
0010
1000
0001
0100
0001
1000
0010
0100
0010
1000
0001
1000
0001
0010
0100
1000
0001
0010
0100
1000
0001
1000
0100
0010
,
0001
1000
0001
0100
0001
1000
0010
0100
0010
1000
0001
0100
0001
1000
0100
1000
0001
0010
0100
1000
0001
0010
0001
1000
,
0100
1000
0001
0100
0010
0100
0001
1000
0001
0100
0010
0100
0001
1000
0100
1000
0001
0010
0100
1000
0001
0010
0001
1000
,
0001
0100
0010
0100
0001
1000
0100
0010
0001
0100
0001
1000
0010
0100
0010
1000
0001
0010
0100
1000
0001
0010
0001
1000
,
0100
0010
0001
1000
0001
0100
0010
0100
0001
1000
0001
0010
0100
1000
0001
0100
0001
1000
0010
0100
0010
1000
0001
1000
,
0100
0010
0001
1000
0001
0100
0010
0100
0001
1000
0001
0010
0100
1000
0001
0100
0001
1000
0100
0010
0001
1000
0001
0100
,
0010
0100
0001
1000
0001
0010
0100
1000
0001
1000
0100
1000
0001
0010
0100
1000
0001
0100
0010
0100
0001
1000
0100
0010
,
0001
1000
0001
0100
0010
0100
0001
1000
0100
1000
0001
0100
0001
1000
0010
0100
0010
1000
0001
0010
0100
1000
0001
0100
,
0002
0000
0000
0000
0000
0000
0003
0000
0000
0000
0000
0000
0000
0000
0000
0000
0000
0000
0000
0000
0000
0000
0000
0000
0000
0000
0000
0000
0000
0000
0000
0000
0000
0000
0000
0000
0202
0000
0000
0000
0303
0000
0000
0000
0000
0000
0000
0000
0000
0000
0000
0000
0000
0000
0000
0000
0000
0000
0000
0000
0000
0000
0000
0000
0000
0000
0000
0000
0000
0000
0000
0000
2020
0000
0000
0000
3030
0000
0000
0000
0000
0000
0000
0000
0000
0000
0000
0000
0000
0000
0000
0000
0000
0000
0000
0000
2002
0000
0000
0000
3003
0000
0000
0000
0000
0000
0000
0000
0000
0000
0000
0000
0000
0000
0000
0000
0000
0000
0000
0000
0000
0000
0000
0000
0000
0000
0000
0000
0000
0000
0000
0000
0022
0000
0000
0000
0033
0000
0000
0000
0000
0000
0000
0000
0000
0000
0000
0000
0000
0000
0000
0000
0000
0000
0000
0000
0000
0000
0000
0000
0000
0000
0000
0000
0000
0000
0000
0000
0220
0000
0000
0000
0330
0000
0000
0000
0000
0000
0000
0000
0000
0000
0000
0000
0000
0000
0000
0000
0000
0000
0000
0000
,
0000
0000
0000
2200
3300
0000
0000
0000
0000
0000
0000
0000
2002
3003
0000
0000
0000
0000
0000
0000
0000
0202
0303
0000
0000
0000
0000
0000
0000
0000
2020
3030
0000
0000
0000
0000
0220
0330
0000
0000
0000
0000
0202
0303
0000
0000
0000
0000
,
2002
0000
0000
0000
0000
0000
0000
0000
0000
0000
0000
0000
0000
0000
0000
0000
0000
0000
0000
0000
0000
0000
0000
0000
0000
0000
0000
0000
0000
0000
0000
0000
0000
3003
0000
0000
0001
0000
0100
0000
0010
0000
0100
0000
0001
0000
1000
0000
,
0002
0003
0000
0000
0010
0000
0000
0000
0100
0000
0000
0000
2200
3300
0000
0000
1000
0000
0000
0000
0010
0000
0000
0000
0220
0330
0000
0000
0202
0303
0000
0000
,
0002
2000
0000
0000
,
3000
0000
0000
0003
0000
0000
0000
0000
;

//---------------dance-single - J. Nero----------------
#NOTES:
     dance-single:
     J. Nero:
     Hard:
     15:
     1.000,1.000,0.342,0.979,1.000,956.000,43.000,123.000,0.000,0.000:
0000
0000
0000
0000
,
0000
0000
0000
0000
,
0000
0000
0000
0000
,
0000
0000
0000
0000
,
0000
0000
0000
0000
,
0001
0000
0000
1000
0000
0000
0001
0000
0000
1000
0000
0000
0010
0000
0000
0000
0000
0000
1000
0000
0100
0000
0010
0000
0002
0000
0000
0000
0000
0000
0000
0000
0003
0000
0000
0000
0000
0000
0000
0000
0000
0000
0000
0000
0000
1000
0000
0000
,
0100
0000
0000
1000
0000
0000
0001
0000
0000
0010
0000
0000
0100
0000
0000
0000
0000
0000
1000
0000
0001
0000
1000
0000
0001
0000
0000
0100
0000
0000
0001
0000
0000
0010
0000
0000
0100
0000
0000
1000
0000
0000
0001
0000
0000
1000
0000
0000
,
0000
0001
0100
0001
1000
0000
0000
0000
0001
0100
0001
1000
0100
0010
0001
1000
,
0001
0100
0001
1000
0100
0010
0001
1000
0001
0100
0001
1000
0100
0010
0001
1000
,
0010
0100
0010
1000
0001
0010
0100
1000
0001
0100
0010
0100
0001
1000
0100
0010
,
0001
1000
0010
0100
0001
0010
0100
1000
0001
1000
0010
0100
0001
0010
0001
1000
,
0100
1000
0001
0100
0010
1000
0001
0010
0100
1000
0001
0100
0010
1000
0100
0010
,
0001
1000
0001
0100
0010
1000
0001
0010
0100
1000
0001
0100
0010
1000
0100
0010
,
0001
1000
0001
0100
0010
1000
0001
0010
0100
1000
0001
0100
0010
1000
0001
0010
,
0100
1000
0001
0100
0010
1000
0100
0010
0001
1000
0001
0100
0010
1000
0001
0010
,
0100
1000
0001
0100
0010
1000
0001
0010
0100
1000
0001
0100
0010
1000
0100
0010
,
0002
0000
0003
0000
2002
0000
3003
1000
,
2001
3000
0001
0100
0020
0030
1000
0100
0020
0030
0001
1000
0200
0300
2000
3001
,
0100
0000
0001
0100
0010
0000
2000
3001
0020
0030
0100
1000
0001
0000
0200
0310
,
1000
0000
0001
0100
0010
0000
1000
0100
0010
0000
0100
1000
0010
0000
0100
0001
,
0010
0000
0001
0010
0100
0000
1000
0010
0100
0000
0002
0013
0100
0000
2000
3010
,
0100
0000
0001
0010
0002
0003
0020
0130
0020
0030
0200
1300
0001
0000
1000
0010
,
0200
0300
0002
1003
0200
0300
2000
3010
0100
0000
0001
1000
0002
0003
2000
3100
,
0020
0030
0002
0103
0010
0000
1000
0100
2000
3000
0002
0103
0020
0030
0200
0301
,
1000
0100
1000
0001
0010
0100
1000
0001
1000
0000
0010
0000
0100
0000
0001
0000
,
1000
0100
1000
0001
0010
0100
1000
0000
0001
0100
0001
1000
0100
0010
0001
0000
,
1000
0010
1000
0001
0100
0010
1000
0000
0001
0100
0001
1000
0010
0100
0001
0000
,
1000
0100
1000
0001
0010
0100
1000
0000
0001
0010
0001
1000
0100
0010
0001
0000
,
1000
0100
0010
0100
1000
0010
0100
0010
1000
0100
0010
0100
1000
0001
0100
0001
,
1000
0010
1000
0001
0010
0100
1000
0000
0001
0100
0001
1000
0100
0010
0001
0000
,
1000
0100
1000
0001
0100
0010
1000
0000
0001
0010
0001
1000
0010
0100
0001
0000
,
1000
0010
1000
0001
0010
0100
1000
0000
0001
0100
0001
1000
0100
0010
0001
0000
,
1000
0001
0010
0100
0010
0001
0100
0010
0100
0001
0010
0100
0010
0001
1000
0010
,
0100
0001
1000
0001
0010
0100
1000
0001
1000
0010
0100
0001
0010
0001
1000
0100
,
1000
0001
1000
0100
0010
0001
1000
0010
1000
0010
1000
0001
0010
0100
1000
0001
,
0100
0001
1000
0100
0010
0100
1000
0001
0100
0010
0100
0001
0010
0001
1000
0100
,
1000
0001
0100
0001
0010
0100
1000
0001
0100
0001
1000
0100
0010
0001
0100
0010
,
1000
0010
1000
0001
0010
0100
1000
0010
0100
0010
1000
0001
0010
0100
1000
0001
,
2000
3000
0000
0000
0000
0000
0000
0000
0000
2020
3030
0000
0000
0000
0000
0000
0000
0000
0220
0330
0000
0000
0000
0000
0202
0303
0000
0000
0000
0000
0000
0000
0000
2002
3003
0000
0000
0000
0000
0000
0000
0000
2200
3300
0000
0000
0000
0000
,
0000
0000
0000
0220
0330
0000
0000
0000
0000
0000
0000
0000
0022
0033
0000
0000
0000
0000
0000
0000
0000
2002
3003
0000
0000
0000
0000
0000
0000
0000
2020
3030
0000
0000
0000
0000
0202
0303
0000
0000
0000
0000
0220
0330
0000
0000
0000
0000
,
2002
0000
0000
0000
0000
0000
0000
0000
0000
0000
0000
0000
0000
0000
0000
0000
0000
0000
0000
0000
0000
0000
0000
0000
0000
0000
0000
0000
0000
0000
0000
0000
0000
3003
0000
0000
0001
0000
1000
0000
0100
0000
0010
0000
0100
0000
1000
0000
,
0001
0000
0100
0000
0010
0000
1000
0100
0010
0000
0001
0000
1000
0000
0001
0000
,
0010
0000
0001
0000
1000
0000
0010
1000
0010
0000
0100
0000
0001
0000
0010
0000
,
0100
0000
1000
0000
0001
0000
1000
0100
0010
0000
0001
0000
1000
0000
0100
0000
,
1000
0000
0001
0000
1000
0000
0010
1000
0010
0000
0100
0000
0001
0000
1000
0000
,
2000
3000
0000
0000
0010
0000
0000
0000
0100
0000
0000
0000
0001
0000
0000
0000
1000
0000
0000
0000
0100
0000
0000
0000
1000
0000
0000
0000
0001
0000
0000
0000
,
0020
0030
0000
0100
0000
0000
1000
0000
0000
0001
0000
0000
0100
0000
0000
0100
0000
0000
0000
0000
0000
0001
0000
0000
,
1000
0100
1000
0100
0010
0000
0000
0000
0001
0100
0001
0100
0010
0000
0000
0000
,
1000
0100
1000
0010
0100
0000
0001
1000
0001
1000
0100
0000
0000
0000
0100
0000
,
2002
3003
0000
0000
1000
0000
0000
0000
0010
0000
0000
0000
0100
0000
0000
0000
0001
0000
0100
0000
0001
0000
0000
0000
1000
0000
0100
0000
0000
0000
1000
0000
,
0100
0000
0010
0000
0001
0100
0000
0001
0100
0000
0010
0000
1000
0100
0010
0100
,
1000
0000
0001
0000
0100
0000
0010
0000
1000
0001
1000
0000
0001
0100
0000
0001
,
0100
0000
0010
0000
1000
0100
0000
1000
0100
0000
0010
0000
0001
0010
0100
0010
,
0002
0003
0000
0000
1000
0000
0000
0000
0010
0000
0000
0000
0100
0000
0000
0000
0001
0000
0000
0000
0001
0000
0000
0000
1000
0000
0000
0000
1000
0000
0000
0000
,
0002
0003
0000
0000
0100
0000
0000
0000
0010
0000
0000
0000
0100
0000
0000
0000
0001
0000
0000
0000
0001
0000
0000
0000
1000
0000
0000
0000
1000
0000
0000
0000
,
0001
0100
0001
0100
0010
0000
0000
0000
1000
0100
1000
0100
0010
0000
0000
0000
,
0001
0100
0001
0100
0010
1000
0001
0100
0001
1000
0100
1000
0001
1000
0010
1000
,
0200
0300
0000
0000
0010
0000
0000
0000
0001
0000
0000
0000
0202
0303
0000
0000
0100
0000
0000
0000
0010
0000
0000
0000
2020
3030
0000
0000
1000
0000
0000
0000
,
2002
3003
0000
0000
0001
0000
0000
0000
0100
0000
0000
0000
0220
0330
0000
0000
0010
0000
0000
0000
1000
0000
0000
0000
2200
3300
0000
0000
0100
0000
0000
0000
,
0022
0033
0000
0000
0010
0000
0000
0000
0001
0000
0000
0000
2002
3003
0000
0000
1000
0000
0000
0000
0010
0000
0000
0000
2020
3030
0000
0000
0100
0000
0000
0000
,
0202
0303
0000
0000
0001
0000
0000
0000
0010
0000
0000
0000
0220
0330
0000
0000
0100
0000
0000
0000
2200
3300
0000
0000
1000
0000
0001
0000
0000
0000
1000
0000
,
0001
0100
0001
1000
0010
0100
0010
1000
0001
0010
0100
1000
0001
0100
0001
1000
,
0100
0010
0001
1000
0100
1000
0001
1000
0010
0100
0001
1000
0010
0100
0010
1000
,
0001
0010
0100
1000
0001
0010
0001
1000
0100
0010
0001
1000
0010
0100
0001
1000
,
0002
0003
0000
0000
0010
0000
0000
0000
0100
0000
0000
0000
2200
3300
0000
0000
1000
0000
0000
0000
2002
3003
0000
0000
0001
0000
0100
0000
0001
0000
0100
0000
,
0010
1000
0010
0100
0001
1000
0001
0100
0010
0100
0001
1000
0001
0010
0100
1000
0001
0010
0001
1000
0100
0010
0001
1000
,
0001
0100
0001
1000
0010
0100
0010
1000
0001
1000
0010
0100
0001
1000
0100
1000
0001
1000
0001
0010
0100
1000
0001
1000
,
0010
1000
0001
0100
0001
1000
0010
0100
0010
1000
0001
1000
0001
0010
0100
1000
0001
0010
0100
1000
0001
1000
0100
0010
,
0001
1000
0001
0100
0001
1000
0010
0100
0010
1000
0001
0100
0001
1000
0100
1000
0001
0010
0100
1000
0001
0010
0001
1000
,
0100
1000
0001
0100
0010
0100
0001
1000
0001
0100
0010
0100
0001
1000
0100
1000
0001
0010
0100
1000
0001
0010
0001
1000
,
0001
0100
0010
0100
0001
0010
0100
1000
0001
0100
0010
1000
0010
1000
0100
0010
,
0001
1000
0010
0100
0001
1000
0001
0010
0100
1000
0010
0100
0001
0010
0100
1000
,
0010
0100
0001
1000
0001
0010
0100
1000
0001
0100
0001
1000
0100
0010
0001
1000
,
0001
0010
0100
1000
0001
0100
0010
0100
0001
1000
0100
0010
0001
1000
0010
0100
,
0010
1000
0001
0010
0100
1000
0001
0100
0010
0100
0001
1000
0100
0010
0001
1000
,
0002
0000
0000
0000
0000
0000
0003
0000
0000
0000
0000
0000
0000
0000
0000
0000
0000
0000
0000
0000
0000
0000
0000
0000
0000
0000
0000
0000
0000
0000
0000
0000
0000
0000
0000
0000
0202
0000
0000
0000
0303
0000
0000
0000
0000
0000
0000
0000
0000
0000
0000
0000
0000
0000
0000
0000
0000
0000
0000
0000
0000
0000
0000
0000
0000
0000
0000
0000
0000
0000
0000
0000
2020
0000
0000
0000
3030
0000
0000
0000
0000
0000
0000
0000
0000
0000
0000
0000
0000
0000
0000
0000
0000
0000
0000
0000
2002
0000
0000
0000
3003
0000
0000
0000
0000
0000
0000
0000
0000
0000
0000
0000
0000
0000
0000
0000
0000
0000
0000
0000
0000
0000
0000
0000
0000
0000
0000
0000
0000
0000
0000
0000
0022
0000
0000
0000
0033
0000
0000
0000
0000
0000
0000
0000
0000
0000
0000
0000
0000
0000
0000
0000
0000
0000
0000
0000
0000
0000
0000
0000
0000
0000
0000
0000
0000
0000
0000
0000
0220
0000
0000
0000
0330
0000
0000
0000
0000
0000
0000
0000
0000
0000
0000
0000
0000
0000
0000
0000
0000
0000
0000
0000
,
0000
0000
0000
2200
3300
0000
0000
0000
0000
0000
0000
0000
2002
3003
0000
0000
0000
0000
0000
0000
0000
0202
0303
0000
0000
0000
0000
0000
0000
0000
2020
3030
0000
0000
0000
0000
0220
0330
0000
0000
0000
0000
0202
0303
0000
0000
0000
0000
,
2002
0000
0000
0000
0000
0000
0000
0000
0000
0000
0000
0000
0000
0000
0000
0000
0000
0000
0000
0000
0000
0000
0000
0000
0000
0000
0000
0000
0000
0000
0000
0000
0000
3003
0000
0000
0001
0000
0100
0000
0010
0000
0100
0000
0001
0000
1000
0000
,
0002
0003
0000
0000
0010
0000
0000
0000
0100
0000
0000
0000
2200
3300
0000
0000
1000
0000
0000
0000
0010
0000
0000
0000
0220
0330
0000
0000
0202
0303
0000
0000
,
0002
2000
0000
0000
,
3000
0000
0000
0003
0000
0000
0000
0000
;
