#TITLE:Power Rangers Lost Galaxy;
#SUBTITLE:(Theme Song);
#ARTIST:Unknown artist;
#TITLETRANSLIT:;
#SUBTITLETRANSLIT:;
#ARTISTTRANSLIT:;
#CREDIT:;
#BANNER:Copy of power rangers lost galaxy-banner.jpg;
#BACKGROUND:power rangers lost galaxy-bg.jpg;
#LYRICSPATH:;
#CDTITLE:Super Sai'n-cdtitle.png;
#MUSIC:_Power Rangers Lost Galaxy Theme Song.mp3;
#OFFSET:-0.020;
#SAMPLESTART:0.495;
#SAMPLELENGTH:5.300;
#SELECTABLE:YES;
#BPMS:0.000=180.000,34.500=90.000,41.000=180.000,57.500=90.000,65.000=180.000,89.000=90.000,92.000=180.000,100.000=90.000,103.000=180.000,111.000=90.000,114.000=180.000,122.000=90.000;
#STOPS:40.750=0.800
,63.750=0.500
,91.000=0.180
,91.250=0.180
,91.500=0.180
,91.750=0.140
,102.000=0.180
,102.250=0.180
,102.500=0.180
,102.750=0.120
,113.000=0.180
,113.250=0.180
,113.500=0.180
,113.750=0.140
,122.000=0.860
;
#BGCHANGES:;
// cache tags:
#FIRSTBEAT:0.000;
#LASTBEAT:130.250;
#SONGFILENAME:Songs/juju step2/Power Rangers Lost Galaxy (Theme Song)/Power Rangers Lost Galaxy (Theme Song).sm;
#HASMUSIC:1;
#HASBANNER:1;
#MUSICLENGTH:60.011;
// end cache tags

//---------------dance-single - Isaiah Original----------------
#NOTES:
     dance-single:
     Isaiah Original:
     Challenge:
     10:
     0.812,0.895,0.966,0.217,1.000,261.000,58.000,13.000,162.000,5.000:

MMM0
000M
M000
000M
M000
000M
M0M0
0M00
M000
0000
M000
0000
M000
0000
M000
0000
,
0MM0
M00M
0000
M00M
0000
M00M
0MM0
0000
M00M
0000
M00M
0000
M00M
0MM0
MMMM
0MM0
,
MMMM
0MM0
MMMM
0000
0000
0000
MMMM
0000
M000
0000
M000
0000
MMMM
0000
M000
0000
,
M000
0000
MMMM
0000
0000
0000
MMM0
000M
M00M
0000
M00M
00M0
MM00
0000
MM00
0000
,
M0M0
M00M
M000
0001
0110
0000
1010
0010
,
1000
0100
0110
0110
0100
0011
0001
0100
,
0010
0100
1010
1010
1000
1100
1000
0010
,
0100
0001
0101
0101
MMMM
0110
MMMM
1001
,
MMMM
0000
0011
0000
MMMM
0000
1100
0000
MMMM
0000
0201
0000
0000
0310
1000
0100
,
0000
0011
0000
1011
0000
0010
0100
1000
0000
0101
0000
0111
0000
0010
0100
0001
,
0000
0000
0000
0000
0000
0000
0000
0000
0000
0000
0000
0000
0110
0000
0000
0000
0000
0000
0000
0000
0000
0000
0000
0000
0000
0000
0000
0000
0000
0000
0000
0000
0000
0000
0000
0000
0204
0000
0003
0300
0000
0000
MMMM
0000
0000
MMMM
0000
0000
1MM1
0000
0000
0000
0000
0000
0000
0000
0000
0000
0000
0000
0000
0000
0000
0000
0000
0000
0000
0000
0000
0000
0000
0000
0000
0000
0000
0000
0000
0000
0000
0000
0000
0000
0000
0000
0000
0000
0000
0000
0000
0000
0000
0000
0000
0000
0000
0000
1001
0000
0000
0000
0000
0000
0000
0000
0000
0000
0000
0000
0000
0000
0000
0000
0000
0000
0000
0000
0000
0000
0000
0000
0001
0000
0000
0000
0000
0000
0000
0000
0000
0000
0000
0000
0000
0000
0000
0000
0000
0000
0000
0000
0000
0000
0000
0000
0010
0000
0000
0000
0000
0000
0000
0000
0000
0000
0000
0000
0000
0000
0000
0000
0000
0000
0000
0000
0000
0000
0000
0000
0100
0000
0000
0000
0000
0000
0000
0000
0000
0000
0000
0000
0000
0000
0000
0000
0000
0000
0000
0000
0000
0000
0000
0000
,
1100
0110
0100
0011
0100
0001
0100
0010
,
1010
0000
0110
0000
0010
0000
2000
0000
000M
00M0
0000
00M0
0M01
00M0
0000
0M0M
,
0010
0M00
0001
0M00
00M0
000M
02MM
0000
0000
00M0
3000
000M
M010
000M
00M0
00M0
,
10MM
0000
001M
M000
00M0
0000
2300
0000
0000
0010
0100
3010
0000
0110
0000
1111
,
0000
1000
0001
0100
0000
0101
0000
1111
0000
0010
0100
1000
0000
1001
0000
1111
,
0000
0000
0000
0000
0010
1000
0010
1000
0010
1000
0010
1000
0010
1000
0010
1000
,
0010
1000
0010
1000
0001
1000
0001
1000
0001
1000
0001
1000
0100
1000
0100
1000
,
0001
1000
0001
1000
0010
1000
0010
1000
0010
1000
0010
1000
0010
1000
0010
1000
,
0010
1000
0010
1000
0100
1000
0100
1000
0100
1000
0100
1000
0100
1000
0100
1000
,
0100
1000
0100
1000
0001
1000
0001
1000
0001
1000
0001
1000
0001
1000
0001
1000
,
0001
1000
0001
1000
0010
1000
0010
1000
0010
1000
0010
1000
0010
1000
0010
1000
,
0010
1000
0010
1000
0010
1000
0000
0100
1100
0000
0011
0000
0101
1001
0110
1010
,
1100
0100
0010
0001
0200
0010
0010
0320
,
1000
1030
0100
0110
0100
1000
0010
0100
,
0101
0001
0000
0010
1010
0000
1100
0000
0110
0011
0101
1010
1001
0000
0010
0000
,
0100
1000
0020
0100
0100
0230
0001
0301
,
0010
0000
0110
0000
0010
0000
0001
0000
0100
0000
0010
0000
1010
1000
0000
1000
,
1100
0000
0110
0000
0011
0110
1100
1010
0110
0000
0010
0000
0100
0000
0010
0000
,
1000
0100
1000
0100
0010
0010
0001
M2MM
,
00M0
0000
M0MM
0000
M0M0
000M
0000
00M0
M31M
0010
0100
0002
0000
0000
0000
0000
,
0000
0000
0000
0020
0003
0000
0000
0130
0000
0100
0000
1000
0010
0200
M000
000M
,
000M
M0M0
0000
M00M
00M0
M000
030M
0000
00M0
0M00
0000
0000
0000
0000
0000
0000
;
